osu file format v10

[General]
AudioFilename: Yousei Teikoku - Sacrifice.mp3
AudioLeadIn: 1000
PreviewTime: 140823
Countdown: 0
SampleSet: Normal
StackLeniency: 0.6
Mode: 0
LetterboxInBreaks: 0

[Editor]
Bookmarks: 132590
DistanceSpacing: 1
BeatDivisor: 4
GridSize: 4

[Metadata]
Title:Sacrifice
TitleUnicode:Sacrifice
Artist:Yousei Teikoku
ArtistUnicode:Yousei Teikoku
Creator:Saten
Version:rickyboi
Source:
Tags:Saten-san Fiya OnosakiHito rickyboi
BeatmapID:161686
BeatmapSetID:40671

[Difficulty]
HPDrainRate:6
CircleSize:4
OverallDifficulty:7
ApproachRate:9
SliderMultiplier:1.9
SliderTickRate:2

[Events]
//Background and Video events
0,0,"117863.jpg"
//Break Periods
2,32800,37334
2,80801,85334
2,134134,138667
//Storyboard Layer 0 (Background)
//Storyboard Layer 1 (Fail)
//Storyboard Layer 2 (Pass)
//Storyboard Layer 3 (Foreground)
//Storyboard Sound Samples
//Background Colour Transformations
3,100,0,0,0

[TimingPoints]
601,222.222222222222,4,1,1,70,1,0
2378,-100,4,1,1,70,0,0
16600,-100,4,1,1,70,0,0
30823,-100,4,1,1,70,0,0
37934,-100,4,1,1,70,0,0
52156,-83.3333333333333,4,1,1,70,0,1
59267,-100,4,1,1,70,0,0
78823,-100,4,1,1,70,0,0
85934,-100,4,1,1,70,0,0
93045,-100,4,1,0,70,0,0
99267,-100,4,1,1,70,0,0
100156,-83.3333333333333,4,1,1,70,0,1
107267,-100,4,1,1,70,0,0
125045,-133.333333333333,4,2,0,70,0,0
131267,-100,4,1,1,60,0,0
132156,-83.3333333333333,4,1,1,70,0,0
139267,-100,4,1,1,70,0,0
141045,-100,4,1,1,70,0,0
155267,-50,4,2,1,20,0,0
155489,-100,4,1,1,70,0,1
173045,-100,4,1,1,70,0,0
189045,-100,4,1,1,100,0,0
189100,-100,4,2,1,5,0,0
189934,-100,4,2,1,65,0,0
190823,-100,4,2,1,60,0,0
191712,-100,4,2,1,55,0,0
192600,-100,4,2,1,50,0,0
193489,-100,4,2,1,45,0,0
194378,-100,4,2,1,40,0,0
195267,-100,4,2,1,35,0,0
196156,-100,4,2,1,30,0,0
197045,-100,4,2,1,25,0,0
197934,-100,4,2,1,20,0,0
198823,-100,4,2,1,15,0,0
199712,-100,4,2,1,10,0,0
200600,-100,4,2,1,5,0,0

[Colours]
Combo1 : 255,128,64
Combo2 : 0,255,128
Combo3 : 0,128,255
Combo4 : 255,128,255

[HitObjects]
160,316,601,2,0,B|216:332|256:296,1,95
332,252,823,1,8,0:0:0
332,252,934,1,8,0:0:0
268,188,1045,2,0,B|312:152|312:152|364:140,2,95
188,224,1378,2,0,B|124:208|124:208|76:140|116:80,1,190
200,108,1712,1,0,0:0:0
280,68,1823,2,0,B|248:28,2,47.5
320,160,2045,2,0,B|340:188|288:220|340:260,2,95,8|0|8,0:0|0:0|0:0,0:0:0
408,196,2378,6,0,B|440:236|440:236|432:280,1,95
364,348,2600,2,0,B|320:332|320:332|268:348,1,95
240,256,2823,1,0,0:0:0
172,320,2934,1,0,0:0:0
84,284,3045,1,8,0:0:0
68,192,3156,1,0,0:0:0
104,104,3267,6,0,B|88:52|136:24,2,95,0|0|8,0:0|0:0|0:0,0:0:0
160,180,3600,2,0,B|180:228,2,47.5
232,116,3823,1,0,0:0:0
324,104,3934,1,8,0:0:0
360,192,4045,1,0,0:0:0
264,236,4156,5,4,0:0:0
264,236,4267,2,0,B|228:236|228:236|196:248|184:280,2,95,0|8|0,0:0|0:0|0:0,0:0:0
340,296,4600,1,0,0:0:0
420,348,4712,1,0,0:0:0
456,260,4823,2,0,B|476:216|476:216|460:172,1,95,8|0,0:0|0:0,0:0:0
412,92,5045,5,0,0:0:0
340,32,5156,1,0,0:0:0
244,40,5267,1,8,0:0:0
284,124,5378,2,0,B|228:156|228:156|200:216|144:216|120:204,1,190
52,140,5712,1,8,0:0:0
132,88,5823,1,8,0:0:0
224,64,5934,6,0,B|272:84|272:84|288:128,1,95
216,180,6156,2,0,B|236:228|236:228|272:252,1,95,8|0,0:0|0:0,0:0:0
468,88,6378,2,0,B|448:140|448:140|460:192,1,95
372,204,6600,2,0,B|388:256|388:256|372:300,1,95,8|0,0:0|0:0,0:0:0
284,328,6823,5,0,0:0:0
208,280,6934,1,0,0:0:0
132,328,7045,1,8,0:0:0
84,252,7156,2,0,B|32:216,2,47.5
124,164,7378,1,0,0:0:0
216,180,7489,2,0,B|268:168|292:128,1,95,8|0,0:0|0:0,0:0:0
256,40,7712,5,4,0:0:0
348,56,7823,1,0,0:0:0
400,136,7934,1,8,0:0:0
332,204,8045,1,0,0:0:0
404,268,8156,1,0,0:0:0
320,316,8267,2,0,B|348:340|348:340|352:356|408:348,2,95,0|8|0,0:0|0:0|0:0,0:0:0
228,336,8600,5,0,0:0:0
168,260,8712,1,0,0:0:0
252,212,8823,1,8,0:0:0
256,116,8934,2,0,B|208:92|208:92|144:92|112:104|80:152,1,190
68,236,9267,1,8,0:0:0
156,200,9378,1,8,0:0:0
204,280,9489,6,0,B|256:280|280:232,1,95,4|0,0:0|0:0,0:0:0
336,156,9712,1,8,0:0:0
432,156,9823,1,0,0:0:0
440,252,9934,2,0,B|380:268|368:332,1,95
288,268,10156,2,0,B|248:228|252:176,1,95,8|0,0:0|0:0,0:0:0
236,88,10378,5,0,0:0:0
320,48,10489,1,0,0:0:0
408,88,10600,1,0,0:0:0
396,184,10712,2,0,B|384:236|384:236|324:248|288:316|288:316|284:344,1,190
192,324,11045,1,8,0:0:0
192,324,11156,1,8,0:0:0
96,328,11267,6,0,B|84:280|84:280|32:240,1,95
112,180,11489,2,0,B|156:204|156:204|176:268,1,95,8|0,0:0|0:0,0:0:0
264,256,11712,2,0,B|296:240|316:264|316:264|380:264,2,95,0|0|8,0:0|0:0|0:0,0:0:0
208,180,12045,1,0,0:0:0
264,104,12156,5,0,0:0:0
180,60,12267,1,0,0:0:0
116,132,12378,1,8,0:0:0
104,228,12489,2,0,B|144:244|144:244|168:276|244:292|280:212,1,190,0|0,0:0|0:0,0:0:0
344,168,12823,2,0,B|384:212|348:260,1,95,8|8,0:0|0:0,0:0:0
376,348,13045,6,0,B|440:356|476:308,1,95,4|0,0:0|0:0,0:0:0
460,228,13267,1,8,0:0:0
452,132,13378,2,0,B|400:92|404:36,2,95
372,188,13712,1,8,0:0:0
288,144,13823,1,0,0:0:0
292,240,13934,6,0,B|272:288|260:288|260:288|240:324,2,95,0|0|8,0:0|0:0|0:0,0:0:0
208,200,14267,2,0,B|168:168|168:168|92:160|60:252,1,190
80,336,14600,2,0,B|120:352|120:352|164:336|180:256|144:224,1,190,8|4,0:0|0:0,0:0:0
256,192,14878,12,4,16600,0:0:0
360,200,16823,6,0,B|312:220|312:220|256:192,1,95,8|0,0:0|0:0,0:0:0
232,116,17045,2,0,B|196:88|196:88|144:96,1,95
64,132,17267,2,0,B|44:180|44:180|60:224,1,95,8|0,0:0|0:0,0:0:0
92,308,17489,5,0,0:0:0
176,352,17600,1,0,0:0:0
252,292,17712,2,0,B|300:272|300:272|316:228,2,95,8|0|0,0:0|0:0|0:0,0:0:0
188,224,18045,1,0,0:0:0
116,160,18156,1,8,0:0:0
116,160,18267,1,8,0:0:0
208,40,18378,6,0,B|260:64|264:124,1,95
356,120,18600,2,0,B|404:140|400:208,1,95,8|0,0:0|0:0,0:0:0
304,200,18823,2,0,B|252:180|208:212,1,95
164,128,19045,2,0,B|108:140|96:196,1,95,8|0,0:0|0:0,0:0:0
84,284,19267,5,0,0:0:0
160,340,19378,1,0,0:0:0
240,292,19489,1,8,0:0:0
232,196,19600,2,0,B|244:148|304:128,2,95
320,232,19934,1,8,0:0:0
320,232,20045,1,0,0:0:0
420,340,20156,6,0,B|464:308|456:244,1,95,4|0,0:0|0:0,0:0:0
420,172,20378,1,8,0:0:0
348,112,20489,1,0,0:0:0
252,112,20600,2,0,B|196:116|168:160,1,95
216,248,20823,2,0,B|268:248|304:200,1,95,8|0,0:0|0:0,0:0:0
356,292,21045,5,0,0:0:0
272,340,21156,1,0,0:0:0
176,328,21267,2,0,B|152:280|176:236,1,95,8|0,0:0|0:0,0:0:0
80,248,21489,2,0,B|88:196|128:160,1,95
68,88,21712,1,8,0:0:0
68,88,21823,1,8,0:0:0
208,52,21934,6,0,B|248:80|296:48,1,95,4|0,0:0|0:0,0:0:0
384,88,22156,2,0,B|424:124|472:116,1,95,8|0,0:0|0:0,0:0:0
420,196,22378,2,0,B|360:204|300:144,2,95,0|0|8,0:0|0:0|0:0,0:0:0
440,284,22712,5,0,0:0:0
440,284,22823,2,0,B|396:328|396:328|304:312|284:240,1,190
264,188,23156,1,8,0:0:0
348,148,23267,2,0,B|400:140|420:92,1,95
332,56,23489,1,8,0:0:0
332,56,23600,1,8,0:0:0
168,56,23712,6,0,B|120:64|120:64|56:96|60:184,1,190,4|8,0:0|0:0,0:0:0
64,276,24045,1,0,0:0:0
128,348,24156,1,0,0:0:0
212,304,24267,1,0,0:0:0
168,220,24378,2,0,B|168:160|232:160,1,95,8|0,0:0|0:0,0:0:0
288,232,24600,6,0,B|320:284|320:284|372:312|448:296,1,190
472,196,24934,1,0,0:0:0
448,104,25045,1,0,0:0:0
368,56,25156,1,0,0:0:0
276,84,25267,2,0,B|236:112|236:112|224:168,1,95,8|0,0:0|0:0,0:0:0
320,168,25489,6,0,B|360:192|360:192|380:244,1,95
292,352,25712,2,0,B|252:328|252:328|232:276,1,95,8|0,0:0|0:0,0:0:0
208,144,25934,2,0,B|248:168|248:168|264:220,1,95
176,328,26156,2,0,B|136:296|136:296|124:244,1,95,8|0,0:0|0:0,0:0:0
140,112,26378,6,0,B|120:92|120:92|80:80|56:88,2,95,0|0|8,0:0|0:0|0:0,0:0:0
172,204,26712,1,0,0:0:0
264,232,26823,2,0,B|292:252|292:252|320:264|352:248,2,95,0|0|8,0:0|0:0|0:0,0:0:0
172,204,27156,1,8,0:0:0
260,48,27267,6,0,B|332:48|332:48|384:88|368:184,1,190,4|8,0:0|0:0,0:0:0
280,184,27600,1,0,0:0:0
352,248,27712,1,0,0:0:0
452,208,27823,2,0,B|464:260|432:300,2,95,0|8|0,0:0|0:0|0:0,0:0:0
352,248,28156,6,0,B|312:308|312:308|256:332|188:284,1,190
212,196,28489,2,0,B|152:192|132:240,1,95
44,272,28712,1,0,0:0:0
60,180,28823,1,0,0:0:0
88,88,28934,1,0,0:0:0
184,76,29045,6,0,B|228:40|228:40|300:80|284:152,2,190,0|8|0,0:0|0:0|0:0,0:0:0
380,268,29712,1,8,0:0:0
200,324,29934,2,0,B|136:324|104:272|104:272|100:196|124:188,1,190
312,60,30267,2,0,B|376:60|408:112|408:112|412:188|388:196,1,190
200,136,30600,2,0,B|208:140|208:140|200:144|200:144|216:152|216:152|212:164|212:164|256:192|272:232|272:232|292:228|292:228|276:252|276:252|288:252|288:252|288:264|288:264|296:280,1,190,0|4,0:0|0:0,0:0:0
256,192,30878,12,4,32600,0:0:0
72,88,37934,6,0,B|112:48|164:72,1,95,4|0,0:0|0:0,0:0:0
152,200,38156,2,0,B|200:220|200:220|256:192,1,95,8|0,0:0|0:0,0:0:0
280,116,38378,2,0,B|316:88|316:88|368:96,1,95
448,132,38600,2,0,B|468:180|468:180|452:224,1,95,8|0,0:0|0:0,0:0:0
420,308,38822,5,0,0:0:0
336,352,38933,1,0,0:0:0
260,292,39045,2,0,B|212:272|212:272|196:228,2,95,8|0|0,0:0|0:0|0:0,0:0:0
324,224,39378,1,0,0:0:0
400,168,39489,2,0,B|384:128|384:128|412:64,1,95
304,40,39711,6,0,B|252:64|248:124,1,95
156,120,39933,2,0,B|108:140|112:208,1,95,8|0,0:0|0:0,0:0:0
208,200,40156,2,0,B|260:180|304:212,1,95
348,128,40378,2,0,B|404:140|416:196,1,95,8|0,0:0|0:0,0:0:0
428,284,40600,5,0,0:0:0
352,340,40711,1,0,0:0:0
272,292,40822,1,8,0:0:0
280,196,40933,2,0,B|268:148|208:128,2,95
192,236,41267,2,0,B|172:280|172:280|192:328,1,95
92,340,41489,6,0,B|48:308|56:244,1,95,4|0,0:0|0:0,0:0:0
92,172,41711,1,8,0:0:0
164,112,41822,1,0,0:0:0
260,112,41933,2,0,B|316:116|344:160,1,95
296,248,42156,2,0,B|244:248|208:200,1,95,8|0,0:0|0:0,0:0:0
156,292,42378,5,0,0:0:0
240,340,42489,1,0,0:0:0
336,328,42600,2,0,B|388:320|416:268,1,95,8|0,0:0|0:0,0:0:0
332,216,42823,2,0,B|356:160|428:176,1,95
468,108,43045,2,0,B|420:96|420:96|400:48,1,95
308,56,43267,5,0,0:0:0
220,92,43378,1,0,0:0:0
128,88,43489,2,0,B|88:124|40:116,1,95,8|0,0:0|0:0,0:0:0
92,196,43711,2,0,B|152:204|212:144,2,95,0|0|8,0:0|0:0|0:0,0:0:0
72,284,44045,5,0,0:0:0
72,284,44156,2,0,B|116:328|116:328|208:312|228:240,1,190
248,188,44489,1,8,0:0:0
164,148,44600,2,0,B|112:140|92:92,1,95
180,56,44822,1,8,0:0:0
180,56,44933,1,8,0:0:0
344,56,45045,6,0,B|392:64|392:64|456:96|452:184,1,190,4|8,0:0|0:0,0:0:0
448,276,45378,1,0,0:0:0
384,348,45489,1,0,0:0:0
300,304,45600,1,0,0:0:0
344,220,45711,2,0,B|344:160|280:160,1,95,8|0,0:0|0:0,0:0:0
224,232,45933,6,0,B|192:284|192:284|140:312|64:296,1,190
40,196,46267,1,0,0:0:0
64,104,46378,1,0,0:0:0
144,56,46489,1,0,0:0:0
236,84,46600,2,0,B|276:112|276:112|288:168,1,95,8|0,0:0|0:0,0:0:0
192,168,46822,6,0,B|152:192|152:192|132:244,1,95
220,352,47045,2,0,B|260:328|260:328|280:276,1,95,8|0,0:0|0:0,0:0:0
304,144,47267,2,0,B|264:168|264:168|248:220,1,95
336,328,47489,2,0,B|376:296|376:296|388:244,1,95,8|0,0:0|0:0,0:0:0
372,112,47711,6,0,B|392:92|392:92|432:80|456:88,2,95,0|0|8,0:0|0:0|0:0,0:0:0
340,204,48045,1,0,0:0:0
248,232,48156,2,0,B|220:252|220:252|192:264|160:248,2,95,0|0|8,0:0|0:0|0:0,0:0:0
340,204,48489,1,8,0:0:0
252,48,48600,6,0,B|180:48|180:48|128:88|144:184,1,190,4|8,0:0|0:0,0:0:0
232,184,48933,1,0,0:0:0
160,248,49045,1,0,0:0:0
60,208,49156,2,0,B|48:260|80:300,2,95,0|8|0,0:0|0:0|0:0,0:0:0
160,248,49489,6,0,B|200:308|200:308|256:332|324:284,1,190
312,292,49822,2,0,B|308:232|356:212,1,95
428,272,50045,1,0,0:0:0
468,184,50156,1,0,0:0:0
412,108,50267,1,0,0:0:0
328,76,50378,6,0,B|272:108|272:108|232:156|276:232,2,190,0|8|0,0:0|0:0|0:0,0:0:0
132,268,51045,1,8,0:0:0
80,48,51267,2,0,B|100:124|176:136|176:136|216:120|256:148,1,190
432,336,51600,2,0,B|412:260|336:248|336:248|296:264|256:236,1,190
312,160,51934,1,8,0:0:0
380,96,52045,1,8,0:0:0
416,184,52156,6,0,B|336:288,1,114.000002717972,12|0,0:0|0:0,0:0:0
228,340,52378,2,0,B|108:340,1,114.000002717972,8|0,0:0|0:0,0:0:0
64,168,52600,2,0,B|152:256,1,114.000002717972,8|0,0:0|0:0,0:0:0
256,116,52823,6,0,B|256:232,1,114.000002717972,8|0,0:0|0:0,0:0:0
408,148,53045,2,0,B|328:36,1,114.000002717972,8|0,0:0|0:0,0:0:0
172,52,53267,2,0,B|100:156,1,114.000002717972,8|0,0:0|0:0,0:0:0
196,292,53489,6,0,B|244:320|308:312,1,114.000002717972
228,148,53712,2,0,B|284:168|320:224,1,114.000002717972
356,104,53934,2,0,B|320:60|260:40,1,114.000002717972
112,120,54156,6,0,B|88:172|108:240,1,114.000002717972
184,76,54378,2,0,B|244:84|296:60,1,114.000002717972
176,184,54600,2,0,B|164:244|208:304,1,114.000002717972
296,260,54823,5,0,0:0:0
408,260,54934,2,0,B|472:260,2,57.0000013589859
300,144,55156,5,12,0:0:0
408,144,55267,2,0,B|468:144,2,57.0000013589859
324,44,55489,5,12,0:0:0
324,44,55600,1,8,0:0:0
228,68,55712,6,0,B|168:96|160:160,1,114.000002717972,12|0,0:0|0:0,0:0:0
388,124,55934,2,0,B|408:188|360:240,1,114.000002717972,8|0,0:0|0:0,0:0:0
144,280,56156,2,0,B|204:284|256:240,1,114.000002717972,8|0,0:0|0:0,0:0:0
428,284,56378,6,0,B|376:320|316:288,1,114.000002717972,8|0,0:0|0:0,0:0:0
296,64,56600,2,0,B|248:112|252:176,1,114.000002717972,8|0,0:0|0:0,0:0:0
96,332,56823,2,0,B|160:344|192:288,1,114.000002717972,8|0,0:0|0:0,0:0:0
52,192,57045,6,0,B|72:192|72:192|108:180|148:192|148:192|168:192,1,114.000002717972
312,104,57267,2,0,B|292:104|292:104|256:116|216:104|216:104|196:104,1,114.000002717972
344,192,57489,2,0,B|364:192|364:192|400:180|440:192|440:192|460:192,1,114.000002717972
316,292,57712,6,0,B|292:284|292:284|260:284|260:284|232:268|232:268|208:268,1,114.000002717972
52,192,57934,2,0,B|64:180|64:180|64:96|64:96|80:80,1,114.000002717972
176,168,58156,2,0,B|212:120|212:120|264:88,1,114.000002717972
388,36,58378,5,8,0:0:0
388,36,58434,1,8,0:0:0
388,36,58489,1,8,0:0:0
460,132,58600,2,0,B|392:132,2,57.0000013589859
400,224,58823,1,8,0:0:0
288,224,58934,1,8,0:0:0
176,228,59045,1,8,0:0:0
64,224,59156,1,8,0:0:0
84,112,59267,6,0,B|112:56|164:64|164:64|168:116|208:136,1,190,4|8,0:0|0:0,0:0:0
232,228,59600,1,0,0:0:0
168,300,59712,1,0,0:0:0
256,336,59823,2,0,B|304:348|356:324,1,95,0|8,0:0|0:0,0:0:0
332,232,60045,6,0,B|364:180|280:140|280:140|328:72,1,190,4|0,0:0|0:0,0:0:0
416,96,60378,1,8,0:0:0
319,83,60489,1,0,0:0:0
236,40,60600,2,8,B|192:96|112:84|112:84|88:164,1,190
144,216,60934,1,0,0:0:0
228,172,61045,6,0,B|304:144|332:212|332:212|404:192,1,190,4|8,0:0|0:0,0:0:0
468,256,61378,1,0,0:0:0
380,296,61489,1,0,0:0:0
284,300,61600,2,0,B|252:260|272:212,1,95,0|8,0:0|0:0,0:0:0
216,132,61823,6,0,B|184:88|116:112|116:112|80:72|44:72,1,190,4|0,0:0|0:0,0:0:0
60,168,62156,1,8,0:0:0
144,216,62267,1,0,0:0:0
88,292,62378,2,0,B|116:344|152:344|188:308|188:308|244:340,1,190,0|8,0:0|0:0,0:0:0
304,268,62712,1,8,0:0:0
368,340,62823,5,4,0:0:0
448,288,62934,1,0,0:0:0
452,192,63045,1,8,0:0:0
392,116,63156,2,0,B|328:148|268:116|268:116|240:24|220:48,1,190,0|8,0:0|0:0,0:0:0
60,96,63600,6,0,B|144:112|176:156|176:156|144:212,1,190,0|0,0:0|0:0,0:0:0
56,236,63934,1,8,0:0:0
92,324,64045,2,0,B|68:372,2,47.5
184,308,64267,1,0,0:0:0
244,236,64378,1,8,0:0:0
168,60,64600,5,0,0:0:0
260,36,64712,1,0,0:0:0
260,132,64823,1,0,0:0:0
332,196,64934,2,0,B|388:164|388:164|452:188|464:280,1,190
284,332,65378,6,0,B|336:344|336:344|392:308|396:216,1,190,0|8,0:0|0:0,0:0:0
484,192,65712,1,8,0:0:0
432,112,65823,2,0,B|396:76,2,47.5
356,172,66045,1,0,0:0:0
284,232,66156,1,8,0:0:0
284,232,66267,1,0,0:0:0
216,164,66378,6,0,B|176:96|104:80|104:80|56:112,1,190,4|8,0:0|0:0,0:0:0
100,196,66712,1,0,0:0:0
168,260,66823,2,0,B|128:300|160:344,1,95
252,320,67045,1,8,0:0:0
284,232,67156,6,0,B|336:232|336:232|368:184|352:136|352:136|392:96,1,190,4|0,0:0|0:0,0:0:0
452,172,67489,1,8,0:0:0
420,264,67600,2,0,B|380:296|384:352,1,95
292,320,67823,1,0,0:0:0
204,288,67934,2,0,B|184:236|184:236|132:208,1,95
60,184,68156,6,0,B|48:120|48:120|96:64|164:128,1,190,4|8,0:0|0:0,0:0:0
240,76,68490,1,0,0:0:0
332,48,68601,2,0,B|372:80|380:140,1,95,0|0,0:0|0:0,0:0:0
292,164,68823,1,8,0:0:0
200,192,68934,6,0,B|168:232|216:280|216:280|264:296|284:360,1,190,4|0,0:0|0:0,0:0:0
372,340,69267,1,8,0:0:0
444,276,69378,1,0,0:0:0
360,232,69489,2,0,B|348:176|256:168|256:168|184:200,1,190,0|8,0:0|0:0,0:0:0
256,272,69823,1,8,0:0:0
201,192,69934,6,4,B|176:236|156:276,1,95
96,344,70156,1,8,0:0:0
76,248,70267,2,0,B|88:172|88:172|132:116|184:112,1,190,0|8,0:0|0:0,0:0:0
288,268,70712,6,0,B|336:316|336:316|400:324|448:272,1,190
400,192,71045,1,0,0:0:0
348,112,71156,2,0,B|388:88,2,47.5
268,164,71378,1,0,0:0:0
188,216,71489,1,8,0:0:0
188,216,71600,1,8,0:0:0
152,128,71712,6,0,B|176:88|176:88|176:40,1,95,4|0,0:0|0:0,0:0:0
88,72,71934,1,0,0:0:0
68,164,72045,2,0,B|88:216|60:264|60:264|112:304|112:304|140:304,1,190,0|8,0:0|0:0,0:0:0
316,348,72489,6,0,B|328:268|328:268|252:220|240:152,1,190
168,236,72823,1,0,0:0:0
156,140,72934,2,0,B|112:124,2,47.5
236,88,73156,1,0,0:0:0
324,120,73267,2,0,B|340:72|400:76,1,95,8|0,0:0|0:0,0:0:0
408,172,73489,6,0,B|360:200|360:200|300:200,2,95,4|8|8,0:0|0:0|0:0,0:0:0
408,268,73823,2,0,B|376:316|280:264|280:264|220:300,1,190,0|8,0:0|0:0,0:0:0
68,204,74267,6,0,B|120:224|120:224|188:216|224:176|224:176|240:152,1,190
184,92,74600,1,8,0:0:0
88,96,74712,2,0,B|40:84,2,47.5
184,92,74934,1,0,0:0:0
264,40,75045,1,8,0:0:0
264,40,75156,1,8,0:0:0
360,48,75267,6,0,B|360:112|320:140,1,95,4|0,0:0|0:0,0:0:0
404,192,75489,1,8,0:0:0
484,240,75600,2,0,B|508:184|508:184|496:108|428:80,1,190
376,264,76045,6,0,B|312:256|324:204|324:204|308:160|308:160|256:144,1,190
164,148,76378,1,8,0:0:0
216,228,76489,2,0,B|248:280,2,47.5,0|0|8,0:0|0:0|0:0,0:0:0
120,244,76712,2,0,B|68:272|32:244,1,95,0|8,0:0|0:0,0:0:0
68,156,76934,1,8,0:0:0
108,68,77045,6,0,B|156:56|156:56|208:72,1,95,4|0,0:0|0:0,0:0:0
288,32,77267,2,0,B|340:70|340:70|400:58|440:82|440:82|480:102,1,190,8|0,0:0|0:0,0:0:0
388,156,77600,1,0,0:0:0
292,156,77712,5,8,0:0:0
292,156,77823,2,0,B|244:196|284:264|284:264|216:288,1,190,4|0,0:0|0:0,0:0:0
136,336,78156,1,0,0:0:0
120,244,78267,1,0,0:0:0
120,244,78323,1,0,0:0:0
120,244,78378,1,0,0:0:0
144,152,78489,2,0,B|160:132|160:132|196:124|228:88,2,95,8|0|8,0:0|0:0|0:0,0:0:0
144,152,78823,1,4,0:0:0
256,192,78878,12,4,80601,0:0:0
256,192,85934,6,0,B|304:252|304:252|384:264|424:196,1,190,4|8,0:0|0:0,0:0:0
152,96,86378,2,0,B|200:36|200:36|280:24|320:92,1,190,0|8,0:0|0:0,0:0:0
44,188,86823,2,0,B|140:264|160:200|160:200|236:236,1,190,0|8,0:0|0:0,0:0:0
456,344,87267,2,0,B|436:268|364:260|364:260|316:228,1,190
316,228,87600,1,8,0:0:0
452,104,87712,6,0,B|380:120|360:196|360:196|316:232,1,190,0|8,0:0|0:0,0:0:0
236,348,88156,2,0,B|164:304|164:304|164:240|216:204,1,190,0|8,0:0|0:0,0:0:0
488,244,88600,2,0,B|416:188|400:212|400:212|320:160,1,190,0|8,0:0|0:0,0:0:0
64,284,89045,2,0,B|40:312|40:312|40:348|64:360,2,95,0|0|8,0:0|0:0|0:0,0:0:0
64,284,89378,1,0,0:0:0
52,144,89489,6,0,B|108:208|140:172|140:172|168:144|168:144|196:140|208:180,1,190,0|8,0:0|0:0,0:0:0
440,328,89934,2,0,B|420:352|376:352|356:328,1,95
400,276,90156,2,0,B|396:228|360:216|360:216|344:160|372:100,1,190,8|0,0:0|0:0,0:0:0
208,340,90600,1,8,0:0:0
256,60,90823,2,0,B|300:40|352:64,1,95
300,144,91045,1,8,0:0:0
204,144,91156,1,8,0:0:0
152,60,91267,6,0,B|56:120|68:228,1,190,0|8,0:0|0:0,0:0:0
248,276,91712,2,0,B|320:296|320:296|364:272|404:216,1,190,0|8,0:0|0:0,0:0:0
284,72,92156,2,0,B|280:140|280:140|204:168|176:224,1,190
148,124,92489,2,0,B|104:148|104:148|76:204|100:248|100:248|140:280,1,190,8|0,0:0|0:0,0:0:0
188,348,92823,1,8,0:0:0
248,276,92934,1,8,0:0:0
188,200,93045,6,0,B|216:152|280:148|316:188|316:188|352:164,1,190,4|8,0:0|0:0,0:0:0
488,296,93489,2,0,B|436:244|476:184|476:184|448:120,1,190,0|8,0:0|0:0,0:0:0
340,276,93934,2,0,B|264:320|264:320|220:248|136:280,1,190,0|8,0:0|0:0,0:0:0
184,80,94378,2,0,B|208:128|208:128|252:152|304:124|304:124|344:140,1,190,0|8,0:0|0:0,0:0:0
420,88,94712,1,0,0:0:0
336,48,94823,6,0,B|264:72|264:72|236:128|272:180,2,190,0|8|0,0:0|0:0|0:0,0:0:0
472,180,95489,1,8,0:0:0
328,304,95712,2,0,B|232:276|236:228|236:228|280:168,1,190,0|8,0:0|0:0,0:0:0
132,52,96156,2,0,B|84:88|88:140,1,95
84,228,96378,1,8,0:0:0
84,228,96489,1,8,0:0:0
180,216,96600,6,0,B|236:124|344:160,1,190,0|8,0:0|0:0,0:0:0
252,328,97045,2,0,B|184:232|284:144,1,190,0|8,0:0|0:0,0:0:0
412,32,97489,2,0,B|468:120|404:212,1,190,0|8,0:0|0:0,0:0:0
288,60,97934,2,0,B|396:68|436:172,1,190,0|8,0:0|0:0,0:0:0
372,240,98267,1,0,0:0:0
320,160,98378,6,0,B|256:192|256:192|204:124|144:152,1,190,0|8,0:0|0:0,0:0:0
228,324,98823,2,0,B|304:264|320:152,1,190,0|8,0:0|0:0,0:0:0
180,32,99267,6,0,B|120:84|120:88|124:168|124:168|100:204,1,190
332,32,99600,2,0,B|392:84|392:88|388:168|388:168|412:204,1,190
256,144,99934,1,8,0:0:0
256,144,100045,1,8,0:0:0
88,176,100156,6,0,B|80:240|132:276,1,114.000002717972,12|0,0:0|0:0,0:0:0
300,248,100378,2,0,B|312:188|248:136,1,114.000002717972,8|0,0:0|0:0,0:0:0
96,104,100600,2,0,B|128:48|192:48,1,114.000002717972,8|0,0:0|0:0,0:0:0
192,220,100823,6,0,B|248:216|312:256,1,114.000002717972,8|0,0:0|0:0,0:0:0
308,80,101045,2,0,B|368:108|416:72,1,114.000002717972,8|0,0:0|0:0,0:0:0
408,244,101267,2,0,B|460:208|460:140,1,114.000002717972,8|0,0:0|0:0,0:0:0
304,216,101489,6,0,B|264:264|300:324,1,114.000002717972,8|0,0:0|0:0,0:0:0
172,340,101712,2,0,B|108:364|56:312,1,114.000002717972,8|0,0:0|0:0,0:0:0
120,156,101934,2,0,B|168:208|136:272,1,114.000002717972,8|0,0:0|0:0,0:0:0
200,100,102156,6,0,B|252:64|308:80,1,114.000002717972,8|0,0:0|0:0,0:0:0
460,156,102378,2,0,B|404:184|348:156,1,114.000002717972,8|0,0:0|0:0,0:0:0
208,248,102600,2,0,B|264:224|268:160,1,114.000002717972,8|0,0:0|0:0,0:0:0
152,32,102823,5,8,0:0:0
260,68,102934,2,0,B|304:28,2,57.0000013589859
332,156,103156,5,8,0:0:0
368,264,103267,2,0,B|428:264,2,57.0000013589859
272,324,103489,5,8,0:0:0
272,324,103600,1,8,0:0:0
112,324,103712,6,0,B|52:312|28:256,1,114.000002717972,12|0,0:0|0:0,0:0:0
152,140,103934,2,0,B|160:208|112:240,1,114.000002717972,8|0,0:0|0:0,0:0:0
88,72,104156,2,0,B|136:36|196:52,1,114.000002717972,8|0,0:0|0:0,0:0:0
244,216,104378,6,0,B|252:152|308:124,1,114.000002717972,8|0,0:0|0:0,0:0:0
476,136,104600,2,0,B|420:136|376:84,1,114.000002717972,8|0,0:0|0:0,0:0:0
368,260,104823,2,8,B|344:320|280:328,1,114.000002717972
112,324,105045,6,0,B|168:312|184:244,1,114.000002717972,8|0,0:0|0:0,0:0:0
48,140,105267,2,0,B|52:204|104:236,1,114.000002717972,8|0,0:0|0:0,0:0:0
248,148,105489,2,8,B|188:132|140:176,1,114.000002717972,8|0,0:0|0:0,0:0:0
240,32,105712,6,0,B|304:44|328:104,1,114.000002717972,8|0,0:0|0:0,0:0:0
204,220,105934,2,0,B|232:280|292:288,1,114.000002717972,8|0,0:0|0:0,0:0:0
452,232,106156,2,0,B|408:192|336:208,1,114.000002717972,8|0,0:0|0:0,0:0:0
448,344,106378,5,8,0:0:0
448,344,106434,1,8,0:0:0
448,344,106489,1,8,0:0:0
336,344,106600,2,0,B|336:288,2,57.0000013589859
220,344,106823,1,8,0:0:0
260,260,106934,1,8,0:0:0
300,180,107045,1,8,0:0:0
344,100,107156,1,8,0:0:0
264,48,107267,6,0,B|204:76|204:76|184:124|184:124|124:156|124:156|88:160,1,190,4|8,0:0|0:0,0:0:0
56,88,107600,1,0,0:0:0
124,156,107712,1,0,0:0:0
76,240,107823,2,0,B|120:256|120:256|152:236|152:236|180:236,1,95
212,156,108045,6,0,B|260:184|260:184|300:172|300:172|320:128|320:128|352:112|352:112|376:112,1,190,4|0,0:0|0:0,0:0:0
444,160,108378,1,0,0:0:0
376,228,108489,1,0,0:0:0
336,316,108600,2,0,B|300:296|252:308|212:332|212:332|172:292|152:280,1,190
84,336,108934,1,0,0:0:0
76,240,109045,6,0,B|28:192|84:140|84:140|44:68,1,190,4|8,0:0|0:0,0:0:0
140,64,109378,1,0,0:0:0
168,156,109489,1,0,0:0:0
236,88,109600,2,0,B|280:112|336:92,1,95
404,40,109823,6,0,B|424:112|400:164|400:164|336:192,1,190,4|0,0:0|0:0,0:0:0
244,176,110156,1,0,0:0:0
188,252,110267,1,0,0:0:0
272,296,110378,2,0,B|296:344|344:356|400:328|400:328|452:344,1,190
439,340,110712,1,8,0:0:0
420,248,110823,5,4,0:0:0
328,224,110934,1,0,0:0:0
396,156,111045,1,8,0:0:0
304,136,111156,2,0,B|240:104|180:136|180:136|152:228|132:204,1,190,0|8,0:0|0:0,0:0:0
256,356,111600,6,0,B|340:352|372:296|372:296|352:240,1,190,0|0,0:0|0:0,0:0:0
308,160,111934,1,8,0:0:0
236,100,112045,2,0,B|192:136,2,47.5
308,36,112267,1,0,0:0:0
404,36,112378,1,8,0:0:0
164,36,112600,5,4,0:0:0
256,36,112712,1,0,0:0:0
208,120,112823,1,0,0:0:0
160,204,112934,2,0,B|104:172|104:172|40:196|28:288,1,190
212,332,113378,6,0,B|160:344|160:344|104:308|100:216,1,190,0|8,0:0|0:0,0:0:0
32,160,113712,1,8,0:0:0
80,76,113823,2,0,B|80:28,2,47.5
148,140,114045,1,0,0:0:0
228,192,114156,1,8,0:0:0
228,192,114267,1,0,0:0:0
256,100,114378,6,0,B|320:12|368:128|408:72|452:100,1,190,4|8,0:0|0:0,0:0:0
380,172,114712,1,0,0:0:0
436,248,114823,1,0,0:0:0
380,172,114934,2,0,B|328:172|328:172|292:200,1,95,0|8,0:0|0:0,0:0:0
312,292,115156,6,0,B|268:348|212:364|140:324,1,190,4|0,0:0|0:0,0:0:0
112,236,115489,2,0,B|84:176|144:112|144:112|200:92,2,190,8|0|8,0:0|0:0|0:0,0:0:0
196,192,116045,1,8,0:0:0
196,96,116156,6,0,B|268:56|272:196|376:128,1,190,4|0,0:0|0:0,0:0:0
328,48,116489,1,0,0:0:0
364,136,116600,2,0,B|316:220,1,95
240,276,116823,1,0,0:0:0
196,192,116934,6,0,B|144:128|228:116|184:24|136:44,1,190,4|0,0:0|0:0,0:0:0
56,96,117267,1,8,0:0:0
124,160,117378,1,0,0:0:0
124,256,117489,2,0,B|100:300|40:300,2,95
124,256,117823,1,8,0:0:0
124,256,117934,6,0,B|172:228|172:228|232:228,2,95,4|8|8,0:0|0:0|0:0,0:0:0
124,160,118268,2,0,B|156:112|224:124|224:124|288:76,1,190,0|8,0:0|0:0,0:0:0
444,180,118712,6,0,B|392:160|392:160|324:168|288:208|288:208|272:232,1,190
328,292,119045,1,8,0:0:0
424,288,119157,2,0,B|472:300,2,47.5
328,292,119379,1,0,0:0:0
248,344,119490,1,8,0:0:0
248,344,119601,1,8,0:0:0
152,336,119712,6,0,B|152:272|192:244,1,95,4|0,0:0|0:0,0:0:0
108,192,119934,1,8,0:0:0
28,144,120045,2,0,B|4:200|4:200|16:276|84:304,1,190
136,120,120489,6,0,B|200:116|220:136|200:196|200:196|228:248,1,190
324,248,120823,1,8,0:0:0
300,156,120934,2,0,B|284:104,2,47.5,0|0|8,0:0|0:0|0:0,0:0:0
392,140,121157,2,0,B|444:112|480:140,1,95,0|8,0:0|0:0,0:0:0
440,228,121379,1,8,0:0:0
348,236,121489,6,0,B|308:272|260:256,1,95,4|0,0:0|0:0,0:0:0
168,232,121711,1,8,0:0:0
104,164,121822,2,0,B|116:88|116:88|160:32|212:28,1,190,0|8,0:0|0:0,0:0:0
400,24,122267,6,0,B|476:40|476:40|512:80|496:152,1,190
408,180,122600,1,0,0:0:0
340,112,122711,2,0,B|304:80,2,47.5
268,164,122933,1,0,0:0:0
188,216,123044,1,8,0:0:0
188,216,123155,1,8,0:0:0
152,128,123267,6,0,B|176:88|176:88|176:40,1,95,4|0,0:0|0:0,0:0:0
88,72,123489,1,0,0:0:0
68,164,123600,2,0,B|88:216|60:264|60:264|112:304|112:304|140:304,1,190,0|8,0:0|0:0,0:0:0
316,348,124044,6,0,B|328:268|328:268|252:220|240:152,1,190
168,236,124378,1,0,0:0:0
156,140,124489,2,0,B|112:124,2,47.5
236,88,124711,1,0,0:0:0
324,120,124822,2,0,B|340:72|400:76,1,95,8|0,0:0|0:0,0:0:0
404,220,125045,6,0,B|464:264|464:264,1,71.2499978765846,4|0,0:0|0:0,0:0:0
392,332,125267,1,8,0:0:0
292,324,125378,2,0,B|260:368|212:328|212:328|144:344,1,142.499995753169,0|0,0:0|0:0,0:0:0
68,308,125712,1,8,0:0:0
68,204,125822,6,0,B|108:224|108:224|152:228|172:204|172:204|200:204,1,142.499995753169
192,104,126156,1,8,0:0:0
92,100,126267,2,0,B|104:64|124:32,1,71.2499978765846
192,104,126489,1,0,0:0:0
268,36,126600,1,8,0:0:0
268,36,126711,1,0,0:0:0
360,48,126822,6,0,B|368:92|336:116,1,71.2499978765846,4|0,0:0|0:0,0:0:0
408,188,127045,1,8,0:0:0
488,244,127155,2,0,B|504:184|504:184|504:144|472:108,1,142.499995753169
408,188,127489,1,8,0:0:0
408,188,127600,2,0,B|364:224|328:216|320:192|320:192|276:188,1,142.499995753169
172,188,127934,1,8,0:0:0
204,304,128045,6,0,B|244:280|244:236,1,71.2499978765846
120,284,128267,2,0,B|92:312|52:304,1,71.2499978765846,0|8,0:0|0:0,0:0:0
76,200,128489,1,0,0:0:0
180,172,128600,5,4,0:0:0
104,104,128712,2,0,B|128:72|168:72,2,71.2499978765846,0|8|0,0:0|0:0|0:0,0:0:0
180,172,129045,2,0,B|252:172,1,71.2499978765846
336,108,129267,2,0,B|264:108,1,71.2499978765846,8|0,0:0|0:0,0:0:0
344,36,129489,6,0,B|392:48|404:76,1,71.2499978765846
460,128,129712,2,0,B|432:200,1,71.2499978765846,8|0,0:0|0:0,0:0:0
336,240,129934,2,0,B|368:176,1,71.2499978765846
272,220,130156,2,0,B|244:284,1,71.2499978765846,8|0,0:0|0:0,0:0:0
136,272,130378,5,4,0:0:0
36,308,130489,2,0,B|24:272|40:236,2,71.2499978765846,0|8|0,0:0|0:0|0:0,0:0:0
136,272,130823,2,0,B|172:256|208:272,1,71.2499978765846
136,348,131045,2,0,B|172:364|208:348,1,71.2499978765846
300,316,131267,5,0,0:0:0
376,244,131378,2,0,B|420:228|420:228|444:184,2,95,8|8|8,0:0|0:0|0:0,0:0:0
292,200,131712,1,8,0:0:0
208,156,131823,1,8,0:0:0
124,112,131934,1,8,0:0:0
40,68,132045,1,8,0:0:0
124,112,132156,1,4,0:0:0
256,192,132212,12,4,133934,0:0:0
184,52,139267,6,0,B|112:104|164:180|164:180|136:220,1,190,0|8,0:0|0:0,0:0:0
348,236,139712,5,0,0:0:0
308,332,139823,2,0,B|348:368|404:352,2,95,8|0|8,0:0|0:0|0:0,0:0:0
220,280,140156,1,0,0:0:0
128,332,140267,5,8,0:0:0
128,332,140323,1,8,0:0:0
128,332,140378,1,8,0:0:0
72,244,140489,1,8,0:0:0
160,184,140600,2,0,B|200:156,2,47.5,8|8|8,0:0|0:0|0:0,0:0:0
120,88,140823,1,0,0:0:0
200,20,140934,1,0,0:0:0
304,84,141045,6,0,B|356:140|352:208|300:256,1,190,4|8,0:0|0:0,0:0:0
212,204,141378,1,0,0:0:0
212,308,141489,1,0,0:0:0
212,204,141600,2,0,B|196:156|140:144,1,95,0|8,0:0|0:0,0:0:0
60,212,141823,6,0,B|136:232|184:168|184:168|212:156|236:160,1,190,4|0,0:0|0:0,0:0:0
332,196,142156,1,8,0:0:0
272,280,142267,1,0,0:0:0
376,284,142378,2,0,B|444:264|468:208|468:208|432:128,1,190,0|8,0:0|0:0,0:0:0
392,52,142712,1,8,0:0:0
300,100,142823,6,0,B|284:172|208:140|192:196|192:196|204:232,1,190,4|8,0:0|0:0,0:0:0
256,324,143156,1,0,0:0:0
308,232,143267,1,0,0:0:0
256,324,143378,2,0,B|204:340|160:320,1,95,0|8,0:0|0:0,0:0:0
88,248,143600,6,0,B|88:184|144:152|176:208|240:168|240:168,1,190,4|0,0:0|0:0,0:0:0
180,80,143934,1,8,0:0:0
132,172,144045,1,0,0:0:0
196,256,144156,2,0,B|256:268|304:236|312:180|312:180|336:140,1,190,0|8,0:0|0:0,0:0:0
380,60,144489,1,8,0:0:0
424,156,144600,5,4,0:0:0
380,60,144712,1,0,0:0:0
484,64,144823,1,8,0:0:0
380,60,144934,2,0,B|314:60|274:132|294:200,1,190
88,232,145378,6,0,B|148:200|200:288|200:288|280:288,1,190
256,184,145712,1,8,0:0:0
176,116,145823,2,0,B|136:88,2,47.5
144,216,146045,1,8,0:0:0
100,312,146156,1,8,0:0:0
56,108,146378,5,4,0:0:0
124,28,146489,1,0,0:0:0
224,60,146600,1,8,0:0:0
220,160,146712,2,0,B|196:220|232:296|300:304,1,190
444,252,147156,6,0,B|408:332|348:336|348:336|300:304,1,190
340,208,147489,1,8,0:0:0
380,112,147600,2,0,B|404:60,2,47.5
340,208,147823,1,0,0:0:0
256,148,147934,1,8,0:0:0
172,208,148045,1,8,0:0:0
168,104,148156,6,0,B|180:48|236:28|288:36|324:68,1,190,4|8,0:0|0:0,0:0:0
392,144,148489,1,0,0:0:0
328,228,148600,2,0,B|252:308,1,95
156,296,148823,1,8,0:0:0
172,208,148934,6,0,B|212:160|212:104|180:64|124:56,1,190,4|0,0:0|0:0,0:0:0
84,152,149267,2,0,B|36:168|24:224,2,95,8|0|0,0:0|0:0|0:0,0:0:0
176,104,149600,1,0,0:0:0
172,208,149712,2,8,B|212:240|264:224,1,95,8|0,0:0|0:0,0:0:0
368,108,149934,6,0,B|432:136|444:192|444:192|412:256,1,190,4|8,0:0|0:0,0:0:0
340,336,150267,1,0,0:0:0
236,336,150378,1,0,0:0:0
280,240,150489,2,0,B|232:152,1,95,0|8,0:0|0:0,0:0:0
368,108,150712,6,0,B|328:48|244:40|244:40|196:64,1,190,4|0,0:0|0:0,0:0:0
268,144,151045,1,8,0:0:0
204,60,151156,1,0,0:0:0
104,84,151267,2,0,B|36:108|28:192|28:192|76:252,1,190,0|8,0:0|0:0,0:0:0
60,232,151600,1,8,0:0:0
236,336,151712,6,0,B|188:320|164:272,2,95,4|0|8,0:0|0:0|0:0,0:0:0
248,232,152045,2,0,B|284:200|312:208|328:272|352:288|376:280|416:240,1,190
484,52,152489,6,0,B|452:116|364:76|352:176,1,190
456,196,152823,1,8,0:0:0
400,284,152934,2,0,B|420:332,2,47.5
300,260,153156,1,0,0:0:0
352,172,153267,1,8,0:0:0
280,96,153378,1,8,0:0:0
192,44,153489,6,0,B|152:76|148:124,1,95,4|0,0:0|0:0,0:0:0
208,212,153712,1,8,0:0:0
308,188,153823,2,0,B|320:240|304:332|216:340,1,190
20,340,154267,6,0,B|20:272|84:224|152:232,1,190
112,116,154601,1,8,0:0:0
216,76,154712,2,0,B|200:32,2,47.5
256,184,154934,1,0,0:0:0
192,268,155045,1,8,0:0:0
248,356,155156,1,8,0:0:0
352,324,155267,6,0,B|456:324|512:192|456:68|340:68,1,380,0|4,0:0|0:0,0:0:0
156,156,155712,6,0,B|224:128|296:160|296:232,1,190,8|0,0:0|0:0,0:0:0
240,312,156045,2,0,B|200:296|196:228|196:228|228:208|260:148,1,190
332,100,156378,5,8,0:0:0
244,48,156489,1,0,0:0:0
148,92,156600,2,0,B|160:152|76:160|76:160|48:232,1,190,0|8,0:0|0:0,0:0:0
96,324,156934,1,8,0:0:0
152,248,157045,6,0,B|212:224|224:184|224:184|276:180|312:220,2,190,4|0|0,0:0|0:0|0:0,0:0:0
152,248,157600,2,0,B|156:300|216:332,1,95
368,276,157823,6,0,B|328:336|244:344|244:344|196:320,1,190,4|0,0:0|0:0,0:0:0
268,240,158156,1,8,0:0:0
204,160,158267,1,0,0:0:0
148,248,158378,2,0,B|80:224|72:140|72:140|120:80,1,190,0|8,0:0|0:0,0:0:0
104,100,158711,1,8,0:0:0
228,100,158823,6,0,B|324:68,1,95,4|0,0:0|0:0,0:0:0
416,36,159045,1,8,0:0:0
436,136,159156,2,0,B|424:212|424:212|380:268|328:272,1,190,0|8,0:0|0:0,0:0:0
224,116,159601,6,0,B|176:68|176:68|112:60|64:112,1,190
108,204,159934,1,0,0:0:0
156,296,160045,2,0,B|120:328,2,47.5
232,228,160267,1,0,0:0:0
312,164,160378,1,8,0:0:0
312,164,160489,1,8,0:0:0
352,264,160601,6,0,B|324:304|324:304|324:352,1,95,4|0,0:0|0:0,0:0:0
424,316,160823,1,0,0:0:0
464,220,160934,2,0,B|444:168|472:120|472:120|420:80|420:80|392:80,1,190,0|8,0:0|0:0,0:0:0
196,32,161378,6,0,B|184:112|184:112|260:160|272:228,1,190
348,136,161712,1,0,0:0:0
360,240,161823,2,0,B|396:268,2,47.5
276,300,162045,1,0,0:0:0
172,308,162156,2,0,B|156:356|96:352,1,95,8|0,0:0|0:0,0:0:0
104,116,162378,6,0,B|132:164|132:164|132:224,2,95,4|8|8,0:0|0:0|0:0,0:0:0
104,116,162712,2,0,B|136:68|232:120|232:120|292:84,1,190,0|8,0:0|0:0,0:0:0
444,180,163156,6,0,B|392:160|392:160|324:168|288:208|288:208|272:232,1,190
328,292,163489,1,8,0:0:0
424,288,163601,2,0,B|472:300,2,47.5
328,292,163823,1,0,0:0:0
248,344,163934,1,8,0:0:0
248,344,164045,1,8,0:0:0
28,144,164156,6,0,B|84:152|84:160|112:192,2,95,4|0|0,0:0|0:0|0:0,0:0:0
28,144,164489,2,0,B|4:200|4:200|16:276|84:304,1,190
200,44,164934,6,0,B|164:104|192:172|192:172|248:216,1,190
336,244,165267,1,8,0:0:0
296,148,165378,2,0,B|264:96,2,47.5,0|0|8,0:0|0:0|0:0,0:0:0
392,140,165601,2,0,B|444:112|480:140,1,95,0|8,0:0|0:0,0:0:0
444,228,165823,1,8,0:0:0
256,260,165934,6,0,B|220:292|220:292|220:338,2,95,4|8|8,0:0|0:0|0:0,0:0:0
256,260,166268,2,0,B|225:214|157:226|157:226|94:178,1,190,0|8,0:0|0:0,0:0:0
392,140,166712,6,0,B|340:120|340:120|272:128|236:168|236:168|220:192,1,190
226,182,167045,1,8,0:0:0
167,269,167156,1,0,0:0:0
167,269,167212,1,0,0:0:0
167,269,167267,1,0,0:0:0
88,200,167379,1,0,0:0:0
92,96,167490,1,8,0:0:0
92,96,167601,1,8,0:0:0
232,64,167712,6,0,B|296:64|324:104,1,95,4|0,0:0|0:0,0:0:0
384,176,167934,1,8,0:0:0
484,144,168045,2,0,B|508:200|508:200|496:276|428:304,1,190
380,100,168489,6,0,B|312:132|284:196|288:260,1,190
236,344,168823,1,8,0:0:0
340,344,168934,1,0,0:0:0
340,344,168989,1,0,0:0:0
340,344,169045,1,8,0:0:0
288,252,169157,2,0,B|244:232|192:256,1,95,0|8,0:0|0:0,0:0:0
100,296,169379,1,8,0:0:0
148,164,169489,6,0,B|192:132|192:132|244:132,1,95,4|0,0:0|0:0,0:0:0
308,204,169711,1,8,0:0:0
308,204,169822,2,0,B|384:204|384:204|440:172|444:92,1,190,0|8,0:0|0:0,0:0:0
104,180,170267,6,0,B|120:104|120:104|160:68|232:84,1,190
228,188,170600,1,0,0:0:0
232,292,170712,1,0,0:0:0
232,292,170767,1,0,0:0:0
232,292,170823,1,0,0:0:0
228,188,170933,1,0,0:0:0
328,220,171044,1,8,0:0:0
328,220,171155,1,8,0:0:0
360,120,171267,6,0,B|328:80|328:80|280:80,1,95,4|0,0:0|0:0,0:0:0
180,84,171489,1,0,0:0:0
76,88,171600,2,0,B|96:140|68:188|68:188|120:228|120:228|148:228,1,190,0|8,0:0|0:0,0:0:0
312,348,172045,5,0,0:0:0
140,228,172267,1,8,0:0:0
140,228,172323,1,8,0:0:0
140,228,172378,1,8,0:0:0
224,288,172489,1,0,0:0:0
224,288,172545,1,0,0:0:0
224,288,172600,1,8,0:0:0
288,204,172711,1,8,0:0:0
392,204,172823,1,8,0:0:0
444,116,172934,1,8,0:0:0
352,68,173045,6,0,B|296:52|256:88,1,95,4|0,0:0|0:0,0:0:0
176,144,173267,1,8,0:0:0
176,144,173378,1,8,0:0:0
232,232,173489,2,0,B|188:268|188:268|136:280,2,95
312,164,173822,2,0,B|376:180|376:180|424:248|384:308,1,190
288,308,174156,1,0,0:0:0
188,336,174267,2,0,B|132:356,2,47.5
184,232,174489,2,0,B|164:204|216:172|164:132,2,95,8|0|8,0:0|0:0|0:0,0:0:0
124,64,174823,6,0,B|164:32|164:32|212:32,1,95,4|0,0:0|0:0,0:0:0
388,64,175045,2,0,B|352:32|352:32|304:32,1,95,8|0,0:0|0:0,0:0:0
256,124,175268,1,0,0:0:0
336,192,175379,1,0,0:0:0
440,192,175490,1,8,0:0:0
392,284,175601,1,0,0:0:0
300,336,175712,6,0,B|248:352|208:332,2,95,0|0|8,0:0|0:0|0:0,0:0:0
236,252,176045,2,0,B|284:252,2,47.5
132,252,176268,1,0,0:0:0
64,172,176379,1,8,0:0:0
112,84,176490,1,0,0:0:0
216,84,176601,5,4,0:0:0
216,84,176712,2,0,B|264:56|264:56|304:56|304:56,2,95,0|8|0,0:0|0:0|0:0,0:0:0
112,84,177045,1,0,0:0:0
172,172,177157,1,0,0:0:0
236,252,177268,2,0,B|280:276|280:276|324:276,1,95,8|0,0:0|0:0,0:0:0
376,184,177490,5,0,0:0:0
428,272,177601,1,0,0:0:0
324,276,177712,1,8,0:0:0
260,192,177823,2,0,B|260:140,2,47.5
172,136,178045,1,0,0:0:0
84,192,178157,1,8,0:0:0
84,192,178268,1,8,0:0:0
68,332,178379,6,0,B|92:288|92:288|136:268,1,95,4|0,0:0|0:0,0:0:0
256,332,178601,2,0,B|304:316|304:316|324:276,1,95,8|0,0:0|0:0,0:0:0
372,140,178823,2,0,B|404:108|404:108|456:100,1,95
272,184,179045,2,0,B|220:200|220:200|176:184,1,95,8|0,0:0|0:0,0:0:0
228,92,179268,5,0,0:0:0
324,48,179379,1,0,0:0:0
372,140,179490,1,8,0:0:0
424,232,179601,2,0,B|452:280,2,47.5
332,280,179823,1,0,0:0:0
272,192,179934,2,0,B|260:140|220:116,1,95,8|8,0:0|0:0,0:0:0
148,192,180157,5,4,0:0:0
96,100,180268,1,0,0:0:0
188,48,180379,1,8,0:0:0
256,128,180490,1,0,0:0:0
320,48,180601,1,0,0:0:0
380,128,180712,2,0,B|404:100|404:100|440:100|464:64,2,95,0|8|0,0:0|0:0|0:0,0:0:0
408,228,181045,5,0,0:0:0
324,288,181157,1,0,0:0:0
276,196,181268,1,8,0:0:0
188,248,181378,2,0,B|148:280,2,47.5
128,164,181600,1,0,0:0:0
216,108,181712,1,8,0:0:0
276,196,181823,1,8,0:0:0
324,288,181934,6,0,B|308:336|256:356,1,95,4|0,0:0|0:0,0:0:0
156,348,182157,1,8,0:0:0
188,248,182268,1,0,0:0:0
128,164,182379,2,0,B|68:180|56:244,1,95
188,248,182600,2,0,B|240:232|252:180,1,95,8|0,0:0|0:0,0:0:0
312,100,182823,5,0,0:0:0
356,196,182934,1,0,0:0:0
252,184,183045,1,0,0:0:0
208,92,183156,1,0,0:0:0
208,92,183212,1,0,0:0:0
208,92,183267,1,0,0:0:0
104,92,183378,1,0,0:0:0
60,188,183490,1,8,0:0:0
60,188,183601,1,8,0:0:0
88,336,183712,6,0,B|136:324|136:324|176:272,1,95
252,340,183934,2,0,B|276:296|276:296|340:276,1,95,8|0,0:0|0:0,0:0:0
320,184,184157,2,0,B|304:152|328:132|328:132|328:68,2,95,0|0|8,0:0|0:0|0:0,0:0:0
244,240,184490,1,0,0:0:0
168,184,184601,5,0,0:0:0
112,272,184712,1,0,0:0:0
196,336,184823,1,8,0:0:0
292,292,184934,1,0,0:0:0
292,292,184989,1,0,0:0:0
292,292,185045,1,0,0:0:0
256,192,185156,1,0,0:0:0
208,96,185268,2,0,B|256:72|300:100,1,95,8|8,0:0|0:0,0:0:0
432,192,185490,6,0,B|440:128|392:92,1,95,4|0,0:0|0:0,0:0:0
300,100,185712,1,8,0:0:0
320,204,185823,2,0,B|288:248|232:240,2,95
300,100,186157,1,8,0:0:0
204,144,186268,1,0,0:0:0
108,188,186379,6,0,B|76:224|64:220|64:220|28:248,2,95,0|0|8,0:0|0:0|0:0,0:0:0
192,248,186712,1,0,0:0:0
192,248,186767,1,0,0:0:0
192,248,186823,1,0,0:0:0
272,300,186934,2,0,B|348:360,1,95,0|8,0:0|0:0,0:0:0
346,358,187156,1,8,0:0:0
360,256,187267,6,0,B|388:212|400:220|400:220|428:184,1,95,4|0,0:0|0:0,0:0:0
352,36,187489,2,0,B|396:72|392:76|392:76|424:100,1,95,8|0,0:0|0:0,0:0:0
340,168,187712,1,0,0:0:0
256,104,187823,1,0,0:0:0
172,168,187934,1,8,0:0:0
256,104,188045,1,0,0:0:0
172,44,188156,5,0,0:0:0
88,104,188267,1,8,0:0:0
88,104,188323,1,8,0:0:0
88,104,188378,1,8,0:0:0
84,208,188489,1,0,0:0:0
168,272,188600,1,0,0:0:0
256,328,188712,1,0,0:0:0
344,272,188823,1,0,0:0:0
428,212,188934,1,0,0:0:0
256,188,189045,5,4,0:0:0
256,192,189100,12,0,201489,0:0:0
