osu file format v10

[General]
AudioFilename: Yousei Teikoku - Sacrifice.mp3
AudioLeadIn: 1000
PreviewTime: 140823
Countdown: 0
SampleSet: Soft
StackLeniency: 0.7
Mode: 0
LetterboxInBreaks: 0

[Editor]
DistanceSpacing: 1
BeatDivisor: 4
GridSize: 4

[Metadata]
Title:Sacrifice
TitleUnicode:
Artist:Yousei Teikoku
ArtistUnicode:
Creator:Saten
Version:Pain
Source:
Tags:Saten-san Fiya OnosakiHito rickyboi
BeatmapID:130800
BeatmapSetID:40671

[Difficulty]
HPDrainRate:5
CircleSize:4
OverallDifficulty:7
ApproachRate:9
SliderMultiplier:1.5
SliderTickRate:2

[Events]
//Background and Video events
0,0,"117863.jpg"
//Break Periods
2,79023,85334
2,125245,130667
//Storyboard Layer 0 (Background)
//Storyboard Layer 1 (Fail)
//Storyboard Layer 2 (Pass)
//Storyboard Layer 3 (Foreground)
//Storyboard Sound Samples
//Background Colour Transformations
3,100,0,0,0

[TimingPoints]
601,222.222222222222,4,2,1,80,1,0
2378,-83.3333333333333,4,2,1,80,0,0
16600,-100,4,2,1,80,0,0
30823,-83.3333333333333,4,2,1,80,0,0
37934,-100,4,2,1,80,0,0
52156,-83.3333333333333,4,2,1,80,0,0
59267,-83.3333333333333,4,2,1,80,0,1
77045,-100,4,2,1,80,0,0
78823,-83.3333333333333,4,2,1,80,0,0
85934,-100,4,2,1,80,0,0
93045,-100,4,2,2,80,0,0
99267,-100,4,2,1,80,0,0
100156,-83.3333333333333,4,2,1,80,0,0
100378,-80,4,2,1,80,0,0
100600,-76.9230769230769,4,2,1,80,0,0
100823,-74.0740740740741,4,2,1,80,0,0
101045,-71.4285714285714,4,2,1,80,0,0
101267,-68.9655172413793,4,2,1,80,0,0
101489,-66.6666666666667,4,2,1,80,0,0
101712,-64.5161290322581,4,2,1,80,0,0
101934,-62.5,4,2,1,80,0,0
102156,-60.6060606060606,4,2,1,80,0,0
102378,-58.8235294117647,4,2,1,80,0,0
102600,-57.1428571428571,4,2,1,80,0,0
102823,-83.3333333333333,4,2,1,80,0,0
103934,-86.9565217391304,4,2,1,80,0,0
104156,-90.9090909090909,4,2,1,80,0,0
104378,-95.2380952380952,4,2,1,80,0,0
104600,-100,4,2,1,80,0,0
104823,-105.263157894737,4,2,1,80,0,0
105045,-111.111111111111,4,2,1,80,0,0
105267,-117.647058823529,4,2,1,80,0,0
105489,-125,4,2,1,80,0,0
105712,-133.333333333333,4,2,1,80,0,0
105934,-142.857142857143,4,2,1,80,0,0
106156,-153.846153846154,4,2,1,80,0,0
106378,-83.3333333333333,4,2,1,80,0,0
107267,-83.3333333333333,4,2,1,80,0,1
125045,-100,4,2,2,80,0,0
131267,-100,4,2,1,80,0,0
132156,-83.3333333333333,4,2,2,80,0,0
133712,-83.3333333333333,4,2,1,80,0,0
134600,-83.3333333333333,4,2,2,80,0,0
135267,-83.3333333333333,4,2,1,80,0,0
135712,-83.3333333333333,4,2,2,80,0,0
137045,-83.3333333333333,4,2,1,80,0,0
137712,-83.3333333333333,4,2,2,80,0,0
139267,-100,4,2,1,80,0,0
140156,-66.6666666666667,4,2,1,80,0,0
140600,-50,4,2,1,80,0,0
141045,-83.3333333333333,4,2,1,80,0,1
155267,-83.3333333333333,4,2,1,80,0,0
155489,-83.3333333333333,4,2,1,80,0,1
173045,-100,4,2,1,80,0,0
174823,-83.3333333333333,4,2,1,80,0,0
189045,-83.3333333333333,4,2,1,80,0,0
189934,-83.3333333333333,4,2,1,75,0,0
190823,-83.3333333333333,4,2,1,70,0,0
191712,-83.3333333333333,4,2,1,65,0,0
192600,-83.3333333333333,4,2,1,60,0,0
193489,-83.3333333333333,4,2,1,55,0,0
194378,-83.3333333333333,4,2,1,50,0,0
195267,-83.3333333333333,4,2,1,45,0,0
196156,-83.3333333333333,4,2,1,40,0,0
197045,-83.3333333333333,4,2,1,35,0,0
197934,-83.3333333333333,4,2,1,30,0,0
198823,-83.3333333333333,4,2,1,25,0,0
199712,-83.3333333333333,4,2,1,20,0,0
200600,-83.3333333333333,4,2,1,15,0,0
201489,-83.3333333333333,4,2,1,5,0,0

[Colours]
Combo1 : 255,70,70
Combo2 : 89,255,89
Combo3 : 187,187,255
Combo4 : 255,130,255
Combo5 : 255,255,111

[HitObjects]
256,192,601,2,0,B|332:192,2,75,4|0|8,0:0|0:0|0:0,0:0:0
188,156,934,1,8,0:0:0
148,92,1045,2,0,B|148:16,2,75,0|0|8,0:0|0:0|0:0,0:0:0
188,156,1378,2,0,B|224:156|256:128|268:84|256:44,1,150,4|0,0:0|0:0,0:0:0
148,16,1712,6,0,B|72:16,1,75,8|0,0:0|0:0,0:0:0
73,16,1878,1,0,0:0:0
73,16,1934,1,0,0:0:0
28,76,2045,2,0,B|20:152,2,75,8|8|8,0:0|0:0|0:0,0:0:0
73,16,2378,6,0,B|160:40,1,90.0000021457672,4|0,0:0|0:0,0:0:0
184,128,2600,2,0,B|97:104,1,90.0000021457672,8|0,0:0|0:0,0:0:0
160,40,2823,2,0,B|247:64,1,90.0000021457672
272,152,3045,2,0,B|185:128,1,90.0000021457672,8|0,0:0|0:0,0:0:0
246,63,3267,5,0,0:0:0
332,84,3378,1,0,0:0:0
272,152,3489,1,8,0:0:0
246,63,3600,1,0,0:0:0
332,84,3712,1,0,0:0:0
272,152,3823,1,0,0:0:0
184,128,3934,6,0,B|12:80,2,180.000004291534,8|4|8,0:0|0:0|0:0,0:0:0
256,192,4489,1,0,0:0:0
328,256,4600,2,0,B|500:304,2,180.000004291534,0|8|0,0:0|0:0|0:0,0:0:0
256,192,5156,1,0,0:0:0
348,164,5267,1,8,0:0:0
328,256,5378,1,0,0:0:0
256,192,5489,6,0,B|276:104,1,90.0000021457672
348,164,5712,2,0,B|436:188,1,90.0000021457672,8|0,0:0|0:0,0:0:0
416,280,5934,2,0,B|242:231,1,180.000004291534,4|8,0:0|0:0,0:0:0
160,192,6267,1,0,0:0:0
242,152,6378,2,0,B|416:104,1,180.000004291534,0|8,0:0|0:0,0:0:0
444,192,6712,1,0,0:0:0
416,280,6823,6,0,B|340:228,1,90.0000021457672
168,352,7045,2,0,B|220:276,1,90.0000021457672,8|0,0:0|0:0,0:0:0
96,104,7267,2,0,B|172:156,1,90.0000021457672
344,32,7489,2,0,B|292:108,1,90.0000021457672,8|0,0:0|0:0,0:0:0
256,192,7712,6,0,B|216:164|196:116|204:72|236:36,1,180.000004291535,4|8,0:0|0:0,0:0:0
293,106,8045,2,0,B|204:120,2,90.0000021457673
218,277,8378,6,0,B|308:264,2,90.0000021457673,8|0|0,0:0|0:0|0:0,0:0:0
132,252,8712,1,0,0:0:0
64,192,8823,1,8,0:0:0
132,132,8934,1,0,0:0:0
220,112,9045,2,0,B|308:104,1,90.0000021457673
288,192,9267,2,0,B|196:192,1,90.0000021457673,8|8,0:0|0:0,0:0:0
132,132,9489,6,0,B|124:80|144:40|192:16|240:24,1,180.000004291535,4|8,0:0|0:0,0:0:0
220,112,9823,1,0,0:0:0
200,200,9934,2,0,B|248:208|296:184|316:144|308:92,1,180.000004291535,0|8,0:0|0:0,0:0:0
220,112,10267,1,0,0:0:0
200,200,10378,6,0,B|220:288,1,90.0000021457673
311,183,10600,2,0,B|292:96,1,90.0000021457673,8|0,0:0|0:0,0:0:0
264,247,10823,2,0,B|352:228,1,90.0000021457673,0|0,0:0|0:0,0:0:0
247,136,11045,2,0,B|160:156,1,90.0000021457673,8|0,0:0|0:0,0:0:0
120,236,11267,6,0,B|132:292|164:320|216:324|256:300,1,180.000004291535,4|8,0:0|0:0,0:0:0
256,208,11600,1,0,0:0:0
392,236,11712,2,0,B|380:292|348:320|296:324|256:300,1,180.000004291535,0|8,0:0|0:0,0:0:0
256,208,12045,1,0,0:0:0
268,120,12156,6,0,B|320:48,1,90.0000021457673
352,132,12378,2,0,B|432:92,1,90.0000021457673,8|0,0:0|0:0,0:0:0
416,180,12600,2,0,B|504:192,1,90.0000021457673
448,260,12823,6,0,B|396:272|352:272|316:240|300:188,2,180.000004291535,8|4|8,0:0|0:0|0:0,0:0:0
504,192,13378,1,0,0:0:0
447,123,13489,2,0,B|396:112|352:112|316:144|301:190,2,180.000004291535,0|8|0,0:0|0:0|0:0,0:0:0
504,192,14045,5,0,0:0:0
416,192,14156,1,8,0:0:0
360,124,14267,2,0,B|288:72,1,90.0000021457673
360,260,14489,2,0,B|288:312,1,90.0000021457673,0|8,0:0|0:0,0:0:0
16,36,14823,6,0,B|16:216,1,180.000004291535,4|8,0:0|0:0,0:0:0
80,280,15156,1,0,0:0:0
104,192,15267,1,0,0:0:0
16,216,15378,1,0,0:0:0
80,280,15489,2,0,B|168:296,1,90.0000021457673,8|0,0:0|0:0,0:0:0
256,316,15712,6,0,B|256:224,2,90.0000021457673,0|0|8,0:0|0:0|0:0,0:0:0
256,68,16045,2,0,B|256:160,2,90.0000021457673,0|0|8,0:0|0:0|0:0,0:0:0
340,36,16378,1,8,0:0:0
424,68,16489,1,8,0:0:0
452,152,16600,6,0,B|464:192|448:228|408:252|364:244,1,150,4|8,0:0|0:0,0:0:0
312,196,16934,1,0,0:0:0
380,168,17045,2,0,B|392:208|384:248|344:276|304:272,1,150,0|8,0:0|0:0,0:0:0
244,232,17378,1,0,0:0:0
312,196,17489,2,0,B|420:304,2,150,0|8|0,0:0|0:0|0:0,0:0:0
256,148,18045,1,0,0:0:0
184,128,18156,2,0,B|152:152|144:192,1,75,8|8,0:0|0:0,0:0:0
136,264,18378,6,0,B|96:272|56:248|48:204|64:164,2,150,0|8|0,0:0|0:0|0:0,0:0:0
204,232,18934,1,0,0:0:0
140,188,19045,2,0,B|72:232,2,75,8|0|0,0:0|0:0|0:0,0:0:0
184,128,19378,2,0,B|184:52,2,75,0|8|0,0:0|0:0|0:0,0:0:0
256,148,19712,2,0,B|332:148,2,75,0|0|8,0:0|0:0|0:0,0:0:0
184,128,20045,1,8,0:0:0
132,76,20156,6,0,B|144:36|180:16|220:16|256:32,2,150,0|8|0,0:0|0:0|0:0,0:0:0
380,308,20823,2,0,B|368:348|332:368|292:368|256:352,2,150,8|0|8,0:0|0:0|0:0,0:0:0
392,236,21378,1,0,0:0:0
328,196,21489,2,0,B|254:200,1,75
128,280,21712,2,0,B|203:277,1,75,8|8,0:0|0:0,0:0:0
330,188,21934,6,0,B|180:196,2,150,0|8|0,0:0|0:0|0:0,0:0:0
396,148,22489,1,0,0:0:0
396,72,22600,1,8,0:0:0
332,32,22712,1,0,0:0:0
256,42,22823,6,0,B|256:192,1,150,8|0,0:0|0:0,0:0:0
256,342,23156,2,0,B|256:192,1,150,8|0,0:0|0:0,0:0:0
256,42,23489,5,8,0:0:0
256,116,23600,1,8,0:0:0
256,192,23712,2,0,B|268:232|288:260|328:268|372:248,1,150,4|8,0:0|0:0,0:0:0
340,164,24045,1,0,0:0:0
256,192,24156,2,0,B|212:172|172:180|152:208|140:248,1,150,0|8,0:0|0:0,0:0:0
192,320,24489,1,0,0:0:0
272,360,24600,6,0,B|315:380|355:372|375:344|387:304,1,150,0|8,0:0|0:0,0:0:0
336,228,24934,1,0,0:0:0
256,184,25045,2,0,B|213:165|173:173|153:201|141:241,1,150,0|8,0:0|0:0,0:0:0
228,260,25378,1,8,0:0:0
256,344,25489,6,0,B|220:364|184:372|140:356|120:328,2,150,0|8|0,0:0|0:0|0:0,0:0:0
256,268,26045,1,0,0:0:0
192,228,26156,1,8,0:0:0
120,252,26267,1,0,0:0:0
120,328,26378,6,0,B|200:328,1,75
120,56,26600,2,0,B|120:136,1,75,8|0,0:0|0:0,0:0:0
392,56,26823,2,0,B|312:56,1,75
392,328,27045,2,0,B|392:248,1,75,8|8,0:0|0:0,0:0:0
256,192,27267,6,0,B|216:196|180:220|172:264|188:300,1,150,0|8,0:0|0:0,0:0:0
256,268,27600,1,0,0:0:0
324,236,27712,2,0,B|340:272|332:316|296:340|256:344,1,150,0|8,0:0|0:0,0:0:0
256,268,28045,1,0,0:0:0
256,192,28156,6,0,B|104:192,1,150,0|8,0:0|0:0,0:0:0
40,160,28489,1,0,0:0:0
108,128,28600,2,0,B|256:128,1,150,0|8,0:0|0:0,0:0:0
328,160,28934,1,8,0:0:0
324,236,29045,6,0,B|260:284|180:264,2,150,0|8|0,0:0|0:0|0:0,0:0:0
328,160,29600,1,0,0:0:0
256,128,29712,1,8,0:0:0
188,160,29823,1,0,0:0:0
156,228,29934,6,0,B|188:296,2,75,8|0|0,0:0|0:0|0:0,0:0:0
112,168,30267,2,0,B|52:124,2,75,8|0|0,0:0|0:0|0:0,0:0:0
188,160,30600,2,0,B|256:128,1,75,8|8,0:0|0:0,0:0:0
328,160,30823,6,0,B|396:216,1,90.0000021457673,4|0,0:0|0:0,0:0:0
288,264,31045,2,0,B|232:332,1,90.0000021457673,8|0,0:0|0:0,0:0:0
184,224,31267,2,0,B|116:168,1,90.0000021457673
224,120,31489,2,0,B|280:52,1,90.0000021457673,8|0,0:0|0:0,0:0:0
328,160,31712,5,0,0:0:0
288,264,31823,1,0,0:0:0
184,224,31934,1,8,0:0:0
224,120,32045,2,0,B|312:96,2,90.0000021457673
288,264,32378,6,0,B|200:288,2,90.0000021457673,8|0|4,0:0|0:0|0:0,0:0:0
376,236,32712,1,0,0:0:0
456,192,32823,2,0,B|396:120,1,90.0000021457673,8|0,0:0|0:0,0:0:0
56,192,33045,2,0,B|116:264,1,90.0000021457673
455,185,33267,2,0,B|393:115,1,90.0000021457673,8|0,0:0|0:0,0:0:0
56,198,33489,6,0,B|118:268,1,90.0000021457673
200,304,33712,1,8,0:0:0
256,232,33823,2,0,B|256:140,2,90.0000021457673
312,304,34156,6,0,B|376:240,2,90.0000021457673,8|0|4,0:0|0:0|0:0,0:0:0
256,372,34489,1,0,0:0:0
200,304,34600,1,8,0:0:0
256,232,34712,1,0,0:0:0
336,192,34823,2,0,B|428:192,1,90.0000021457673
176,192,35045,2,0,B|84:192,1,90.0000021457673,8|0,0:0|0:0,0:0:0
24,128,35267,5,0,0:0:0
88,64,35378,1,0,0:0:0
168,28,35489,1,8,0:0:0
256,24,35600,1,0,0:0:0
344,28,35712,1,0,0:0:0
424,64,35823,1,0,0:0:0
488,127,35934,6,0,B|509:169|497:220|459:254|403:250,1,180.000004291535,8|4,0:0|0:0,0:0:0
336,192,36267,1,0,0:0:0
424,176,36378,2,0,B|496:232,1,90.0000021457673,8|0,0:0|0:0,0:0:0
400,340,36600,2,0,B|328:284,1,90.0000021457673
88,176,36823,2,0,B|16:232,1,90.0000021457673,8|0,0:0|0:0,0:0:0
112,340,37045,6,0,B|183:284,1,90.0000021457673
256,232,37267,1,8,0:0:0
256,144,37378,2,0,B|256:52,2,90.0000021457673
256,232,37712,2,0,B|256:324,2,90.0000021457673,8|8|4,0:0|0:0|0:0,0:0:0
404,64,38156,5,8,0:0:0
108,320,38378,1,0,0:0:0
444,192,38600,1,8,0:0:0
68,192,38823,1,0,0:0:0
404,320,39045,1,8,0:0:0
108,64,39267,1,0,0:0:0
256,192,39489,2,0,B|256:268,2,75,8|8|0,0:0|0:0|0:0,0:0:0
388,120,39934,5,8,0:0:0
124,264,40156,1,0,0:0:0
388,264,40378,1,8,0:0:0
124,120,40600,2,0,B|256:192,1,150,0|8,0:0|0:0,0:0:0
388,264,40934,2,0,B|256:192,1,150
256,116,41267,1,8,0:0:0
300,56,41378,1,8,0:0:0
372,40,41489,6,0,B|520:40,2,150,0|8|0,0:0|0:0|0:0,0:0:0
140,344,42156,2,0,B|-8:344,2,150,8|0|8,0:0|0:0|0:0,0:0:0
256,152,42823,1,0,0:0:0
372,344,43045,1,8,0:0:0
444,320,43156,1,8,0:0:0
496,264,43267,6,0,B|496:116,2,150,0|8|0,0:0|0:0|0:0,0:0:0
16,120,43934,2,0,B|16:268,2,150,8|0|0,0:0|0:0|0:0,0:0:0
68,68,44489,2,0,B|104:44|148:48|180:76|180:116,1,150,8|0,0:0|0:0,0:0:0
108,132,44823,2,0,B|108:208,1,75,8|8,0:0|0:0,0:0:0
164,260,45045,6,0,B|200:284|240:288|280:264|288:224,1,150,4|8,0:0|0:0,0:0:0
216,200,45378,1,0,0:0:0
276,156,45489,2,0,B|312:148|352:168|372:204|360:248,1,150,0|8,0:0|0:0,0:0:0
288,228,45823,1,0,0:0:0
216,200,45934,6,0,B|192:160|200:128|220:88|264:84,1,150,0|8,0:0|0:0,0:0:0
276,156,46267,1,0,0:0:0
336,108,46378,2,0,B|350:68|333:27|298:9|256:8,1,150,0|8,0:0|0:0,0:0:0
264,84,46712,1,8,0:0:0
276,156,46823,6,0,B|308:188|344:192|384:184|404:140,2,150,0|8|0,0:0|0:0|0:0,0:0:0
264,84,47378,5,0,0:0:0
328,44,47489,1,8,0:0:0
400,68,47600,1,0,0:0:0
404,144,47712,6,0,B|332:164,1,75
108,240,47934,2,0,B|180:220,1,75,8|0,0:0|0:0,0:0:0
411,197,48156,6,0,B|336:191,1,75
100,186,48378,2,0,B|175:192,1,75,8|0,0:0|0:0,0:0:0
360,260,48600,6,0,B|324:272|288:280|244:268|216:252,1,150,0|8,0:0|0:0,0:0:0
256,192,48934,1,0,0:0:0
296,132,49045,2,0,B|268:116|224:104|188:112|152:124,1,150,0|8,0:0|0:0,0:0:0
120,192,49378,1,0,0:0:0
132,264,49489,6,0,B|148:304|176:328|216:328|256:312,1,150,0|8,0:0|0:0,0:0:0
256,236,49823,1,0,0:0:0
380,264,49934,2,0,B|364:304|336:328|296:328|256:312,1,150,0|8,0:0|0:0,0:0:0
256,236,50267,1,8,0:0:0
256,152,50378,6,0,B|256:76,1,75
296,192,50600,2,0,B|372:192,1,75,8|0,0:0|0:0,0:0:0
256,232,50823,2,0,B|256:308,1,75
216,192,51045,2,0,B|140:192,1,75,8|0,0:0|0:0,0:0:0
68,192,51267,6,0,B|68:152|80:116|116:88|160:88,1,150,8|0,0:0|0:0,0:0:0
444,192,51600,2,0,B|444:152|432:116|396:88|352:88,1,150,8|0,0:0|0:0,0:0:0
256,192,51934,2,0,B|256:268,1,75,8|0,0:0|0:0,0:0:0
256,356,52156,6,0,B|168:336,1,90.0000021457673,12|0,0:0|0:0,0:0:0
92,192,52378,2,0,B|112:104,1,90.0000021457673,8|0,0:0|0:0,0:0:0
256,28,52600,2,0,B|344:48,1,90.0000021457673,8|0,0:0|0:0,0:0:0
420,192,52823,6,0,B|400:280,1,90.0000021457673,8|0,0:0|0:0,0:0:0
247,355,53045,2,0,B|160:331,1,90.0000021457673,8|0,0:0|0:0,0:0:0
92,183,53267,2,0,B|116:96,1,90.0000021457673,8|0,0:0|0:0,0:0:0
264,28,53489,6,0,B|351:52,1,90.0000021457673,8|0,0:0|0:0,0:0:0
419,200,53712,2,0,B|395:287,1,90.0000021457673,8|0,0:0|0:0,0:0:0
238,355,53934,2,0,B|153:326,1,90.0000021457673,8|0,0:0|0:0,0:0:0
92,174,54156,6,0,B|121:89,1,90.0000021457673,8|0,0:0|0:0,0:0:0
273,28,54378,2,0,B|358:57,1,90.0000021457673,8|0,0:0|0:0,0:0:0
419,209,54600,2,0,B|390:294,1,90.0000021457673,8|0,0:0|0:0,0:0:0
328,360,54823,5,8,0:0:0
240,356,54934,1,0,0:0:0
172,300,55045,1,0,0:0:0
172,212,55156,2,0,B|172:120,2,90.0000021457673,8|0|0,0:0|0:0|0:0,0:0:0
256,244,55489,2,0,B|344:260,1,90.0000021457673,8|0,0:0|0:0,0:0:0
420,208,55712,6,0,B|392:124,1,90.0000021457673,12|0,0:0|0:0,0:0:0
272,28,55934,2,0,B|188:56,1,90.0000021457673,8|0,0:0|0:0,0:0:0
92,176,56156,2,0,B|120:260,1,90.0000021457673,8|0,0:0|0:0,0:0:0
240,356,56378,6,0,B|324:328,1,90.0000021457673,8|0,0:0|0:0,0:0:0
420,199,56600,2,0,B|388:116,1,90.0000021457673,8|0,0:0|0:0,0:0:0
263,27,56823,2,0,B|180:59,1,90.0000021457673,8|0,0:0|0:0,0:0:0
91,184,57045,6,0,B|123:267,1,90.0000021457673,8|0,0:0|0:0,0:0:0
248,356,57267,2,0,B|331:324,1,90.0000021457673,8|0,0:0|0:0,0:0:0
420,190,57489,2,0,B|384:110,1,90.0000021457673,8|0,0:0|0:0,0:0:0
254,27,57712,6,0,B|174:63,1,90.0000021457673,8|0,0:0|0:0,0:0:0
91,193,57934,2,0,B|127:273,1,90.0000021457673,8|0,0:0|0:0,0:0:0
257,356,58156,2,0,B|337:320,1,90.0000021457673,8|0,0:0|0:0,0:0:0
400,252,58378,5,8,0:0:0
344,184,58489,1,0,0:0:0
256,192,58600,1,0,0:0:0
168,200,58712,1,0,0:0:0
112,132,58823,5,8,0:0:0
200,120,58934,1,0,0:0:0
256,192,59045,1,8,0:0:0
312,264,59156,1,8,0:0:0
400,252,59267,6,0,B|444:220|454:175|435:127|387:108,2,180.000004291535,4|8|0,0:0|0:0|0:0,0:0:0
312,264,59823,1,0,0:0:0
256,192,59934,1,8,0:0:0
256,104,60045,6,0,B|220:72|152:72|116:120|116:156,1,180.000004291535,4|0,0:0|0:0,0:0:0
120,244,60378,2,0,B|180:312,1,89.9999972534181,8|0,0:0|0:0,0:0:0
392,244,60600,2,0,B|332:312,1,89.9999972534181
256,192,60823,6,0,B|256:12,2,180.000004291535,8|4|8,0:0|0:0|0:0,0:0:0
200,264,61378,5,0,0:0:0
112,252,61489,1,0,0:0:0
68,176,61600,1,0,0:0:0
124,104,61712,1,8,0:0:0
168,184,61823,6,0,B|167:218|203:266|271:266|307:234,1,180.000004291535,4|0,0:0|0:0,0:0:0
368,168,62156,1,8,0:0:0
336,84,62267,1,0,0:0:0
256,48,62378,6,0,B|211:80|201:125|220:173|268:192,1,180.000004291535,0|8,0:0|0:0,0:0:0
256,192,62823,12,0,65934,0:0:0
196,124,66378,6,0,B|148:140|128:192|148:244|196:260,1,180.000004291535,4|8,0:0|0:0,0:0:0
256,192,66712,1,0,0:0:0
316,124,66823,2,0,B|364:140|384:192|364:244|316:260,1,180.000004291535,0|8,0:0|0:0,0:0:0
256,192,67156,2,0,B|256:12,1,180.000004291535,4|0,0:0|0:0,0:0:0
176,56,67489,6,0,B|256:100,1,90.0000021457673,8|0,0:0|0:0,0:0:0
336,328,67712,2,0,B|256:284,1,90.0000021457673
256,192,67934,2,0,B|436:192,2,180.000004291535,8|4|8,0:0|0:0|0:0,0:0:0
168,192,68489,1,0,0:0:0
112,120,68600,2,0,B|176:56,1,90.0000021457673
400,264,68823,2,0,B|336:328,1,90.0000021457673,8|4,0:0|0:0,0:0:0
336,327,69267,5,8,0:0:0
175,56,69489,1,0,0:0:0
400,264,69712,1,8,0:0:0
112,120,69934,6,0,B|92:220|148:252|220:232|256:192|292:156|364:132|420:164|400:264,1,450.000010728836,4|2,0:0|0:0,0:0:0
256,372,70712,1,2,0:0:0
112,264,70934,1,2,0:0:0
56,192,71045,1,8,0:0:0
112,120,71156,2,2,B|112:32,2,89.9999972534181
256,192,71489,2,0,B|346:192,1,90.0000021457673,8|8,0:0|0:0,0:0:0
456,192,71712,6,0,B|472:288|376:344|256:366|256:192|256:18|136:40|40:96|56:192,1,630.000015020371,4|2,0:0|0:0,0:0:0
256,192,72712,6,0,B|312:120,2,90.0000021457673,2|8|2,0:0|0:0|0:0,0:0:0
256,192,73045,2,0,B|200:264,2,90.0000021457673,2|0|8,0:0|0:0|0:0,0:0:0
312,120,73378,5,8,0:0:0
388,72,73489,2,0,B|480:72,2,90.0000021457673,4|0|0,0:0|0:0|0:0,0:0:0
432,152,73823,2,0,B|444:200|424:248|384:264|328:252,1,180.000004291535,2|2,0:0|0:0,0:0:0
80,152,74267,2,0,B|68:200|88:248|128:264|184:252,1,180.000004291535,2|2,0:0|0:0,0:0:0
256,200,74600,1,8,0:0:0
216,116,74712,2,2,B|212:72|240:32,2,89.9999972534181
264,192,75045,1,8,0:0:0
264,280,75156,1,8,0:0:0
176,282,75267,6,0,B|176:192,2,90.0000021457673,4|0|8,0:0|0:0|0:0,0:0:0
96,232,75600,2,0,B|80:284|88:328|124:364|172:364,1,180.000004291535,2|2,0:0|0:0,0:0:0
416,232,76045,2,0,B|432:284|424:328|388:364|340:364,1,180.000004291535,2|2,0:0|0:0,0:0:0
256,332,76378,1,8,0:0:0
256,244,76489,2,2,B|256:156,1,89.9999972534181
336,96,76712,1,8,0:0:0
368,180,76823,1,8,0:0:0
336,264,76934,1,8,0:0:0
256,308,77045,6,0,B|180:308,2,75,4|0|8,0:0|0:0|0:0,0:0:0
256,224,77378,1,0,0:0:0
256,140,77489,2,0,B|332:140,2,75,0|0|8,0:0|0:0|0:0,0:0:0
256,52,77823,2,0,B|208:56|184:76|164:112|168:152,1,150,4|0,0:0|0:0,0:0:0
236,212,78156,6,0,B|312:212,1,75,8|0,0:0|0:0,0:0:0
311,212,78323,1,0,0:0:0
311,212,78378,1,0,0:0:0
400,192,78489,2,0,B|452:140,1,75,8|8,0:0|0:0,0:0:0
412,60,78712,2,0,B|336:60,1,75,8|4,0:0|0:0,0:0:0
160,336,85934,5,4,0:0:0
256,52,86156,1,8,0:0:0
352,336,86378,1,0,0:0:0
108,160,86600,1,8,0:0:0
404,160,86823,1,0,0:0:0
160,336,87045,1,8,0:0:0
256,52,87267,1,0,0:0:0
352,336,87489,6,0,B|316:356|272:356|240:328|236:288,1,150,8|0,0:0|0:0,0:0:0
404,160,87934,2,0,B|406:201|388:240|349:258|311:244,1,150,8|0,0:0|0:0,0:0:0
256,52,88378,2,0,B|294:66|322:100|321:142|293:171,2,150,8|0|8,0:0|0:0|0:0,0:0:0
240,124,88934,2,0,B|211:153|210:195|238:229|276:243,1,150
360,232,89267,1,8,0:0:0
404,160,89378,1,8,0:0:0
356,92,89489,6,0,B|204:92,2,150,0|8|0,0:0|0:0|0:0,0:0:0
404,160,90045,1,0,0:0:0
360,232,90156,1,8,0:0:0
280,216,90267,1,0,0:0:0
256,136,90378,2,0,B|216:120|180:124|144:152|140:192,2,150,0|8|0,0:0|0:0|0:0,0:0:0
280,216,90934,1,0,0:0:0
240,288,91045,1,8,0:0:0
156,288,91156,1,8,0:0:0
92,236,91267,6,0,B|92:84,2,150,0|8|0,0:0|0:0|0:0,0:0:0
420,236,91934,2,0,B|420:84,2,150,8|0|0,0:0|0:0|0:0,0:0:0
400,160,92489,2,0,B|292:56,1,150,8|0,0:0|0:0,0:0:0
212,76,92823,1,8,0:0:0
184,152,92934,1,8,0:0:0
112,192,93045,6,0,B|80:172|48:144|48:104|56:64,1,150,4|8,0:0|0:0,0:0:0
136,44,93378,1,0,0:0:0
212,76,93489,2,0,B|244:96|276:124|276:164|268:202,1,150,0|8,0:0|0:0,0:0:0
224,272,93823,1,0,0:0:0
256,348,93934,6,0,B|306:376|363:319|335:268,1,150,0|8,0:0|0:0,0:0:0
308,192,94267,1,0,0:0:0
335,115,94378,2,0,B|363:64|306:7|256:36,1,150,0|8,0:0|0:0,0:0:0
196,92,94712,1,0,0:0:0
144,156,94823,6,0,B|108:176|68:176|28:152|16:120,2,150,0|8|0,0:0|0:0|0:0,0:0:0
224,144,95378,1,0,0:0:0
304,172,95489,1,8,0:0:0
360,112,95600,1,0,0:0:0
316,40,95712,6,0,B|244:20,1,75
104,132,95934,2,0,B|84:204,1,75,8|0,0:0|0:0,0:0:0
196,344,96156,2,0,B|268:364,1,75
408,252,96378,2,0,B|428:180,1,75,8|0,0:0|0:0,0:0:0
360,100,96600,6,0,B|212:100,1,150,0|8,0:0|0:0,0:0:0
260,32,96934,1,0,0:0:0
284,112,97045,6,0,B|284:260,1,150,0|8,0:0|0:0,0:0:0
216,212,97378,1,0,0:0:0
296,188,97489,6,0,B|444:188,1,150,0|8,0:0|0:0,0:0:0
400,256,97823,1,0,0:0:0
372,180,97934,6,0,B|372:28,1,150,0|8,0:0|0:0,0:0:0
440,76,98267,1,0,0:0:0
364,104,98378,6,0,B|216:104,2,150,0|8|0,0:0|0:0|0:0,0:0:0
148,280,99045,2,0,B|296:280,1,150,8|8,0:0|0:0,0:0:0
380,268,99378,1,8,0:0:0
412,192,99489,1,0,0:0:0
328,192,99600,2,0,B|176:192,1,150,8|0,0:0|0:0,0:0:0
100,168,99934,1,8,0:0:0
76,88,100045,1,8,0:0:0
132,32,100156,6,0,B|220:12,1,90.0000021457673,12|0,0:0|0:0,0:0:0
172,92,100378,2,0,B|264:80,1,93.7499986030162,8|0,0:0|0:0,0:0:0
204,156,100600,2,0,B|300:152,1,97.4999982565642,8|0,0:0|0:0,0:0:0
228,224,100823,6,0,B|328:228,1,101.250003319234,8|0,0:0|0:0,0:0:0
244,292,101045,2,0,B|348:304,1,104.999997496605,8|0,0:0|0:0,0:0:0
256,360,101267,2,0,B|364:384,1,108.749998055398,8|0,0:0|0:0,0:0:0
256,360,101489,6,0,B|148:384,1,112.499996647239,8|0,0:0|0:0,0:0:0
268,292,101712,2,0,B|152:305,1,116.25000346452,8|0,0:0|0:0,0:0:0
284,224,101934,2,0,B|164:228,1,120,8|0,0:0|0:0,0:0:0
308,156,102156,6,0,B|184:150,1,123.749996311963,8|0,0:0|0:0,0:0:0
340,91,102378,2,0,B|214:75,1,127.499994680286,8|0,0:0|0:0,0:0:0
380,32,102600,2,0,B|252:4,1,131.249994132668,8|0,0:0|0:0,0:0:0
160,12,102823,6,0,B|108:24|76:56|68:112|96:152,1,180.000004291535,8|0,0:0|0:0,0:0:0
168,100,103156,1,8,0:0:0
244,56,103267,2,0,B|270:93|262:149|230:181|178:193,1,180.000004291535,0|8,0:0|0:0,0:0:0
88,200,103600,1,8,0:0:0
44,120,103712,6,0,B|68:32,1,90.0000021457673,12|0,0:0|0:0,0:0:0
116,104,103934,2,0,B|156:28,1,86.2500028274954,8|0,0:0|0:0,0:0:0
192,100,104156,2,0,B|244:36,1,82.4999975413085,8|0,0:0|0:0,0:0:0
264,112,104378,6,0,B|324:60,1,78.7499997653067,8|0,0:0|0:0,0:0:0
332,136,104600,2,0,B|396:96,1,75,8|0,0:0|0:0,0:0:0
400,168,104823,2,0,B|472:168,1,71.2499974519015,8|0,0:0|0:0,0:0:0
468,264,105045,6,0,B|450:327,1,67.4999967813493,8|0,0:0|0:0,0:0:0
396,280,105267,2,0,B|367:334,1,63.7499973401428,8|0,0:0|0:0,0:0:0
320,284,105489,2,0,B|282:330,1,60,8|0,0:0|0:0,0:0:0
248,272,105712,6,0,B|203:310,1,56.2499983236194,8|0,0:0|0:0,0:0:0
180,247,105934,2,0,B|133:277,1,52.4999987483025,8|0,0:0|0:0,0:0:0
111,216,106156,2,0,B|65:216,1,48.7499991282821,8|0,0:0|0:0,0:0:0
8,144,106378,6,0,B|60:68,2,90.0000021457673,8|8|0,0:0|0:0|0:0,0:0:0
64,216,106712,1,0,0:0:0
8,284,106823,2,0,B|60:360,2,90.0000021457673,8|8|8,0:0|0:0|0:0,0:0:0
64,216,107156,1,8,0:0:0
152,216,107267,6,0,B|200:216|244:196|264:152|256:100,2,180.000004291535,4|8|0,0:0|0:0|0:0,0:0:0
124,132,107823,1,0,0:0:0
168,52,107934,1,8,0:0:0
256,28,108045,2,0,B|436:28,1,180.000004291535,4|0,0:0|0:0,0:0:0
496,96,108378,1,8,0:0:0
436,164,108489,2,0,B|392:164,2,45.0000010728836
76,164,108823,6,0,B|40:192|24:244|36:292|76:320,2,180.000004291535,8|4|8,0:0|0:0|0:0,0:0:0
164,164,109378,1,0,0:0:0
220,236,109489,2,0,B|220:328,2,90.0000021457673,0|0|8,0:0|0:0|0:0,0:0:0
280,168,109823,2,0,B|320:192|340:232|336:284|308:328,1,180.000004291535,4|0,0:0|0:0,0:0:0
220,328,110156,6,0,B|132:316,1,90.0000021457673,8|0,0:0|0:0,0:0:0
132,224,110378,2,0,B|220:236,1,90.0000021457673
380,160,110600,2,0,B|292:148,1,90.0000021457673,8|8,0:0|0:0,0:0:0
292,56,110823,6,0,B|380:68,1,90.0000021457673,4|0,0:0|0:0,0:0:0
464,104,111045,1,0,0:0:0
452,192,111156,2,0,B|448:240|416:272|364:288|316:272,1,180.000004291535,2|2,0:0|0:0,0:0:0
60,192,111600,2,0,B|64:240|96:272|148:288|196:272,1,180.000004291535,2|2,0:0|0:0,0:0:0
256,204,111934,1,8,0:0:0
308,128,112045,2,0,B|344:40,2,90.0000021457673,2|2|2,0:0|0:0|0:0,0:0:0
204,128,112378,6,0,B|168:40,2,90.0000021457673,8|8|4,0:0|0:0|0:0,0:0:0
256,204,112712,1,0,0:0:0
344,224,112823,1,8,0:0:0
428,192,112934,2,0,B|464:164|484:116|472:72|440:32,1,180.000004291535,2|2,0:0|0:0,0:0:0
84,192,113378,6,0,B|48:164|28:116|40:72|72:32,1,180.000004291535,2|2,0:0|0:0,0:0:0
152,72,113712,1,8,0:0:0
196,152,113823,2,2,B|152:232,2,89.9999972534181,2|0|2,0:0|0:0|0:0,0:0:0
316,152,114156,2,2,B|360:232,1,89.9999972534181,8|8,0:0|0:0,0:0:0
472,116,114378,6,0,B|436:88|384:88|340:112|316:152,2,180.000004291535,4|8|0,0:0|0:0|0:0,0:0:0
428,192,114934,1,0,0:0:0
472,268,115045,1,8,0:0:0
428,348,115156,2,0,B|388:316|376:272|388:224|428:192,1,180.000004291535,4|0,0:0|0:0,0:0:0
472,268,115489,6,0,B|380:268,1,90.0000021457673,8|0,0:0|0:0,0:0:0
40,268,115712,2,0,B|132:268,1,90.0000021457673
464,276,115934,2,0,B|372:276,1,90.0000021457673,8|0,0:0|0:0,0:0:0
48,276,116156,6,0,B|228:276,2,180.000004291535,4|8|0,0:0|0:0|0:0,0:0:0
16,192,116712,1,0,0:0:0
56,112,116823,1,8,0:0:0
144,88,116934,6,0,B|324:88,1,180.000004291535,4|0,0:0|0:0,0:0:0
380,228,117267,2,0,B|412:312,1,90.0000021457673,8|0,0:0|0:0,0:0:0
324,320,117489,2,0,B|256:260,1,90.0000021457673
132,160,117712,2,0,B|100:244,1,90.0000021457673,8|8,0:0|0:0,0:0:0
188,252,117934,6,0,B|256:192,2,90.0000021457673,4|0|8,0:0|0:0|0:0,0:0:0
100,244,118267,2,0,B|80:204|72:152|112:108|144:88,1,180.000004291535,2|2,0:0|0:0,0:0:0
412,244,118712,2,0,B|432:204|440:152|400:108|368:88,1,180.000004291535,2|2,0:0|0:0,0:0:0
280,104,119045,1,8,0:0:0
256,192,119156,6,2,B|256:280,2,89.9999972534181
144,88,119489,2,0,B|84:156,1,90.0000021457673,8|8,0:0|0:0,0:0:0
100,244,119712,6,0,B|192:244,2,90.0000021457673,4|0|0,0:0|0:0|0:0,0:0:0
84,156,120045,2,0,B|84:108|112:68|152:48|204:48,1,180.000004291535,2|2,0:0|0:0,0:0:0
428,156,120489,2,0,B|428:108|400:68|360:48|308:48,1,180.000004291535,2|2,0:0|0:0,0:0:0
256,120,120823,1,8,0:0:0
256,208,120934,6,2,B|256:296,2,89.9999972534181
272,120,121267,1,8,0:0:0
360,96,121378,1,8,0:0:0
428,156,121489,6,0,B|428:248,2,90.0000021457673,4|0|8,0:0|0:0|0:0,0:0:0
392,76,121823,2,0,B|364:40|324:12|272:16|232:40,1,180.000004291535,2|2,0:0|0:0,0:0:0
392,308,122267,2,0,B|364:344|324:372|272:368|232:344,1,180.000004291535,2|2,0:0|0:0,0:0:0
196,260,122600,1,8,0:0:0
256,192,122712,6,2,B|320:256,2,89.9999972534181
180,148,123045,1,8,0:0:0
92,172,123156,1,8,0:0:0
106,260,123267,6,0,B|157:333,2,90.0000021457673,4|0|0,0:0|0:0|0:0,0:0:0
48,192,123600,2,0,B|72:144|104:116|152:112|196:124,1,180.000004291535,2|2,0:0|0:0,0:0:0
464,192,124045,2,0,B|440:144|408:116|360:112|316:124,1,180.000004291535,2|2,0:0|0:0,0:0:0
256,192,124378,6,0,B|256:284,1,90.0000021457673,8|0,0:0|0:0,0:0:0
328,228,124600,2,0,B|348:316,1,90.0000021457673,8|8,0:0|0:0,0:0:0
404,244,124823,2,0,B|440:328,1,90.0000021457673,8|8,0:0|0:0,0:0:0
439,326,125045,5,4,0:0:0
256,344,131267,5,4,0:0:0
200,284,131378,2,8,B|156:284,2,37.5
256,224,131600,1,8,0:0:0
332,192,131712,2,8,B|408:192,1,75
364,120,131934,2,8,B|436:100,1,75
360,40,132156,6,0,B|312:20|272:20|228:40|204:84,2,180.000004291535,4|8|0,0:0|0:0|0:0,0:0:0
424,104,132712,1,0,0:0:0
428,192,132823,1,8,0:0:0
348,232,132934,2,0,B|168:232,1,180.000004291535
84,192,133267,2,0,B|136:120,2,90.0000021457673,8|0|0,0:0|0:0|0:0,0:0:0
428,192,133712,1,8,0:0:0
84,192,133934,6,0,B|136:264,1,90.0000021457673,4|0,0:0|0:0,0:0:0
256,364,134156,2,0,B|328:312,1,90.0000021457673,8|0,0:0|0:0,0:0:0
428,192,134378,2,0,B|376:120,1,90.0000021457673
256,20,134600,2,0,B|184:72,1,90.0000021457673,8|0,0:0|0:0,0:0:0
258,192,134823,6,0,B|350:192,1,90.0000021457673
254,192,135045,2,0,B|162:192,1,90.0000021457673,8|0,0:0|0:0,0:0:0
428,192,135267,1,0,0:0:0
84,192,135489,1,8,0:0:0
256,364,135712,6,0,B|328:312,1,90.0000021457673,4|0,0:0|0:0,0:0:0
256,20,135934,2,0,B|184:72,1,90.0000021457673,8|0,0:0|0:0,0:0:0
262,363,136156,2,0,B|332:309,1,90.0000021457673
249,20,136378,2,0,B|179:74,1,90.0000021457673,8|0,0:0|0:0,0:0:0
267,363,136600,2,0,B|336:306,1,90.0000021457673
244,20,136823,2,0,B|175:77,1,90.0000021457673,8|0,0:0|0:0,0:0:0
256,192,137045,2,0,B|304:200|352:192|384:156|392:104,1,180.000004291535,0|8,0:0|0:0,0:0:0
300,116,137378,1,0,0:0:0
256,192,137489,6,0,B|248:240|256:288|292:320|344:328,1,180.000004291535,4|8,0:0|0:0,0:0:0
432,320,137823,1,0,0:0:0
492,252,137934,2,0,B|484:160,1,90.0000021457673
420,228,138156,2,0,B|396:140,1,90.0000021457673,8|0,0:0|0:0,0:0:0
344,212,138378,2,0,B|308:128,1,90.0000021457673
268,208,138600,2,0,B|216:136,1,90.0000021457673,8|0,0:0|0:0,0:0:0
188,220,138823,2,0,B|144:204|112:164|112:112|148:76,1,180.000004291535,0|8,0:0|0:0,0:0:0
216,136,139156,5,0,0:0:0
268,208,139267,2,0,B|416:208,1,150,4|8,0:0|0:0,0:0:0
148,76,139712,6,0,B|72:88,1,75,0|8,0:0|0:0,0:0:0
364,76,139934,2,0,B|440:88,1,75,0|8,0:0|0:0,0:0:0
148,144,140156,6,0,B|38:161,1,112.499996647239,0|8,0:0|0:0,0:0:0
364,144,140378,2,0,B|473:161,1,112.499996647239,0|8,0:0|0:0,0:0:0
148,212,140600,6,0,B|1:235,1,150,8|8,0:0|0:0,0:0:0
364,212,140823,2,0,B|510:235,1,150,8|8,0:0|0:0,0:0:0
364,360,141045,6,0,B|316:364|272:340|256:296|256:244,1,180.000004291535,4|8,0:0|0:0,0:0:0
256,156,141378,1,0,0:0:0
255,245,141489,2,0,B|256:296|240:340|196:364|148:360,1,180.000004291535,0|8,0:0|0:0,0:0:0
96,284,141823,2,0,B|96:104,1,180.000004291535,4|0,0:0|0:0,0:0:0
198,148,142156,6,0,B|120:192,1,90.0000021457673,8|0,0:0|0:0,0:0:0
96,104,142378,2,0,B|175:61,1,90.0000021457673
256,156,142600,2,0,B|231:192|187:216|143:212|95:192,1,180.000004291535,8|4,0:0|0:0,0:0:0
256,312,143045,1,8,0:0:0
416,192,143267,2,0,B|368:212|324:216|280:192|256:156,1,180.000004291535,0|8,0:0|0:0,0:0:0
256,64,143600,2,0,B|436:64,1,180.000004291535,4|0,0:0|0:0,0:0:0
376,132,143934,2,0,B|284:160,1,90.0000021457673,8|0,0:0|0:0,0:0:0
136,252,144156,2,0,B|228:224,1,90.0000021457673
344,72,144378,2,0,B|254:105,1,90.0000021457673,8|8,0:0|0:0,0:0:0
168,312,144600,6,0,B|258:279,2,90.0000021457673,4|0|8,0:0|0:0|0:0,0:0:0
80,192,144934,2,0,B|80:148|120:116|176:112|220:136,1,180.000004291535,2|2,0:0|0:0,0:0:0
432,192,145378,2,0,B|432:148|392:116|336:112|292:136,1,180.000004291535,2|2,0:0|0:0,0:0:0
256,220,145712,1,8,0:0:0
212,300,145823,2,0,B|168:380,2,90.0000021457673
300,300,146156,6,0,B|344:380,2,90.0000021457673,8|0|4,0:0|0:0|0:0,0:0:0
256,220,146489,1,0,0:0:0
256,132,146600,1,8,0:0:0
332,84,146712,2,0,B|428:84,2,90.0000021457673,2|0|2,0:0|0:0|0:0,0:0:0
256,36,147045,1,0,0:0:0
180,84,147156,2,0,B|84:84,2,90.0000021457673,2|0|2,0:0|0:0|0:0,0:0:0
256,132,147489,6,0,B|324:192,1,90.0000021457673,8|0,0:0|0:0,0:0:0
180,172,147712,2,0,B|180:264,1,90.0000021457673
104,132,147934,2,0,B|36:192,1,90.0000021457673,8|8,0:0|0:0,0:0:0
20,280,148156,6,0,B|28:328|64:360|108:372|160:344,1,180.000004291535,4|8,0:0|0:0,0:0:0
180,260,148489,1,0,0:0:0
180,172,148600,2,0,B|229:145|273:157|309:189|317:237,1,180.000004291535,0|8,0:0|0:0,0:0:0
256,304,148934,2,0,B|76:304,1,180.000004291535,4|0,0:0|0:0,0:0:0
68,216,149267,6,0,B|104:132,1,90.0000021457673,8|0,0:0|0:0,0:0:0
148,212,149489,2,0,B|200:136,1,90.0000021457673
232,220,149712,2,0,B|272:200|292:156|296:108|248:68,2,180.000004291535,8|4|8,0:0|0:0|0:0,0:0:0
16,48,150378,2,0,B|196:48,1,180.000004291535,0|8,0:0|0:0,0:0:0
200,140,150712,6,0,B|20:140,1,180.000004291535,4|0,0:0|0:0,0:0:0
28,228,151045,2,0,B|120:228,1,90.0000021457673,8|0,0:0|0:0,0:0:0
484,228,151267,2,0,B|392:228,1,90.0000021457673
36,236,151489,6,0,B|216:236,1,180.000004291535,8|4,0:0|0:0,0:0:0
256,156,151823,1,0,0:0:0
256,68,151934,1,8,0:0:0
172,36,152045,2,0,B|128:40|92:72|76:120|92:172,1,180.000004291535,2|2,0:0|0:0,0:0:0
340,36,152489,2,0,B|384:40|420:72|436:120|420:172,1,180.000004291535,2|2,0:0|0:0,0:0:0
332,192,152823,1,8,0:0:0
244,192,152934,6,2,B|156:192,2,89.9999972534181
332,192,153267,2,0,B|376:272,1,89.9999972534181,8|8,0:0|0:0,0:0:0
300,352,153489,6,0,B|256:272,2,90.0000021457673,4|0|8,0:0|0:0|0:0,0:0:0
388,356,153823,2,0,B|432:344|460:304|464:252|436:208,1,180.000004291535,2|2,0:0|0:0,0:0:0
124,356,154267,2,0,B|80:344|52:304|48:252|76:208,1,180.000004291535,2|2,0:0|0:0,0:0:0
164,192,154600,1,8,0:0:0
244,236,154712,2,0,B|244:328,2,90.0000021457673,2|2|2,0:0|0:0|0:0,0:0:0
244,148,155045,2,0,B|244:56,1,90.0000021457673,8|8,0:0|0:0,0:0:0
160,28,155267,6,0,B|108:32|72:60|52:108|60:152,2,180.000004291535,4|4|0,0:0|0:0|0:0,0:0:0
244,56,155823,1,0,0:0:0
244,148,155934,1,8,0:0:0
244,236,156045,2,0,B|296:240|336:216|352:168|328:120,1,180.000004291535,4|0,0:0|0:0,0:0:0
244,148,156378,6,0,B|244:240,1,90.0000021457673,8|0,0:0|0:0,0:0:0
244,328,156600,2,0,B|192:332|152:308|136:260|160:212,1,180.000004291535,0|8,0:0|0:0,0:0:0
248,192,156934,1,0,0:0:0
244,56,157045,6,0,B|192:52|152:76|136:124|160:172,2,180.000004291535,4|8|0,0:0|0:0|0:0,0:0:0
304,120,157600,1,0,0:0:0
248,192,157712,1,8,0:0:0
152,164,157823,6,0,B|128:116|144:68|184:44|236:48,1,180.000004291535,4|0,0:0|0:0,0:0:0
304,120,158156,1,8,0:0:0
248,192,158267,1,0,0:0:0
228,204,158323,1,0,0:0:0
208,216,158378,1,0,0:0:0
52,308,158600,1,8,0:0:0
460,76,158823,6,0,B|396:12,2,90.0000021457673,4|0|8,0:0|0:0|0:0,0:0:0
412,152,159156,2,2,B|372:168|320:164|276:144|256:100,1,180.000004291535,2|2,0:0|0:0,0:0:0
100,152,159600,2,0,B|140:168|192:164|236:144|256:100,1,180.000004291535,2|2,0:0|0:0,0:0:0
172,64,159934,1,8,0:0:0
88,36,160045,2,0,B|0:24,2,90.0000021457673,2|2|2,0:0|0:0|0:0,0:0:0
424,36,160378,6,0,B|512:24,2,90.0000021457673,8|8|4,0:0|0:0|0:0,0:0:0
340,64,160712,1,0,0:0:0
256,100,160823,1,8,0:0:0
256,188,160934,2,0,B|256:236|296:272|348:276|392:256,1,180.000004291535,2|2,0:0|0:0,0:0:0
256,188,161378,2,0,B|256:236|216:272|164:276|120:256,1,180.000004291535,2|2,0:0|0:0,0:0:0
56,192,161712,1,8,0:0:0
116,124,161823,2,0,B|204:104,2,90.0000021457673
396,124,162156,6,0,B|308:104,2,90.0000021457673,8|8|4,0:0|0:0|0:0,0:0:0
456,192,162489,1,0,0:0:0
392,256,162600,1,8,0:0:0
304,228,162712,2,0,B|264:208|232:168|232:120|256:76,1,180.000004291535,2|2,0:0|0:0,0:0:0
208,228,163156,2,0,B|248:208|280:168|280:120|256:76,1,180.000004291535,2|2,0:0|0:0,0:0:0
168,84,163489,6,0,B|92:136,1,90.0000021457673,8|0,0:0|0:0,0:0:0
256,352,163712,2,0,B|256:260,1,90.0000021457673
344,84,163934,2,0,B|420:136,1,90.0000021457673,8|8,0:0|0:0,0:0:0
488,192,164156,5,4,0:0:0
444,272,164267,1,0,0:0:0
356,296,164378,1,8,0:0:0
296,232,164489,2,0,B|268:184|272:144|292:108|344:84,1,180.000004291535,2|2,0:0|0:0,0:0:0
216,232,164934,2,0,B|244:184|240:144|220:108|168:84,1,180.000004291535,2|2,0:0|0:0,0:0:0
128,212,165267,6,0,B|216:232,1,90.0000021457673,8|0,0:0|0:0,0:0:0
384,212,165489,2,0,B|296:232,1,90.0000021457673,8|8,0:0|0:0,0:0:0
108,148,165712,2,0,B|196:168,1,90.0000021457673,8|8,0:0|0:0,0:0:0
404,148,165934,6,0,B|316:168,2,90.0000021457673,4|0|8,0:0|0:0|0:0,0:0:0
468,84,166267,2,0,B|460:40|408:12|364:16|320:44,1,180.000004291535,2|2,0:0|0:0,0:0:0
44,84,166712,2,0,B|52:40|104:12|148:16|192:44,1,180.000004291535,2|2,0:0|0:0,0:0:0
256,108,167045,1,8,0:0:0
256,196,167156,6,2,B|256:240,2,45.0000010728836
256,108,167378,1,0,0:0:0
320,44,167489,1,8,0:0:0
408,16,167600,1,8,0:0:0
468,84,167712,6,0,B|468:176,2,90.0000021457673,4|0|8,0:0|0:0|0:0,0:0:0
408,16,168045,2,0,B|364:44|340:76|340:128|380:168,1,180.000004291535,2|2,0:0|0:0,0:0:0
104,16,168489,2,0,B|148:44|172:76|172:128|132:168,1,180.000004291535,2|2,0:0|0:0,0:0:0
44,172,168823,6,0,B|40:84,1,90.0000021457673,8|0,0:0|0:0,0:0:0
104,16,169045,2,0,B|196:16,1,90.0000021457673
468,212,169267,2,0,B|472:300,1,90.0000021457673,8|8,0:0|0:0,0:0:0
408,368,169489,6,0,B|316:368,2,90.0000021457673,4|0|0,0:0|0:0|0:0,0:0:0
392,280,169823,2,0,B|400:232|384:188|344:156|296:152,1,180.000004291535,2|2,0:0|0:0,0:0:0
120,280,170267,2,0,B|112:232|128:188|168:156|216:152,1,180.000004291535,2|2,0:0|0:0,0:0:0
256,232,170600,6,0,B|256:324,1,90.0000021457673,8|0,0:0|0:0,0:0:0
188,260,170823,2,0,B|176:348,1,90.0000021457673
120,280,171045,2,0,B|92:364,1,90.0000021457673,8|8,0:0|0:0,0:0:0
48,288,171267,6,0,B|4:368,2,90.0000021457673,4|0|8,0:0|0:0|0:0,0:0:0
100,216,171600,2,0,B|132:180|140:136|128:84|84:60,1,180.000004291535,2|2,0:0|0:0,0:0:0
412,216,172045,2,0,B|380:180|372:136|384:84|428:60,1,180.000004291535,2|2,0:0|0:0,0:0:0
472,140,172378,6,0,B|500:228,1,90.0000021457673,8|8,0:0|0:0,0:0:0
256,360,172600,2,0,B|256:268,1,90.0000021457673,8|8,0:0|0:0,0:0:0
40,140,172823,2,0,B|12:228,1,90.0000021457673,8|8,0:0|0:0,0:0:0
24,300,173045,5,4,0:0:0
96,324,173156,1,0,0:0:0
168,300,173267,2,0,B|220:248,1,75,8|8,0:0|0:0,0:0:0
488,84,173489,5,0,0:0:0
416,60,173600,1,0,0:0:0
344,84,173711,2,0,B|292:136,1,75,8|4,0:0|0:0,0:0:0
500,360,174045,5,0,0:0:0
424,352,174156,2,0,B|348:340,1,75,8|0,0:0|0:0,0:0:0
349,340,174323,1,0,0:0:0
349,340,174378,1,0,0:0:0
288,300,174489,2,0,B|256:232,1,75,8|8,0:0|0:0,0:0:0
224,84,174712,6,0,B|256:152,2,75,8|4|0,0:0|0:0|0:0,0:0:0
148,36,175045,1,8,0:0:0
60,48,175156,1,0,0:0:0
12,124,175267,2,0,B|-4:212,1,90.0000021457673
112,280,175489,2,0,B|128:192,1,90.0000021457673,8|0,0:0|0:0,0:0:0
500,124,175712,6,0,B|516:212,1,90.0000021457673
400,280,175934,2,0,B|384:192,1,90.0000021457673,8|0,0:0|0:0,0:0:0
336,116,176156,1,0,0:0:0
256,72,176267,1,0,0:0:0
176,116,176378,6,0,B|140:152|136:200|168:244|224:244,1,180.000004291535,8|4,0:0|0:0,0:0:0
256,160,176712,1,0,0:0:0
336,116,176823,2,0,B|372:152|376:200|344:244|288:244,1,180.000004291535,8|0,0:0|0:0,0:0:0
256,160,177156,1,0,0:0:0
176,116,177267,1,8,0:0:0
88,120,177378,1,0,0:0:0
16,176,177489,6,0,B|0:264,1,90.0000021457673
116,336,177712,2,0,B|192:288,1,90.0000021457673,8|0,0:0|0:0,0:0:0
496,208,177934,2,0,B|512:120,1,90.0000021457673
396,48,178157,2,0,B|320:96,1,90.0000021457673,8|0,0:0|0:0,0:0:0
256,160,178378,6,0,B|256:204|284:244|332:272|376:272,1,180.000004291535,4|8,0:0|0:0,0:0:0
420,192,178712,1,0,0:0:0
375,111,178823,2,0,B|332:112|284:140|256:180|256:224,1,180.000004291535,0|8,0:0|0:0,0:0:0
256,312,179156,1,0,0:0:0
340,344,179267,6,0,B|428:360,2,90.0000021457673,0|0|8,0:0|0:0|0:0,0:0:0
256,312,179600,1,0,0:0:0
172,344,179712,2,0,B|84:360,2,90.0000021457673,0|0|8,0:0|0:0|0:0,0:0:0
256,72,180156,6,0,B|172:108,1,90.0000021457673,4|0,0:0|0:0,0:0:0
256,311,180378,2,0,B|340:277,1,90.0000021457673,8|0,0:0|0:0,0:0:0
376,192,180600,2,0,B|340:108,1,90.0000021457673
172,108,180823,2,0,B|138:192,1,90.0000021457673,8|0,0:0|0:0,0:0:0
256,312,181045,6,0,B|340:276,2,90.0000021457673,0|0|8,0:0|0:0|0:0,0:0:0
256,312,181378,2,0,B|172:276,2,90.0000021457673
256,220,181712,2,0,B|256:128,1,90.0000021457673,8|8,0:0|0:0,0:0:0
256,40,181934,6,0,B|200:48|168:76|156:124|176:168,1,180.000004291535,4|8,0:0|0:0,0:0:0
256,128,182267,1,0,0:0:0
256,40,182378,2,0,B|312:48|344:76|356:124|336:168,1,180.000004291535,0|8,0:0|0:0,0:0:0
256,220,182712,1,0,0:0:0
176,168,182823,6,0,B|136:88,1,90.0000021457673
256,128,183045,2,0,B|256:36,1,90.0000021457673,8|0,0:0|0:0,0:0:0
335,168,183267,2,0,B|376:88,1,90.0000021457673
464,68,183489,6,0,B|504:92|520:144|500:188|456:216,2,180.000004291535,8|4|8,0:0|0:0|0:0,0:0:0
376,88,184045,1,0,0:0:0
336,168,184156,2,0,B|372:252,1,90.0000021457673
284,276,184378,2,0,B|248:192,1,90.0000021457673,8|0,0:0|0:0,0:0:0
136,88,184600,6,0,B|216:48,1,90.0000021457673
376,88,184823,2,0,B|296:48,1,90.0000021457673,8|0,0:0|0:0,0:0:0
132,92,185045,2,0,B|212:52,1,90.0000021457673
380,92,185268,2,0,B|300:52,1,90.0000021457673,8|0,0:0|0:0,0:0:0
256,132,185489,6,0,B|248:184|260:228|304:248|360:240,1,180.000004291535,4|8,0:0|0:0,0:0:0
436,192,185823,1,0,0:0:0
358,143,185934,2,0,B|304:136|260:156|248:200|256:252,1,180.000004291535,0|8,0:0|0:0,0:0:0
288,336,186267,1,0,0:0:0
376,356,186378,6,0,B|464:372,2,90.0000021457673,0|0|8,0:0|0:0|0:0,0:0:0
288,336,186712,1,0,0:0:0
256,252,186823,2,0,B|256:160,2,90.0000021457673,0|0|8,0:0|0:0|0:0,0:0:0
392,28,187267,6,0,B|304:24,1,90.0000021457673,4|0,0:0|0:0,0:0:0
120,28,187489,2,0,B|208:24,1,90.0000021457673,8|0,0:0|0:0,0:0:0
480,40,187712,2,0,B|392:28,1,90.0000021457673
32,40,187934,2,0,B|120:28,1,90.0000021457673,8|0,0:0|0:0,0:0:0
188,88,188156,5,0,0:0:0
208,176,188267,1,8,0:0:0
176,260,188378,1,8,0:0:0
92,292,188489,1,8,0:0:0
20,240,188600,6,0,B|-4:152,1,90.0000021457673,8|8,0:0|0:0,0:0:0
76,112,188823,2,0,B|128:184,1,90.0000021457673,8|8,0:0|0:0,0:0:0
176,260,189045,1,4,0:0:0
256,192,189100,12,0,201489,0:0:0
