osu file format v11

[General]
AudioFilename: Yousei Teikoku - Sacrifice.mp3
AudioLeadIn: 1000
PreviewTime: 140823
Countdown: 0
SampleSet: Soft
StackLeniency: 0.7
Mode: 0
LetterboxInBreaks: 0

[Editor]
DistanceSpacing: 1
BeatDivisor: 4
GridSize: 4

[Metadata]
Title:Sacrifice
TitleUnicode:Sacrifice
Artist:Yousei Teikoku
ArtistUnicode:Yousei Teikoku
Creator:Saten
Version:Near-Death-Experience
Source:
Tags:Saten-san Fiya OnosakiHito rickyboi
BeatmapID:180079
BeatmapSetID:40671

[Difficulty]
HPDrainRate:5
CircleSize:4
OverallDifficulty:7
ApproachRate:10
SliderMultiplier:2
SliderTickRate:2

[Events]
//Background and Video events
0,0,"117863.jpg"
//Break Periods
2,79023,85484
2,125245,130817
//Storyboard Layer 0 (Background)
//Storyboard Layer 1 (Fail)
//Storyboard Layer 2 (Pass)
//Storyboard Layer 3 (Foreground)
//Storyboard Sound Samples
//Background Colour Transformations
3,100,0,0,0

[TimingPoints]
601,222.222222222222,4,2,1,80,1,0
59267,-100,4,2,1,80,0,1
77045,-100,4,2,1,80,0,0
93045,-100,4,2,2,80,0,0
99267,-100,4,2,1,80,0,0
100156,-95.2380952380952,4,2,1,80,0,0
100378,-90.9090909090909,4,2,1,80,0,0
100600,-86.9565217391304,4,2,1,80,0,0
100823,-83.3333333333333,4,2,1,80,0,0
101045,-80,4,2,1,80,0,0
101267,-76.9230769230769,4,2,1,80,0,0
101489,-74.0740740740741,4,2,1,80,0,0
101712,-71.4285714285714,4,2,1,80,0,0
101934,-68.9655172413793,4,2,1,80,0,0
102156,-66.6666666666667,4,2,1,80,0,0
102378,-64.5161290322581,4,2,1,80,0,0
102600,-62.5,4,2,1,80,0,0
102823,-100,4,2,1,80,0,0
103934,-105.263157894737,4,2,1,80,0,0
104156,-111.111111111111,4,2,1,80,0,0
104378,-117.647058823529,4,2,1,80,0,0
104600,-125,4,2,1,80,0,0
104823,-133.333333333333,4,2,1,80,0,0
105045,-142.857142857143,4,2,1,80,0,0
105267,-153.846153846154,4,2,1,80,0,0
105489,-166.666666666667,4,2,1,80,0,0
105712,-181.818181818182,4,2,1,80,0,0
105934,-200,4,2,1,80,0,0
106156,-222.222222222222,4,2,1,80,0,0
106378,-100,4,2,1,80,0,0
107267,-100,4,2,1,80,0,1
125045,-100,4,2,2,80,0,0
131267,-100,4,2,1,80,0,0
132156,-100,4,2,2,80,0,0
133712,-100,4,2,1,80,0,0
134267,-100,4,2,2,80,0,0
134600,-100,4,2,2,80,0,0
135267,-100,4,2,1,80,0,0
135712,-100,4,2,2,80,0,0
137045,-100,4,2,1,80,0,0
137712,-100,4,2,2,80,0,0
138823,-100,4,2,1,80,0,0
141045,-100,4,2,1,80,0,1
155267,-100,4,2,1,80,0,0
155489,-100,4,2,1,80,0,1
173045,-100,4,2,1,80,0,0
189045,-100,4,2,1,80,0,0
189934,-100,4,2,1,75,0,0
190823,-100,4,2,1,70,0,0
191712,-100,4,2,1,65,0,0
192600,-100,4,2,1,60,0,0
193489,-100,4,2,1,55,0,0
194378,-100,4,2,1,50,0,0
195267,-100,4,2,1,45,0,0
196156,-100,4,2,1,40,0,0
197045,-100,4,2,1,35,0,0
197934,-100,4,2,1,30,0,0
198823,-100,4,2,1,25,0,0
199712,-100,4,2,1,20,0,0
200600,-100,4,2,1,15,0,0
201489,-100,4,2,1,5,0,0

[Colours]
Combo1 : 255,70,70
Combo2 : 89,255,89
Combo3 : 187,187,255
Combo4 : 255,130,255
Combo5 : 255,255,111

[HitObjects]
256,72,601,2,0,B|340:124,1,100,4|0,0:0|0:0,0:0:0
256,312,823,2,0,B|172:260,1,100,8|8,0:0|0:0,0:0:0
216,168,1045,2,0,B|300:220,2,100,0|0|8,0:0|0:0|0:0,0:0:0
85,206,1378,2,0,B|256:312,1,200,4|0,0:0|0:0,0:0:0
356,328,1712,5,8,0:0:0
440,272,1823,1,0,0:0:0
440,272,1878,1,0,0:0:0
440,272,1934,2,0,B|472:176,1,100,0|8,0:0|0:0,0:0:0
348,96,2156,2,0,B|316:192,1,100,8|8,0:0|0:0,0:0:0
72,272,2378,6,0,B|40:176,1,100,4|0,0:0|0:0,0:0:0
164,96,2600,2,0,B|196:192,1,100,8|0,0:0|0:0,0:0:0
440,272,2823,2,0,B|472:176,1,100
348,96,3045,2,0,B|316:192,1,100,8|0,0:0|0:0,0:0:0
256,272,3267,5,0,0:0:0
156,256,3378,1,0,0:0:0
104,168,3489,2,0,B|104:68,1,100,8|0,0:0|0:0,0:0:0
408,68,3712,2,0,B|408:168,1,100
256,272,3934,2,0,B|256:72,1,200,8|4,0:0|0:0,0:0:0
160,44,4267,5,0,0:0:0
68,84,4378,2,0,B|32:128|48:176,1,100,8|0,0:0|0:0,0:0:0
256,212,4600,2,0,B|292:168|276:120,1,100
175,102,4823,2,0,B|139:146|155:195,1,100,8|0,0:0|0:0,0:0:0
360,232,5045,6,0,B|396:188|379:138,1,100
312,64,5267,1,8,0:0:0
212,64,5378,1,0,0:0:0
124,108,5489,2,0,B|88:152|92:200,1,100
192,304,5712,2,0,B|168:256|164:204|188:160|236:128,1,200,8|4,0:0|0:0,0:0:0
336,136,6045,5,0,0:0:0
360,232,6156,2,0,B|384:276|440:284,1,100,8|0,0:0|0:0,0:0:0
416,84,6378,2,0,B|392:128|336:136,1,100
152,152,6600,2,0,B|128:108|72:100,1,100,8|0,0:0|0:0,0:0:0
96,300,6822,6,0,B|120:256|176:248,1,100
256,308,7045,1,8,0:0:0
356,316,7156,1,0,0:0:0
416,236,7267,2,0,B|360:152,1,100
96,236,7489,2,0,B|152:152,1,100,8|0,0:0|0:0,0:0:0
256,108,7712,6,0,B|256:308,1,200,4|8,0:0|0:0,0:0:0
356,316,8045,1,0,0:0:0
416,236,8156,2,0,B|456:144,1,100
296,16,8378,2,0,B|256:108,1,100,8|0,0:0|0:0,0:0:0
336,172,8600,6,0,B|376:80,2,100,0|0|8,0:0|0:0|0:0,0:0:0
282,256,8934,1,0,0:0:0
182,267,9045,1,0,0:0:0
111,196,9156,1,0,0:0:0
123,97,9267,1,8,0:0:0
208,44,9378,1,8,0:0:0
302,78,9489,6,0,B|262:170,1,100,4|0,0:0|0:0,0:0:0
288,268,9712,1,8,0:0:0
384,292,9823,1,0,0:0:0
452,220,9934,2,0,B|504:132,1,100
353,37,10156,2,0,B|404:124,1,100,8|0,0:0|0:0,0:0:0
308,156,10378,6,0,B|256:68,1,100
160,92,10600,1,8,0:0:0
96,168,10712,1,0,0:0:0
96,168,10767,1,0,0:0:0
96,168,10823,2,0,B|84:220|100:268,1,100
228,292,11045,2,0,B|240:240|224:192,1,100,8|0,0:0|0:0,0:0:0
28,132,11267,6,0,B|-4:184|-12:224|0:280|40:316,1,200,4|8,0:0|0:0,0:0:0
136,336,11600,1,0,0:0:0
228,292,11712,2,0,B|240:236|208:196,1,100
284,92,11934,2,0,B|272:148|304:188,1,100,8|0,0:0|0:0,0:0:0
392,232,12156,5,0,0:0:0
472,172,12267,1,0,0:0:0
468,72,12378,1,8,0:0:0
376,32,12489,1,0,0:0:0
376,32,12545,1,0,0:0:0
376,32,12600,2,0,B|308:104,1,100
268,268,12823,2,0,B|405:122,1,200,8|4,0:0|0:0,0:0:0
496,164,13156,5,0,0:0:0
484,264,13267,1,8,0:0:0
392,300,13378,1,0,0:0:0
328,224,13489,2,0,B|292:184|240:184,1,100
180,308,13712,2,0,B|216:268|268:268,1,100,8|0,0:0|0:0,0:0:0
364,292,13934,5,0,0:0:0
456,248,14045,1,0,0:0:0
452,148,14156,1,8,0:0:0
376,84,14267,1,0,0:0:0
376,84,14323,1,0,0:0:0
376,84,14378,2,0,B|276:84,1,100
156,192,14600,2,0,B|354:192,1,200,8|4,0:0|0:0,0:0:0
412,276,14934,5,0,0:0:0
364,364,15045,2,0,B|268:332,1,100,8|0,0:0|0:0,0:0:0
252,236,15267,2,0,B|348:268,1,100
332,168,15489,2,0,B|236:136,1,100,8|0,0:0|0:0,0:0:0
220,40,15711,6,0,B|316:72,1,100
400,124,15934,1,8,0:0:0
384,224,16045,1,0,0:0:0
384,224,16100,1,0,0:0:0
384,224,16156,2,0,B|348:260|296:264,1,100,0|8,0:0|0:0,0:0:0
128,224,16378,2,0,B|164:260|216:264,1,100,8|8,0:0|0:0,0:0:0
256,172,16600,6,0,B|273:120|244:64|181:43|138:61,1,200,4|8,0:0|0:0,0:0:0
56,116,16934,1,0,0:0:0
76,216,17045,2,0,B|88:264|140:288,1,100
256,136,17267,2,0,B|208:148|184:200,1,100,8|0,0:0|0:0,0:0:0
344,304,17489,2,0,B|332:256|280:232,1,100
164,384,17712,2,0,B|212:372|236:320,1,100,8|0,0:0|0:0,0:0:0
279,231,17934,5,0,0:0:0
184,200,18045,1,0,0:0:0
140,288,18156,1,8,0:0:0
236,320,18267,1,8,0:0:0
279,231,18378,6,0,B|280:132|280:132|216:56,1,200,0|8,0:0|0:0,0:0:0
116,72,18712,1,0,0:0:0
37,137,18823,2,0,B|88:224,1,100
184,200,19045,2,0,B|132:112,1,100,8|0,0:0|0:0,0:0:0
214,54,19267,6,0,B|280:132|280:132|279:231,1,200,0|8,0:0|0:0,0:0:0
312,328,19600,1,0,0:0:0
392,268,19712,2,0,B|420:224|404:172,1,100
168,268,19934,2,0,B|140:224|156:172,1,100,8|8,0:0|0:0,0:0:0
280,132,20156,6,0,B|280:332,1,200,0|8,0:0|0:0,0:0:0
188,368,20489,1,0,0:0:0
96,328,20600,2,0,B|64:284|76:232,1,100
182,170,20823,2,0,B|152:215|168:268,1,100,8|0,0:0|0:0,0:0:0
416,328,21045,6,0,B|448:284|436:232,1,100
329,170,21267,2,0,B|359:215|344:268,1,100,8|0,0:0|0:0,0:0:0
256,316,21489,1,0,0:0:0
167,266,21600,1,0,0:0:0
168,164,21712,1,8,0:0:0
256,116,21823,1,8,0:0:0
256,216,21934,6,0,B|340:268|340:268|440:268,2,200,0|8|0,0:0|0:0|0:0,0:0:0
200,132,22489,1,0,0:0:0
232,36,22600,1,8,0:0:0
332,20,22712,1,0,0:0:0
420,68,22823,6,0,B|456:112|448:172|400:216|352:215,1,200
92,68,23156,2,0,B|56:112|64:172|112:216|159:215,1,200,8|0,0:0|0:0,0:0:0
256,192,23489,1,8,0:0:0
352,215,23600,1,8,0:0:0
384,312,23712,6,0,B|360:356|304:380|248:360|220:312,2,200,4|8|0,0:0|0:0|0:0,0:0:0
352,215,24267,1,0,0:0:0
256,192,24378,1,8,0:0:0
160,215,24489,1,0,0:0:0
80,156,24600,6,0,B|60:60,1,100
176,28,24823,2,0,B|196:124,1,100,8|0,0:0|0:0,0:0:0
432,156,25045,2,0,B|452:60,1,100
336,28,25268,2,0,B|316:124,1,100,8|8,0:0|0:0,0:0:0
256,204,25489,5,0,0:0:0
108,72,25712,1,8,0:0:0
68,268,25934,1,0,0:0:0
132,344,26045,1,0,0:0:0
232,348,26156,1,8,0:0:0
292,268,26267,1,0,0:0:0
276,168,26378,6,0,B|244:124|188:124,1,100
248,40,26600,2,0,B|301:39|333:83,1,100,8|0,0:0|0:0,0:0:0
228,248,26823,2,0,B|196:204|140:204,1,100
68,268,27045,1,8,0:0:0
132,344,27156,1,8,0:0:0
232,348,27267,6,0,B|292:268|292:268|276:168,1,200,0|8,0:0|0:0,0:0:0
332,88,27600,1,0,0:0:0
352,188,27712,6,0,B|367:286|367:286|307:366,1,200,0|8,0:0|0:0,0:0:0
408,368,28045,1,0,0:0:0
488,308,28156,6,0,B|516:261|519:208|487:159|437:143,1,200,0|8,0:0|0:0,0:0:0
376,224,28489,1,0,0:0:0
280,252,28600,6,0,B|251:205|248:152|280:103|330:87,1,200,0|8,0:0|0:0,0:0:0
420,136,28934,1,8,0:0:0
376,224,29045,5,0,0:0:0
136,160,29267,1,8,0:0:0
376,96,29489,1,0,0:0:0
300,32,29600,1,0,0:0:0
200,40,29712,1,8,0:0:0
132,112,29823,1,0,0:0:0
156,208,29934,6,0,B|224:280|224:280|324:280,1,200,8|0,0:0|0:0,0:0:0
212,304,30267,2,0,B|144:376|144:376|44:376,1,200,8|0,0:0|0:0,0:0:0
8,284,30600,1,8,0:0:0
52,192,30712,1,8,0:0:0
148,160,30823,6,0,B|348:160,1,200,4|8,0:0|0:0,0:0:0
416,232,31156,1,0,0:0:0
396,328,31267,2,0,B|340:332|300:304,1,100
116,328,31489,2,0,B|172:332|212:304,1,100,8|0,0:0|0:0,0:0:0
256,216,31712,5,0,0:0:0
216,124,31823,1,0,0:0:0
124,88,31934,1,8,0:0:0
32,132,32045,1,0,0:0:0
32,132,32100,1,0,0:0:0
32,132,32156,2,0,B|32:232,1,100
124,288,32378,2,0,B|124:88,1,200,8|4,0:0|0:0,0:0:0
212,44,32712,5,0,0:0:0
304,80,32823,2,0,B|344:116|344:168,1,100,8|0,0:0|0:0,0:0:0
256,216,33045,2,0,B|216:180|216:128,1,100
376,48,33267,2,0,B|416:84|416:136,1,100,8|0,0:0|0:0,0:0:0
384,232,33489,5,0,0:0:0
292,276,33600,1,0,0:0:0
192,256,33712,1,8,0:0:0
124,180,33823,1,0,0:0:0
124,180,33878,1,0,0:0:0
124,180,33934,2,0,B|200:116,1,100
345,127,34156,2,0,B|192:256,1,200,8|4,0:0|0:0,0:0:0
216,352,34489,5,0,0:0:0
316,368,34600,1,8,0:0:0
384,296,34712,1,0,0:0:0
380,196,34823,2,0,B|340:164|284:176,1,100
160,100,35045,2,0,B|200:68|256:80,1,100,8|0,0:0|0:0,0:0:0
285,175,35267,5,0,0:0:0
236,264,35378,1,0,0:0:0
136,272,35489,1,8,0:0:0
60,208,35600,1,0,0:0:0
60,208,35656,1,0,0:0:0
60,208,35712,2,0,B|84:112,1,100
184,77,35934,2,0,B|136:272,1,200,8|4,0:0|0:0,0:0:0
236,264,36267,5,0,0:0:0
285,175,36378,2,0,B|332:144|380:156,1,100,8|0,0:0|0:0,0:0:0
447,266,36600,2,0,B|406:238|352:252,1,100
364,352,36823,6,0,B|416:384|468:376|512:332|512:280,1,200,8|0,0:0|0:0,0:0:0
468,192,37156,1,0,0:0:0
380,144,37267,1,8,0:0:0
285,176,37378,1,0,0:0:0
285,176,37434,1,0,0:0:0
285,176,37489,2,0,B|236:264,1,100
152,208,37712,2,0,B|201:120,1,100,8|8,0:0|0:0,0:0:0
380,144,37934,6,0,B|282:318,1,200,4|8,0:0|0:0,0:0:0
184,344,38267,1,0,0:0:0
104,284,38378,2,0,B|68:192,1,100
156,148,38600,2,0,B|192:240,1,100,8|0,0:0|0:0,0:0:0
284,200,38823,6,0,B|248:108|248:108|160:60,1,200,0|8,0:0|0:0,0:0:0
64,96,39156,1,0,0:0:0
44,192,39267,2,0,B|76:232|128:240,1,100
240,196,39489,2,0,B|208:156|156:148,1,100,8|8,0:0|0:0,0:0:0
128,240,39712,6,0,B|132:288|168:336|232:344|280:316,1,200,0|8,0:0|0:0,0:0:0
340,236,40045,1,0,0:0:0
308,140,40156,2,0,B|236:72,1,100
108,132,40378,2,0,B|202:164,1,100,8|0,0:0|0:0,0:0:0
256,248,40600,6,0,B|248:308|208:340|152:340|104:308,1,200,0|8,0:0|0:0,0:0:0
56,220,40934,1,0,0:0:0
108,132,41045,2,0,B|188:72,1,100
404,132,41267,2,0,B|324:72,1,100,8|8,0:0|0:0,0:0:0
256,148,41489,6,0,B|256:248|256:248|320:324,1,200,0|8,0:0|0:0,0:0:0
420,336,41823,1,0,0:0:0
480,256,41934,2,0,B|468:156,1,100
368,144,42156,2,0,B|380:244,1,100,8|0,0:0|0:0,0:0:0
292,288,42378,5,0,0:0:0
196,264,42489,1,0,0:0:0
168,168,42600,1,8,0:0:0
228,88,42712,1,0,0:0:0
328,104,42823,2,0,B|340:204,1,100
440,216,43045,2,0,B|428:116,1,100,8|8,0:0|0:0,0:0:0
304,84,43267,6,0,B|327:282,1,200,0|8,0:0|0:0,0:0:0
256,352,43600,1,0,0:0:0
156,332,43712,2,0,B|60:300,1,100
120,220,43934,2,0,B|216:188,1,100,8|0,0:0|0:0,0:0:0
228,88,44156,6,0,B|180:68|128:72|84:104|64:156,1,200
124,316,44489,2,0,B|104:268|108:216|140:172|192:152,1,200,8|0,0:0|0:0,0:0:0
292,164,44823,1,8,0:0:0
316,260,44934,1,8,0:0:0
396,316,45045,6,0,B|452:312|496:276|504:224|472:172,1,200,4|8,0:0|0:0,0:0:0
384,128,45378,1,0,0:0:0
292,164,45489,2,0,B|240:184|196:160,1,100
244,72,45712,2,0,B|296:52|340:76,1,100,8|0,0:0|0:0,0:0:0
340,192,45934,6,0,B|234:232|145:183,1,200,0|8,0:0|0:0,0:0:0
80,112,46267,1,0,0:0:0
152,40,46378,2,0,B|204:56|220:108,1,100
88,224,46600,2,0,B|36:208|20:156,1,100,8|8,0:0|0:0,0:0:0
120,8,46823,6,0,B|224:40|256:144,1,200,0|8,0:0|0:0,0:0:0
256,244,47156,1,0,0:0:0
324,320,47267,6,0,B|372:300|384:244,1,100
188,320,47489,2,0,B|140:300|128:244,1,100,8|0,0:0|0:0,0:0:0
320,288,47712,6,0,B|363:259|365:202,1,100
192,288,47934,2,0,B|148:259|146:202,1,100,8|0,0:0|0:0,0:0:0
316,252,48156,6,0,B|354:216|346:160,1,100
196,252,48378,2,0,B|157:216|165:160,1,100,8|8,0:0|0:0,0:0:0
256,116,48600,6,0,B|256:316,1,200,0|8,0:0|0:0,0:0:0
352,352,48934,1,0,0:0:0
436,300,49045,2,0,B|476:208,1,100
384,168,49267,2,0,B|344:260,1,100,8|0,0:0|0:0,0:0:0
256,216,49489,6,0,B|335:32,1,200,0|8,0:0|0:0,0:0:0
436,28,49823,1,0,0:0:0
504,100,49934,2,0,B|464:192,1,100
364,196,50156,2,0,B|404:104,1,100,8|8,0:0|0:0,0:0:0
336,32,50378,5,0,0:0:0
176,352,50600,1,8,0:0:0
256,192,50823,1,0,0:0:0
348,156,50934,1,0,0:0:0
428,220,51045,1,8,0:0:0
396,316,51156,1,0,0:0:0
316,376,51267,6,0,B|216:376|216:376|140:312,1,200,8|0,0:0|0:0,0:0:0
232,344,51600,6,0,B|332:344|332:344|408:280,1,200,8|0,0:0|0:0,0:0:0
312,308,51934,5,8,0:0:0
228,252,52045,1,8,0:0:0
148,192,52156,6,0,B|216:120,1,100,12|0,0:0|0:0,0:0:0
364,192,52378,2,0,B|296:120,1,100,8|0,0:0|0:0,0:0:0
136,179,52600,6,0,B|216:120,1,100,8|0,0:0|0:0,0:0:0
375,179,52823,2,0,B|296:120,1,100,8|0,0:0|0:0,0:0:0
127,164,53045,6,0,B|216:120,1,100,8|0,0:0|0:0,0:0:0
384,164,53267,2,0,B|296:120,1,100,8|0,0:0|0:0,0:0:0
120,147,53489,6,0,B|216:120,1,100,8|0,0:0|0:0,0:0:0
391,147,53712,2,0,B|296:120,1,100,8|0,0:0|0:0,0:0:0
117,130,53934,6,0,B|216:120,1,100,8|0,0:0|0:0,0:0:0
394,130,54156,2,0,B|296:120,1,100,8|0,0:0|0:0,0:0:0
116,113,54378,6,0,B|216:120,1,100,8|0,0:0|0:0,0:0:0
395,113,54600,2,0,B|296:120,1,100,8|0,0:0|0:0,0:0:0
256,212,54823,5,8,0:0:0
300,300,54934,1,0,0:0:0
300,300,54989,1,0,0:0:0
300,300,55045,2,0,B|352:304|396:280,1,100,0|8,0:0|0:0,0:0:0
352,192,55267,5,0,0:0:0
352,192,55323,1,0,0:0:0
352,192,55378,2,0,B|312:160|312:104,1,100,0|8,0:0|0:0,0:0:0
384,32,55600,1,8,0:0:0
480,56,55712,6,0,B|512:152,1,100,12|0,0:0|0:0,0:0:0
480,328,55934,2,0,B|512:232,1,100,8|0,0:0|0:0,0:0:0
444,56,56156,6,0,B|476:152,1,100,8|0,0:0|0:0,0:0:0
444,328,56378,2,0,B|476:232,1,100,8|0,0:0|0:0,0:0:0
412,56,56600,6,0,B|444:152,1,100,8|0,0:0|0:0,0:0:0
412,328,56823,2,0,B|444:232,1,100,8|0,0:0|0:0,0:0:0
380,56,57045,6,0,B|412:152,1,100,8|0,0:0|0:0,0:0:0
380,328,57267,2,0,B|412:232,1,100,8|0,0:0|0:0,0:0:0
344,56,57489,6,0,B|376:152,1,100,8|0,0:0|0:0,0:0:0
344,328,57712,2,0,B|376:232,1,100,8|0,0:0|0:0,0:0:0
312,56,57934,6,0,B|344:152,1,100,8|0,0:0|0:0,0:0:0
312,328,58156,2,0,B|344:232,1,100,8|0,0:0|0:0,0:0:0
256,192,58378,5,8,0:0:0
156,172,58489,1,0,0:0:0
120,176,58545,1,0,0:0:0
88,188,58600,1,0,0:0:0
68,216,58656,1,0,0:0:0
60,252,58712,2,0,B|72:300|120:328,1,100,0|8,0:0|0:0,0:0:0
204,276,58934,5,8,0:0:0
204,276,58989,1,0,0:0:0
204,276,59045,2,0,B|256:192,1,100,8|0,0:0|0:0,0:0:0
300,104,59267,6,0,B|355:110|394:151|403:209|378:254,1,200,4|8,0:0|0:0,0:0:0
312,328,59600,1,0,0:0:0
212,324,59712,2,0,B|124:276,2,100,0|0|8,0:0|0:0|0:0,0:0:0
256,236,60045,2,0,B|81:141,1,200,4|0,0:0|0:0,0:0:0
88,40,60378,5,8,0:0:0
184,20,60489,1,0,0:0:0
184,20,60545,1,0,0:0:0
184,20,60600,2,0,B|256:88,1,100
256,236,60823,2,0,B|110:98,2,200,8|4|8,0:0|0:0|0:0,0:0:0
356,220,61378,1,0,0:0:0
408,136,61489,2,0,B|428:88|408:40,2,100,0|0|8,0:0|0:0|0:0,0:0:0
320,92,61823,6,0,B|264:112|240:164|256:220|304:248,1,200,4|0,0:0|0:0,0:0:0
400,280,62156,1,8,0:0:0
488,232,62267,1,0,0:0:0
488,232,62323,1,0,0:0:0
488,232,62378,2,0,B|488:132,1,100
408,36,62600,2,0,B|408:136,1,100,8|8,0:0|0:0,0:0:0
356,220,62823,5,6,0:0:0
256,228,62934,1,0,0:0:0
176,168,63045,1,8,0:0:0
180,68,63156,5,2,0:0:0
332,316,63378,1,2,0:0:0
114,158,63600,1,2,0:0:0
397,225,63823,5,2,0:0:0
396,128,63934,1,8,0:0:0
312,72,64045,1,0,0:0:0
312,72,64100,1,0,0:0:0
312,72,64156,2,0,B|256:156,1,100,2|0,0:0|0:0,0:0:0
200,312,64378,2,0,B|256:228,1,100,8|8,0:0|0:0,0:0:0
348,192,64600,5,4,0:0:0
404,276,64712,1,0,0:0:0
356,364,64823,1,8,0:0:0
256,372,64934,5,2,0:0:0
256,12,65156,1,2,0:0:0
128,319,65378,1,2,0:0:0
383,64,65600,5,2,0:0:0
400,164,65712,1,8,0:0:0
336,240,65823,1,0,0:0:0
336,240,65878,1,0,0:0:0
336,240,65934,2,0,B|240:264,1,100,2|0,0:0|0:0,0:0:0
192,176,66156,2,0,B|288:152,1,100,8|8,0:0|0:0,0:0:0
368,260,66378,6,0,B|173:308,1,200,4|8,0:0|0:0,0:0:0
84,260,66712,1,0,0:0:0
80,160,66823,2,0,B|96:112|144:88,2,100,0|0|8,0:0|0:0|0:0,0:0:0
84,260,67156,2,0,B|132:288|184:292|236:256|256:212,1,200,4|0,0:0|0:0,0:0:0
240,116,67489,1,8,0:0:0
144,88,67600,5,0,0:0:0
144,88,67656,1,0,0:0:0
144,88,67712,2,0,B|144:188|144:188|196:272,2,200,0|8|4,0:0|0:0|0:0,0:0:0
236,56,68267,1,0,0:0:0
324,100,68378,2,0,B|324:200,1,100,8|0,0:0|0:0,0:0:0
420,232,68600,2,0,B|420:132,2,100,0|0|8,0:0|0:0|0:0,0:0:0
384,324,68934,6,0,B|284:324|284:324|196:272,1,200,4|0,0:0|0:0,0:0:0
140,192,69267,1,8,0:0:0
176,100,69378,1,0,0:0:0
176,100,69434,1,0,0:0:0
176,100,69489,2,0,B|268:64,1,100
328,144,69712,2,0,B|236:180,1,100,8|8,0:0|0:0,0:0:0
256,280,69934,5,6,0:0:0
352,312,70045,1,0,0:0:0
440,268,70156,1,8,0:0:0
452,168,70267,5,2,0:0:0
60,216,70489,1,2,0:0:0
377,36,70712,1,2,0:0:0
134,347,70934,5,2,0:0:0
84,260,71045,1,8,0:0:0
124,168,71156,1,0,0:0:0
124,168,71212,1,0,0:0:0
124,168,71267,2,0,B|204:108,1,100,2|0,0:0|0:0,0:0:0
388,168,71489,2,0,B|308:108,1,100,8|8,0:0|0:0,0:0:0
256,192,71712,5,4,0:0:0
284,288,71823,1,0,0:0:0
380,312,71934,1,8,0:0:0
464,260,72045,5,2,0:0:0
48,124,72267,1,2,0:0:0
451,93,72489,1,2,0:0:0
60,290,72711,5,2,0:0:0
136,360,72823,1,8,0:0:0
236,344,72934,1,0,0:0:0
236,344,72989,1,0,0:0:0
236,344,73045,2,0,B|256:248,1,100,2|0,0:0|0:0,0:0:0
356,228,73267,2,0,B|336:324,1,100,8|8,0:0|0:0,0:0:0
424,372,73489,5,6,0:0:0
504,316,73600,1,0,0:0:0
500,216,73712,1,8,0:0:0
428,148,73823,5,2,0:0:0
84,236,74045,1,2,0:0:0
346,39,74267,1,2,0:0:0
165,344,74489,5,2,0:0:0
264,356,74600,1,8,0:0:0
348,300,74712,1,0,0:0:0
348,300,74767,1,0,0:0:0
348,300,74823,2,0,B|376:256|364:204,1,100,2|0,0:0|0:0,0:0:0
280,148,75045,2,0,B|252:192|264:244,1,100,8|8,0:0|0:0,0:0:0
348,300,75267,5,6,0:0:0
440,264,75378,1,0,0:0:0
452,164,75489,1,8,0:0:0
384,92,75600,5,2,0:0:0
128,292,75823,1,2,0:0:0
275,30,76045,1,2,0:0:0
236,353,76267,5,2,0:0:0
328,320,76378,1,8,0:0:0
376,232,76489,1,0,0:0:0
376,232,76545,1,0,0:0:0
376,232,76600,2,0,B|332:144,1,100,10|8,0:0|0:0,0:0:0
136,232,76823,2,0,B|180:144,1,100,8|8,0:0|0:0,0:0:0
256,204,77045,5,4,0:0:0
204,288,77156,1,0,0:0:0
104,304,77267,1,8,0:0:0
28,240,77378,1,0,0:0:0
24,140,77489,2,0,B|88:64,2,100,0|0|8,0:0|0:0|0:0,0:0:0
104,200,77823,6,0,B|196:164|196:164|256:84,1,200,4|0,0:0|0:0,0:0:0
348,40,78156,1,8,0:0:0
444,68,78267,1,0,0:0:0
444,68,78323,1,0,0:0:0
444,68,78378,2,0,B|496:152,1,100,0|8,0:0|0:0,0:0:0
376,244,78600,2,0,B|324:160,1,100,8|8,0:0|0:0,0:0:0
256,84,78823,5,4,0:0:0
256,192,85934,6,0,B|236:140|192:112|132:112|92:144,1,200,4|8,0:0|0:0,0:0:0
64,240,86267,1,0,0:0:0
100,332,86378,2,0,B|140:364|196:352,1,100
256,272,86600,2,0,B|216:240|160:252,1,100,8|0,0:0|0:0,0:0:0
194,352,86823,6,0,B|236:376|296:376|344:344|348:284,1,200,0|8,0:0|0:0,0:0:0
348,184,87156,1,0,0:0:0
256,144,87267,2,0,B|156:144,1,100
56,144,87489,1,8,0:0:0
16,52,87600,5,8,0:0:0
16,52,87656,1,0,0:0:0
16,52,87712,2,0,B|76:24|112:48|156:72|212:32,2,200,0|8|0,0:0|0:0|0:0,0:0:0
56,144,88267,1,0,0:0:0
144,192,88378,1,8,0:0:0
236,156,88489,1,0,0:0:0
336,172,88600,6,0,B|384:260,1,100
460,192,88823,2,0,B|412:104,1,100,8|0,0:0|0:0,0:0:0
100,104,89045,2,0,B|52:192,1,100
128,260,89268,2,0,B|176:172,1,100,8|8,0:0|0:0,0:0:0
256,232,89489,6,0,B|232:328|232:328|148:384,2,200,0|8|0,0:0|0:0|0:0,0:0:0
336,172,90045,1,0,0:0:0
416,112,90156,2,0,B|476:192|476:192|476:292,2,200,8|0|8,0:0|0:0|0:0,0:0:0
324,72,90712,1,0,0:0:0
224,88,90823,2,0,B|152:156,1,100
60,116,91045,2,0,B|132:48,1,100,8|8,0:0|0:0,0:0:0
248,92,91267,6,0,B|103:228,1,200,0|8,0:0|0:0,0:0:0
128,324,91600,1,0,0:0:0
224,356,91712,2,0,B|308:300,1,100
256,212,91934,2,0,B|172:156,1,100,8|0,0:0|0:0,0:0:0
248,92,92156,6,0,B|336:136|336:136|376:228,1,200
364,328,92489,1,8,0:0:0
264,312,92600,2,0,B|256:212,1,100
156,192,92823,2,0,B|164:292,1,100,8|8,0:0|0:0,0:0:0
64,272,93045,6,0,B|56:172|56:172|120:96,1,200,4|8,0:0|0:0,0:0:0
208,148,93378,1,0,0:0:0
304,128,93489,2,0,B|364:48,1,100
464,68,93712,6,0,B|344:227,2,200,8|0|8,0:0|0:0|0:0,0:0:0
372,28,94267,1,0,0:0:0
280,64,94378,2,0,B|280:164,1,100
200,224,94600,6,0,B|200:24,2,200,8|0|8,0:0|0:0|0:0,0:0:0
272,292,95156,1,0,0:0:0
372,276,95267,1,0,0:0:0
424,192,95378,1,0,0:0:0
396,96,95489,6,0,B|344:80|292:92|256:136|256:192,2,200,8|0|8,0:0|0:0|0:0,0:0:0
424,192,96045,1,0,0:0:0
372,276,96156,1,0,0:0:0
272,292,96267,1,0,0:0:0
200,224,96378,2,0,B|200:124,1,100,8|0,0:0|0:0,0:0:0
104,148,96600,6,0,B|104:248|104:248|164:328,2,200,0|8|0,0:0|0:0|0:0,0:0:0
168,72,97156,1,0,0:0:0
256,24,97267,6,0,B|316:24|316:24|388:60|388:60|448:60,2,200,8|0|8,0:0|0:0|0:0,0:0:0
168,72,97823,1,0,0:0:0
104,148,97934,6,0,B|104:248,1,100
256,244,98156,2,0,B|256:144,1,100
408,148,98378,6,0,B|408:248|408:248|348:328,2,200,0|8|0,0:0|0:0|0:0,0:0:0
352,64,98934,1,0,0:0:0
256,32,99045,1,8,0:0:0
160,64,99156,1,0,0:0:0
104,148,99267,6,0,B|152:236,2,100,8|0|0,0:0|0:0|0:0,0:0:0
408,148,99600,2,0,B|360:236,2,100,8|0|0,0:0|0:0|0:0,0:0:0
352,64,99934,1,8,0:0:0
256,32,100045,1,8,0:0:0
160,64,100156,6,0,B|156:120|200:156,1,104.999996795654,12|0,0:0|0:0,0:0:0
352,63,100378,2,0,B|356:122|310:160,1,110.000003356934,8|0,0:0|0:0,0:0:0
156,60,100600,6,0,B|151:121|200:161,1,115.000002193451,8|0,0:0|0:0,0:0:0
356,60,100823,2,0,B|360:124|309:166,1,119.999996337891,8|0,0:0|0:0,0:0:0
152,56,101045,6,0,B|147:123|200:167,1,125,8|0,0:0|0:0,0:0:0
360,56,101267,2,0,B|365:127|309:172,1,129.999994049073,8|0,0:0|0:0,0:0:0
148,52,101489,6,0,B|142:124|199:171,1,135.000000514984,8|0,0:0|0:0,0:0:0
364,52,101712,2,0,B|369:127|310:175,1,139.999995727539,8|0,0:0|0:0,0:0:0
144,48,101934,6,0,B|138:125|199:174,1,145.000004425049,8|0,0:0|0:0,0:0:0
368,48,102156,2,0,B|373:127|310:179,1,150.000005722046,8|0,0:0|0:0,0:0:0
140,44,102378,6,0,B|133:128|200:182,1,155.000001182556,8|0,0:0|0:0,0:0:0
372,44,102600,2,0,B|378:129|311:184,1,160,8|0,0:0|0:0,0:0:0
236,116,102823,5,8,0:0:0
256,16,102934,1,0,0:0:0
256,16,102989,1,0,0:0:0
256,16,103045,2,0,B|356:16,1,100,0|8,0:0|0:0,0:0:0
404,104,103267,1,0,0:0:0
404,104,103322,1,0,0:0:0
404,104,103378,2,0,B|304:104,1,100,0|8,0:0|0:0,0:0:0
236,176,103600,1,0,0:0:0
180,260,103712,6,0,B|204:304|256:320,1,100,12|0,0:0|0:0,0:0:0
332,260,103934,2,0,B|309:301|259:316,1,94.9999974632264,8|0,0:0|0:0,0:0:0
176,256,104156,6,0,B|197:294|245:309,1,89.9999972534181,8|0,0:0|0:0,0:0:0
336,256,104378,2,0,B|315:292|270:306,1,85.0000016212464,8|0,0:0|0:0,0:0:0
172,252,104600,6,0,B|191:287|234:299,1,80,8|0,0:0|0:0,0:0:0
340,252,104823,2,0,B|322:285|281:297,1,75.0000028610231,8|0,0:0|0:0,0:0:0
168,248,105045,6,0,B|185:278|223:290,1,69.9999978637696,8|0,0:0|0:0,0:0:0
344,248,105267,2,0,B|329:276|294:286,1,64.9999970245363,8|0,0:0|0:0,0:0:0
164,244,105489,6,0,B|178:270|210:279,1,59.9999981689454,8|0,0:0|0:0,0:0:0
348,244,105712,2,0,B|335:268|305:277,1,55.0000016784668,8|0,0:0|0:0,0:0:0
160,240,105934,6,0,B|172:262|199:270,1,50,8|0,0:0|0:0,0:0:0
352,240,106156,2,0,B|342:259|318:266,1,44.999998626709,8|0,0:0|0:0,0:0:0
256,188,106378,5,8,0:0:0
292,96,106489,1,0,0:0:0
324,80,106545,1,0,0:0:0
360,76,106600,1,0,0:0:0
392,88,106656,1,0,0:0:0
420,108,106712,1,0,0:0:0
356,188,106823,6,0,B|256:188,1,100,8|8,0:0|0:0,0:0:0
156,188,107045,2,0,B|256:188,1,100,8|8,0:0|0:0,0:0:0
220,280,107267,6,0,B|120:280|120:280|36:224,1,200,4|8,0:0|0:0,0:0:0
20,124,107600,1,0,0:0:0
80,44,107712,2,0,B|180:44,2,100,0|0|8,0:0|0:0|0:0,0:0:0
20,124,108045,2,0,B|104:180|104:180|204:180,1,200,4|0,0:0|0:0,0:0:0
256,96,108378,5,8,0:0:0
352,76,108489,1,0,0:0:0
352,76,108545,1,0,0:0:0
352,76,108600,2,0,B|352:140|352:140|312:200|312:200|312:264,1,200,0|8,0:0|0:0,0:0:0
400,316,108934,1,0,0:0:0
496,284,109045,6,0,B|524:240|528:184|484:136|432:128,1,200,4|8,0:0|0:0,0:0:0
356,188,109378,1,0,0:0:0
256,192,109489,2,0,B|204:168|200:116,2,100,0|0|8,0:0|0:0|0:0,0:0:0
356,188,109823,6,0,B|375:236|357:299|307:324|255:323,1,200,4|0,0:0|0:0,0:0:0
164,288,110156,1,8,0:0:0
156,188,110267,1,0,0:0:0
156,188,110323,1,0,0:0:0
156,188,110378,2,0,B|208:104,1,100
356,188,110600,2,0,B|304:104,1,100,8|8,0:0|0:0,0:0:0
256,192,110823,5,4,0:0:0
308,276,110934,1,0,0:0:0
408,272,111045,1,8,0:0:0
456,184,111156,5,2,0:0:0
56,184,111378,1,2,0:0:0
436,152,111600,1,2,0:0:0
76,152,111823,5,2,0:0:0
116,244,111934,1,8,0:0:0
208,280,112045,1,0,0:0:0
208,280,112100,1,0,0:0:0
208,280,112156,2,0,B|256:192,1,100,2|0,0:0|0:0,0:0:0
356,188,112378,2,0,B|308:276,1,100,8|8,0:0|0:0,0:0:0
384,344,112600,5,4,0:0:0
484,320,112712,1,0,0:0:0
504,224,112823,1,8,0:0:0
436,152,112934,5,2,0:0:0
76,232,113156,1,2,0:0:0
436,232,113378,1,2,0:0:0
76,152,113600,5,2,0:0:0
20,236,113712,1,8,0:0:0
60,328,113823,1,0,0:0:0
60,328,113878,1,0,0:0:0
60,328,113934,2,0,B|112:340|156:312,1,100,2|0,0:0|0:0,0:0:0
332,328,114156,2,0,B|280:340|236:312,1,100,8|8,0:0|0:0,0:0:0
196,220,114378,6,0,B|219:167|268:146|321:149|361:190,1,200,4|8,0:0|0:0,0:0:0
440,252,114712,1,0,0:0:0
508,180,114823,1,0,0:0:0
476,84,114934,1,0,0:0:0
376,68,115045,1,8,0:0:0
292,124,115156,6,0,B|292:324,1,200,4|0,0:0|0:0,0:0:0
200,360,115489,1,8,0:0:0
108,324,115600,1,0,0:0:0
108,324,115656,1,0,0:0:0
108,324,115712,2,0,B|72:232,1,100
196,220,115934,2,0,B|232:128,1,100,8|0,0:0|0:0,0:0:0
120,44,116156,6,0,B|72:132|72:132|72:232,1,200,4|8,0:0|0:0,0:0:0
144,300,116489,1,0,0:0:0
244,304,116600,1,0,0:0:0
304,224,116712,1,0,0:0:0
260,132,116823,1,8,0:0:0
160,128,116934,6,0,B|120:172|120:228|152:272|208:284,1,200,4|0,0:0|0:0,0:0:0
308,276,117267,1,8,0:0:0
360,192,117378,1,0,0:0:0
360,192,117434,1,0,0:0:0
360,192,117489,2,0,B|360:92,1,100
460,72,117712,2,0,B|460:172,1,100,8|8,0:0|0:0,0:0:0
464,272,117934,5,4,0:0:0
392,340,118045,1,0,0:0:0
292,352,118156,1,8,0:0:0
200,316,118267,5,2,0:0:0
312,68,118489,1,2,0:0:0
200,316,118712,1,2,0:0:0
312,68,118934,5,2,0:0:0
404,112,119045,1,8,0:0:0
408,212,119156,1,0,0:0:0
408,212,119212,1,0,0:0:0
408,212,119267,2,0,B|336:280,1,100,2|0,0:0|0:0,0:0:0
104,212,119489,2,0,B|176:280,1,100,8|8,0:0|0:0,0:0:0
256,220,119712,5,4,0:0:0
256,120,119823,1,0,0:0:0
172,68,119934,1,8,0:0:0
76,100,120045,5,2,0:0:0
436,284,120267,1,2,0:0:0
76,100,120489,1,2,0:0:0
436,284,120711,5,2,0:0:0
472,192,120823,1,8,0:0:0
436,100,120934,1,0,0:0:0
436,100,120989,1,0,0:0:0
436,100,121045,2,0,B|340:68,1,100,2|0,0:0|0:0,0:0:0
76,100,121267,2,0,B|172:68,1,100,8|8,0:0|0:0,0:0:0
256,120,121489,5,4,0:0:0
256,220,121600,1,0,0:0:0
176,284,121712,1,8,0:0:0
76,284,121823,5,2,0:0:0
436,100,122045,1,2,0:0:0
76,100,122267,1,2,0:0:0
436,284,122489,5,2,0:0:0
376,364,122600,1,8,0:0:0
276,356,122712,1,0,0:0:0
276,356,122767,1,0,0:0:0
276,356,122823,2,0,B|228:268,1,100,2|0,0:0|0:0,0:0:0
128,264,123045,2,0,B|176:352,1,100,8|8,0:0|0:0,0:0:0
76,348,123267,5,4,0:0:0
8,276,123378,1,0,0:0:0
12,176,123489,1,8,0:0:0
76,100,123600,5,2,0:0:0
436,284,123823,1,2,0:0:0
76,284,124045,1,2,0:0:0
436,100,124268,5,2,0:0:0
472,192,124378,1,8,0:0:0
436,284,124489,1,0,0:0:0
436,284,124545,1,0,0:0:0
436,284,124600,2,0,B|352:336,1,100,10|8,0:0|0:0,0:0:0
76,284,124823,2,0,B|160:336,1,100,8|8,0:0|0:0,0:0:0
256,300,125045,5,4,0:0:0
256,192,131267,5,4,0:0:0
164,152,131378,1,8,0:0:0
164,152,131434,1,8,0:0:0
164,152,131489,2,0,B|116:180|120:236,1,100,8|8,0:0|0:0,0:0:0
348,232,131712,2,0,B|396:204|392:148,1,100,8|8,0:0|0:0,0:0:0
160,148,131934,2,0,B|112:176|116:232,1,100,8|8,0:0|0:0,0:0:0
352,236,132156,6,0,B|396:199|419:152|393:94|350:67,1,200,4|8,0:0|0:0,0:0:0
256,40,132489,1,0,0:0:0
164,84,132600,2,0,B|104:164,1,100
196,224,132823,2,0,B|256:144,1,100,8|0,0:0|0:0,0:0:0
344,212,133045,2,0,B|284:292|284:292|188:328,1,200,0|8,0:0|0:0,0:0:0
104,276,133378,5,0,0:0:0
104,276,133434,1,0,0:0:0
104,276,133489,2,0,B|104:76,2,200,0|8|4,0:0|0:0|0:0,0:0:0
192,328,134045,1,0,0:0:0
284,292,134156,2,0,B|344:212,1,100,8|0,0:0|0:0,0:0:0
436,248,134378,2,0,B|376:328,1,100
208,232,134600,2,0,B|268:152,1,100,8|0,0:0|0:0,0:0:0
368,172,134823,5,0,0:0:0
436,248,134934,1,0,0:0:0
436,248,134989,1,0,0:0:0
436,248,135045,2,0,B|396:288|348:288,1,100,8|0,0:0|0:0,0:0:0
292,204,135267,2,0,B|276:152|296:104|352:76|408:100,2,200,8|8|4,0:0|0:0|0:0,0:0:0
348,288,135823,5,0,0:0:0
280,364,135934,1,8,0:0:0
188,324,136045,1,0,0:0:0
196,224,136156,2,0,B|264:152,1,100
208,68,136378,2,0,B|140:140,1,100,8|0,0:0|0:0,0:0:0
192,228,136600,5,0,0:0:0
292,236,136712,1,0,0:0:0
292,236,136767,1,0,0:0:0
292,236,136823,2,0,B|344:236|376:192,1,100,8|0,0:0|0:0,0:0:0
292,140,137045,6,0,B|192:140|192:140|112:80,2,200,8|8|4,0:0|0:0|0:0,0:0:0
376,191,137600,1,0,0:0:0
384,292,137712,2,0,B|332:376,1,100,8|0,0:0|0:0,0:0:0
128,292,137934,2,0,B|180:376,1,100
376,284,138156,2,0,B|324:368,1,100,8|0,0:0|0:0,0:0:0
136,284,138378,2,0,B|188:368,1,100
256,296,138600,5,8,0:0:0
256,196,138712,1,0,0:0:0
256,196,138767,1,0,0:0:0
256,196,138823,2,0,B|228:148|180:132,1,100,8|8,0:0|0:0,0:0:0
116,208,139045,2,0,B|144:256|192:272,1,100,8|8,0:0|0:0,0:0:0
268,196,139267,6,0,B|252:148|212:108|152:104|104:124,2,200,4|8|0,0:0|0:0|0:0,0:0:0
256,296,139823,1,8,0:0:0
256,296,139878,1,8,0:0:0
256,296,139934,2,0,B|280:344|336:344,1,100,0|8,0:0|0:0,0:0:0
400,264,140156,6,0,B|400:164,1,100,0|8,0:0|0:0,0:0:0
400,164,140323,1,8,0:0:0
400,164,140378,1,8,0:0:0
328,96,140489,5,8,0:0:0
220,84,140600,5,8,0:0:0
120,152,140712,5,8,0:0:0
100,280,140823,5,8,0:0:0
208,368,140934,5,8,0:0:0
356,348,141045,6,0,B|440:296|440:296|476:200,1,200,4|8,0:0|0:0,0:0:0
428,112,141378,1,0,0:0:0
328,96,141489,2,0,B|256:164|256:164|256:264,1,200,0|8,0:0|0:0,0:0:0
344,212,141823,2,0,B|257:164|257:164|161:195,1,200,4|0,0:0|0:0,0:0:0
100,280,142156,5,8,0:0:0
168,356,142267,1,0,0:0:0
168,356,142323,1,0,0:0:0
168,356,142378,2,0,B|244:292|244:292|256:192,2,200,0|8|4,0:0|0:0|0:0,0:0:0
100,280,142934,1,0,0:0:0
100,180,143045,2,0,B|108:124|156:96|208:88|256:124,1,200,8|0,0:0|0:0,0:0:0
256,224,143378,5,0,0:0:0
256,224,143434,1,0,0:0:0
256,224,143489,2,0,B|260:276|312:300,1,100,8|4,0:0|0:0,0:0:0
412,276,143712,2,0,B|412:76,1,200,0|8,0:0|0:0,0:0:0
324,32,144045,5,0,0:0:0
324,32,144100,1,0,0:0:0
324,32,144156,2,0,B|272:68|272:68|196:68|196:68|148:104,1,200,0|8,0:0|0:0,0:0:0
100,192,144489,1,8,0:0:0
100,292,144600,6,0,B|129:335|185:343,2,100,4|0|8,0:0|0:0|0:0,0:0:0
164,216,144934,2,0,B|216:172|256:184|296:196|352:152,1,200,2|2,0:0|0:0,0:0:0
192,32,145378,1,2,0:0:0
320,352,145600,5,2,0:0:0
220,344,145712,1,8,0:0:0
152,272,145823,1,0,0:0:0
152,272,145878,1,0,0:0:0
152,272,145934,2,0,B|132:176,1,100,2|0,0:0|0:0,0:0:0
224,136,146156,2,0,B|244:232,1,100,8|8,0:0|0:0,0:0:0
340,264,146378,5,4,0:0:0
396,180,146489,1,0,0:0:0
368,84,146600,1,8,0:0:0
276,40,146712,2,0,B|224:56|200:104|176:148|120:160,1,200,2|2,0:0|0:0,0:0:0
40,344,147156,1,2,0:0:0
472,40,147378,5,2,0:0:0
372,28,147489,1,8,0:0:0
304,100,147600,1,0,0:0:0
304,100,147656,1,0,0:0:0
304,100,147712,2,0,B|304:200,1,100,2|0,0:0|0:0,0:0:0
208,220,147934,2,0,B|208:120,1,100,8|8,0:0|0:0,0:0:0
112,144,148156,6,0,B|112:244|112:244|176:320,1,200,4|8,0:0|0:0,0:0:0
256,256,148489,1,0,0:0:0
400,144,148600,2,0,B|400:244|400:244|336:320,1,200,0|8,0:0|0:0,0:0:0
256,256,148934,2,0,B|256:156|256:156|320:80,1,200,4|0,0:0|0:0,0:0:0
400,144,149267,5,8,0:0:0
352,232,149378,1,0,0:0:0
352,232,149434,1,0,0:0:0
352,232,149489,2,0,B|256:260|256:260|160:232,2,200,0|8|4,0:0|0:0|0:0,0:0:0
400,144,150045,1,0,0:0:0
352,56,150156,2,0,B|256:28|256:28|160:56,2,200,8|0|8,0:0|0:0|0:0,0:0:0
400,144,150712,6,0,B|200:144,1,200,4|0,0:0|0:0,0:0:0
124,208,151045,1,8,0:0:0
116,308,151156,1,0,0:0:0
116,308,151212,1,0,0:0:0
116,308,151267,2,0,B|152:344|204:348,1,100
396,308,151489,2,0,B|360:344|308:348,1,100,8|8,0:0|0:0,0:0:0
256,260,151712,5,4,0:0:0
304,172,151823,1,0,0:0:0
400,144,151934,1,8,0:0:0
488,192,152045,5,2,0:0:0
256,360,152267,1,2,0:0:0
24,192,152489,1,2,0:0:0
256,360,152712,5,2,0:0:0
352,340,152823,1,8,0:0:0
392,248,152934,1,0,0:0:0
392,248,152989,1,0,0:0:0
392,248,153045,2,0,B|344:160,1,100,2|0,0:0|0:0,0:0:0
120,248,153267,2,0,B|168:160,1,100,8|8,0:0|0:0,0:0:0
256,208,153489,5,4,0:0:0
256,308,153600,1,0,0:0:0
168,360,153712,1,8,0:0:0
68,344,153823,5,2,0:0:0
256,44,154045,1,2,0:0:0
444,344,154267,1,2,0:0:0
256,44,154489,5,2,0:0:0
160,72,154600,1,8,0:0:0
104,156,154712,1,0,0:0:0
104,156,154767,1,0,0:0:0
104,156,154823,2,0,B|104:256,1,100,2|0,0:0|0:0,0:0:0
408,256,155045,2,0,B|408:156,1,100,8|8,0:0|0:0,0:0:0
256,44,155267,6,0,B|256:244,2,200,0|4|0,0:0|0:0|0:0,0:0:0
352,72,155823,1,0,0:0:0
408,156,155934,1,8,0:0:0
408,256,156045,2,0,B|337:248|330:199|322:149|254:142,1,200,4|0,0:0|0:0,0:0:0
256,244,156378,5,8,0:0:0
256,344,156489,1,0,0:0:0
256,344,156545,1,0,0:0:0
256,344,156600,2,0,B|185:336|178:287|170:237|102:230,1,200,0|8,0:0|0:0,0:0:0
8,192,156934,1,0,0:0:0
102,153,157045,6,0,B|170:146|178:96|185:47|256:40,2,200,4|8|0,0:0|0:0|0:0,0:0:0
8,192,157600,1,0,0:0:0
8,192,157656,1,0,0:0:0
8,192,157712,1,8,0:0:0
102,230,157823,2,0,B|170:237|178:287|185:336|256:344,1,200,4|0,0:0|0:0,0:0:0
348,308,158156,5,8,0:0:0
410,229,158267,1,0,0:0:0
410,229,158323,1,0,0:0:0
410,229,158378,2,0,B|356:144,1,100
102,229,158600,2,0,B|156:144,1,100,8|8,0:0|0:0,0:0:0
256,192,158823,5,4,0:0:0
256,292,158934,1,0,0:0:0
176,352,159045,1,8,0:0:0
76,344,159156,5,2,0:0:0
104,12,159378,1,2,0:0:0
436,40,159600,1,2,0:0:0
408,372,159822,5,2,0:0:0
308,376,159934,1,8,0:0:0
256,292,160045,1,0,0:0:0
256,292,160100,1,0,0:0:0
256,292,160156,2,0,B|256:192,1,100,2|0,0:0|0:0,0:0:0
344,144,160378,2,0,B|344:244,1,100,8|8,0:0|0:0,0:0:0
256,292,160600,5,4,0:0:0
160,268,160712,1,0,0:0:0
88,196,160823,1,8,0:0:0
96,96,160934,5,2,0:0:0
352,32,161156,1,2,0:0:0
416,288,161378,1,2,0:0:0
160,352,161600,5,2,0:0:0
76,296,161712,1,8,0:0:0
88,196,161823,1,0,0:0:0
88,196,161878,1,0,0:0:0
88,196,161934,2,0,B|172:140,1,100,2|0,0:0|0:0,0:0:0
424,196,162156,2,0,B|340:140,1,100,8|8,0:0|0:0,0:0:0
256,192,162378,5,4,0:0:0
256,292,162489,1,0,0:0:0
336,352,162600,1,8,0:0:0
436,344,162712,5,2,0:0:0
408,12,162934,1,2,0:0:0
76,40,163156,1,2,0:0:0
104,372,163378,5,2,0:0:0
204,376,163489,1,8,0:0:0
256,292,163600,1,0,0:0:0
256,292,163656,1,0,0:0:0
256,292,163712,2,0,B|256:192,1,100,2|0,0:0|0:0,0:0:0
168,144,163934,2,0,B|168:244,1,100,8|8,0:0|0:0,0:0:0
256,292,164156,5,4,0:0:0
352,268,164267,1,0,0:0:0
424,196,164378,1,8,0:0:0
416,96,164489,5,2,0:0:0
160,32,164712,1,2,0:0:0
96,288,164934,1,2,0:0:0
352,352,165156,5,2,0:0:0
436,296,165267,1,8,0:0:0
424,196,165378,1,0,0:0:0
424,196,165434,1,0,0:0:0
424,196,165489,2,0,B|340:140,1,100,10|8,0:0|0:0,0:0:0
88,196,165712,2,0,B|172:140,1,100,8|8,0:0|0:0,0:0:0
256,192,165934,5,4,0:0:0
240,292,166045,1,0,0:0:0
148,328,166156,1,8,0:0:0
52,308,166267,5,2,0:0:0
256,32,166489,1,2,0:0:0
460,308,166712,1,2,0:0:0
256,32,166934,5,2,0:0:0
172,84,167045,1,8,0:0:0
152,180,167156,1,0,0:0:0
152,180,167212,1,0,0:0:0
152,180,167267,2,0,B|180:276,1,100,2|0,0:0|0:0,0:0:0
360,204,167489,2,0,B|332:108,1,100,8|8,0:0|0:0,0:0:0
232,88,167712,5,4,0:0:0
140,124,167823,1,0,0:0:0
100,216,167934,1,8,0:0:0
144,304,168045,5,2,0:0:0
368,80,168267,1,2,0:0:0
256,350,168489,1,2,0:0:0
256,33,168711,5,2,0:0:0
160,68,168823,1,8,0:0:0
140,164,168934,1,0,0:0:0
140,164,168989,1,0,0:0:0
140,164,169045,2,0,B|180:256,1,100,2|0,0:0|0:0,0:0:0
372,164,169267,2,0,B|332:256,1,100,8|8,0:0|0:0,0:0:0
256,192,169489,5,4,0:0:0
256,92,169600,1,0,0:0:0
340,36,169712,1,8,0:0:0
440,40,169823,5,2,0:0:0
72,344,170045,1,2,0:0:0
440,40,170267,1,2,0:0:0
72,344,170489,5,2,0:0:0
44,248,170600,1,8,0:0:0
108,172,170712,1,0,0:0:0
108,172,170767,1,0,0:0:0
108,172,170823,2,0,B|192:120,1,100,2|0,0:0|0:0,0:0:0
404,172,171045,2,0,B|320:120,1,100,8|8,0:0|0:0,0:0:0
256,196,171267,5,4,0:0:0
268,296,171378,1,0,0:0:0
356,340,171489,1,8,0:0:0
452,308,171600,5,2,0:0:0
60,76,171823,1,2,0:0:0
452,76,172045,1,2,0:0:0
60,308,172267,5,10,0:0:0
143,360,172379,1,8,0:0:0
237,327,172490,1,8,0:0:0
270,233,172601,1,10,0:0:0
218,149,172712,1,8,0:0:0
118,137,172823,1,8,0:0:0
47,207,172934,1,8,0:0:0
60,308,173045,6,0,B|146:362,1,100,4|0,0:0|0:0,0:0:0
196,276,173267,2,0,B|110:222,1,100,8|8,0:0|0:0,0:0:0
164,140,173489,2,0,B|250:194,2,100,0|0|8,0:0|0:0|0:0,0:0:0
48,208,173823,2,0,B|217:314,1,200,4|0,0:0|0:0,0:0:0
316,312,174156,5,8,0:0:0
364,224,174267,1,0,0:0:0
364,224,174323,1,0,0:0:0
364,224,174378,2,0,B|328:132,1,100,0|8,0:0|0:0,0:0:0
148,160,174600,2,0,B|184:252,1,100,8|8,0:0|0:0,0:0:0
256,324,174823,6,0,B|280:228|280:228|244:132,1,200,4|8,0:0|0:0,0:0:0
164,76,175156,1,0,0:0:0
68,108,175267,1,0,0:0:0
48,208,175378,1,0,0:0:0
80,304,175489,2,0,B|148:304|148:304|204:268|204:268|268:268,1,200,8|0,0:0|0:0,0:0:0
360,224,175823,5,0,0:0:0
364,124,175934,1,8,0:0:0
280,72,176045,1,0,0:0:0
280,72,176100,1,0,0:0:0
280,72,176156,2,0,B|220:152,1,100
124,124,176378,2,0,B|184:44,1,100,8|0,0:0|0:0,0:0:0
280,72,176600,6,0,B|280:272,1,200,4|8,0:0|0:0,0:0:0
372,308,176934,1,0,0:0:0
456,256,177045,2,0,B|488:160,1,100
396,124,177267,2,0,B|364:220|364:220|280:272,1,200,8|0,0:0|0:0,0:0:0
184,252,177600,5,0,0:0:0
156,156,177712,1,8,0:0:0
236,96,177823,1,0,0:0:0
236,96,177878,1,0,0:0:0
236,96,177934,2,0,B|300:172,1,100
280,272,178156,2,0,B|151:119,1,200,8|4,0:0|0:0,0:0:0
52,124,178489,5,0,0:0:0
8,216,178600,2,0,B|8:316,1,100,8|0,0:0|0:0,0:0:0
108,300,178823,2,0,B|108:200,1,100
204,168,179045,2,0,B|204:268|204:268|268:344,1,200,8|0,0:0|0:0,0:0:0
368,340,179378,5,0,0:0:0
436,268,179489,1,8,0:0:0
432,168,179600,1,0,0:0:0
432,168,179656,1,0,0:0:0
432,168,179712,2,0,B|348:112,1,100
256,148,179934,2,0,B|256:348,1,200,8|4,0:0|0:0,0:0:0
156,360,180267,5,0,0:0:0
88,288,180378,2,0,B|56:244|72:192,1,100,8|0,0:0|0:0,0:0:0
188,116,180600,2,0,B|204:168|172:212,1,100
72,120,180823,2,0,B|56:68|88:24,1,100,8|0,0:0|0:0,0:0:0
188,28,181045,5,0,0:0:0
256,100,181156,1,0,0:0:0
232,196,181267,1,8,0:0:0
140,236,181378,1,0,0:0:0
140,236,181434,1,0,0:0:0
140,236,181489,2,0,B|112:284|132:332,1,100
380,332,181712,2,0,B|400:284|372:236,1,100,8|8,0:0|0:0,0:0:0
288,292,181934,6,0,B|234:289|197:246|183:198|228:142,1,200,4|8,0:0|0:0,0:0:0
324,136,182267,1,0,0:0:0
408,192,182378,2,0,B|456:192|492:144,1,100
400,104,182600,2,0,B|300:104|300:104|220:44,1,200,8|0,0:0|0:0,0:0:0
120,44,182934,5,0,0:0:0
48,112,183045,1,8,0:0:0
64,212,183156,1,0,0:0:0
64,212,183212,1,0,0:0:0
64,212,183267,2,0,B|128:288,1,100
220,248,183489,2,0,B|91:95,1,200,8|4,0:0|0:0,0:0:0
160,24,183823,5,0,0:0:0
256,56,183934,2,0,B|256:156,1,100,8|0,0:0|0:0,0:0:0
348,192,184156,2,0,B|348:92,1,100
232,40,184378,2,0,B|232:140|232:140|284:224,1,200,8|0,0:0|0:0,0:0:0
380,260,184712,5,0,0:0:0
468,212,184823,1,8,0:0:0
472,112,184934,1,0,0:0:0
472,112,184989,1,0,0:0:0
472,112,185045,2,0,B|412:32,1,100
344,104,185267,2,0,B|344:204|344:204|280:280,1,200,8|4,0:0|0:0,0:0:0
180,292,185600,5,0,0:0:0
112,216,185712,2,0,B|112:116,1,100,8|0,0:0|0:0,0:0:0
256,92,185934,2,0,B|256:192,1,100
400,216,186156,2,0,B|400:116|400:116|340:36,1,200,8|0,0:0|0:0,0:0:0
256,92,186489,5,0,0:0:0
256,192,186600,1,8,0:0:0
168,244,186712,1,0,0:0:0
168,244,186767,1,0,0:0:0
168,244,186823,2,0,B|119:239|68:198|60:147|85:97,1,200,0|8,0:0|0:0,0:0:0
168,40,187156,1,0,0:0:0
256,92,187267,6,0,B|256:292,1,200,4|8,0:0|0:0,0:0:0
344,340,187600,1,0,0:0:0
439,309,187712,1,0,0:0:0
474,216,187823,1,0,0:0:0
425,128,187934,1,8,0:0:0
326,123,188045,1,0,0:0:0
256,192,188156,6,0,B|256:292,2,100,0|8|8,0:0|0:0|0:0,0:0:0
156,204,188489,6,0,B|104:288,2,100,8|8|8,0:0|0:0|0:0,0:0:0
356,204,188823,6,0,B|408:288,2,100,8|8|4,0:0|0:0|0:0,0:0:0
256,192,189100,12,0,201489,0:0:0
