osu file format v10

[General]
AudioFilename: Yousei Teikoku - Sacrifice.mp3
AudioLeadIn: 1000
PreviewTime: 140823
Countdown: 0
SampleSet: Soft
StackLeniency: 0.7
Mode: 0
LetterboxInBreaks: 0

[Editor]
DistanceSpacing: 1
BeatDivisor: 4
GridSize: 4

[Metadata]
Title:Sacrifice
TitleUnicode:Sacrifice
Artist:Yousei Teikoku
ArtistUnicode:Yousei Teikoku
Creator:Saten
Version:Death
Source:
Tags:Saten-san Fiya OnosakiHito rickyboi
BeatmapID:128935
BeatmapSetID:40671

[Difficulty]
HPDrainRate:5
CircleSize:4
OverallDifficulty:7
ApproachRate:10
SliderMultiplier:2
SliderTickRate:2

[Events]
//Background and Video events
0,0,"117863.jpg"
//Break Periods
2,79023,85484
//Storyboard Layer 0 (Background)
//Storyboard Layer 1 (Fail)
//Storyboard Layer 2 (Pass)
//Storyboard Layer 3 (Foreground)
//Storyboard Sound Samples
//Background Colour Transformations
3,100,0,0,0

[TimingPoints]
601,222.222222222222,4,2,1,80,1,0
2378,-83.3333333333333,4,2,1,80,0,0
16600,-100,4,2,1,80,0,0
30823,-83.3333333333333,4,2,1,80,0,0
37934,-100,4,2,1,80,0,0
52156,-83.3333333333333,4,2,1,80,0,0
59267,-83.3333333333333,4,2,1,80,0,1
77045,-100,4,2,1,80,0,0
78823,-83.3333333333333,4,2,1,80,0,0
85934,-100,4,2,1,80,0,0
93045,-100,4,2,2,80,0,0
99267,-100,4,2,1,80,0,0
100156,-83.3333333333333,4,2,1,80,0,0
100378,-80,4,2,1,80,0,0
100600,-76.9230769230769,4,2,1,80,0,0
100823,-74.0740740740741,4,2,1,80,0,0
101045,-71.4285714285714,4,2,1,80,0,0
101267,-68.9655172413793,4,2,1,80,0,0
101489,-66.6666666666667,4,2,1,80,0,0
101712,-64.5161290322581,4,2,1,80,0,0
101934,-62.5,4,2,1,80,0,0
102156,-60.6060606060606,4,2,1,80,0,0
102378,-58.8235294117647,4,2,1,80,0,0
102600,-57.1428571428571,4,2,1,80,0,0
102823,-83.3333333333333,4,2,1,80,0,0
103934,-86.9565217391304,4,2,1,80,0,0
104156,-90.9090909090909,4,2,1,80,0,0
104378,-95.2380952380952,4,2,1,80,0,0
104600,-100,4,2,1,80,0,0
104823,-105.263157894737,4,2,1,80,0,0
105045,-111.111111111111,4,2,1,80,0,0
105267,-117.647058823529,4,2,1,80,0,0
105489,-125,4,2,1,80,0,0
105712,-133.333333333333,4,2,1,80,0,0
105934,-142.857142857143,4,2,1,80,0,0
106156,-153.846153846154,4,2,1,80,0,0
106378,-83.3333333333333,4,2,1,80,0,0
107267,-83.3333333333333,4,2,1,80,0,1
125045,-100,4,2,2,80,0,0
131267,-100,4,2,1,80,0,0
132156,-83.3333333333333,4,2,2,80,0,0
133712,-83.3333333333333,4,2,1,80,0,0
134267,-83.3333333333333,4,2,2,80,0,0
134600,-83.3333333333333,4,2,2,80,0,0
135267,-83.3333333333333,4,2,1,80,0,0
135712,-83.3333333333333,4,2,2,80,0,0
137045,-83.3333333333333,4,2,1,80,0,0
137712,-83.3333333333333,4,2,2,80,0,0
139267,-100,4,2,1,80,0,0
141045,-83.3333333333333,4,2,1,80,0,1
155267,-83.3333333333333,4,2,1,80,0,0
155489,-83.3333333333333,4,2,1,80,0,1
173045,-100,4,2,1,80,0,0
174823,-83.3333333333333,4,2,1,80,0,0
189045,-83.3333333333333,4,2,1,80,0,0
189934,-83.3333333333333,4,2,1,75,0,0
190823,-83.3333333333333,4,2,1,70,0,0
191712,-83.3333333333333,4,2,1,65,0,0
192600,-83.3333333333333,4,2,1,60,0,0
193489,-83.3333333333333,4,2,1,55,0,0
194378,-83.3333333333333,4,2,1,50,0,0
195267,-83.3333333333333,4,2,1,45,0,0
196156,-83.3333333333333,4,2,1,40,0,0
197045,-83.3333333333333,4,2,1,35,0,0
197934,-83.3333333333333,4,2,1,30,0,0
198823,-83.3333333333333,4,2,1,25,0,0
199712,-83.3333333333333,4,2,1,20,0,0
200600,-83.3333333333333,4,2,1,15,0,0
201489,-83.3333333333333,4,2,1,5,0,0

[Colours]
Combo1 : 255,70,70
Combo2 : 89,255,89
Combo3 : 187,187,255
Combo4 : 255,130,255
Combo5 : 255,255,111

[HitObjects]
256,56,601,1,4,0:0:0
328,124,712,1,0,0:0:0
256,192,823,1,8,0:0:0
184,260,934,1,0,0:0:0
256,328,1045,5,0,0:0:0
328,260,1156,1,0,0:0:0
256,192,1267,1,8,0:0:0
184,124,1378,2,0,B|256:55|256:55|328:124,1,200,4|0,0:0|0:0,0:0:0
256,192,1712,5,8,0:0:0
184,260,1823,1,0,0:0:0
160,260,1878,1,0,0:0:0
136,260,1934,1,0,0:0:0
60,192,2045,1,8,0:0:0
128,84,2156,1,8,0:0:0
256,56,2267,1,8,0:0:0
384,84,2378,6,0,B|488:148,1,120.000002861023,4|0,0:0|0:0,0:0:0
376,192,2600,2,0,B|256:192,1,120.000002861023,8|0,0:0|0:0,0:0:0
128,84,2823,2,0,B|24:148,1,120.000002861023,0|0,0:0|0:0,0:0:0
136,192,3045,2,0,B|256:192,1,120.000002861023,8|0,0:0|0:0,0:0:0
256,56,3267,5,0,0:0:0
188,172,3378,1,0,0:0:0
324,172,3489,1,8,0:0:0
252,56,3600,5,0,0:0:0
193,176,3711,1,0,0:0:0
328,167,3822,1,0,0:0:0
248,56,3934,6,0,B|192:44|124:64|80:112|72:180,1,240.000005722046,8|4,0:0|0:0,0:0:0
136,280,4267,1,0,0:0:0
193,176,4378,1,8,0:0:0
72,177,4489,1,0,0:0:0
136,280,4600,2,0,B|256:280,1,120.000002861023
376,280,4823,2,0,B|256:280,1,120.000002861023,8|0,0:0|0:0,0:0:0
196,176,5045,5,0,0:0:0
322,176,5156,1,0,0:0:0
259,280,5267,1,8,0:0:0
199,171,5378,5,0,0:0:0
325,180,5489,1,0,0:0:0
255,279,5600,1,0,0:0:0
203,167,5712,6,0,B|204:104|232:56|312:32|372:56,1,240.000005722046,8|4,0:0|0:0,0:0:0
324,180,6045,1,0,0:0:0
252,324,6156,6,0,B|196:356|136:336,1,120.000002861023,8|0,0:0|0:0,0:0:0
248,64,6378,2,0,B|301:28|362:43,1,120.000002861023
264,324,6600,2,0,B|213:364|151:353,1,120.000002861023,8|0,0:0|0:0,0:0:0
84,240,6823,5,0,0:0:0
140,132,6934,1,0,0:0:0
256,104,7045,1,8,0:0:0
428,296,7156,5,0,0:0:0
372,188,7267,1,0,0:0:0
256,160,7378,1,0,0:0:0
184,360,7489,6,0,B|244:336|284:280|280:220|256:160,1,240.000005722046,8|4,0:0|0:0,0:0:0
152,96,7823,1,0,0:0:0
48,156,7934,1,8,0:0:0
28,276,8045,1,0,0:0:0
144,304,8156,2,0,B|188:292|212:252|200:212,1,120.000002861023
368,80,8378,2,0,B|324:92|300:132|312:172,1,120.000002861023,8|0,0:0|0:0,0:0:0
360,280,8600,5,0,0:0:0
432,184,8712,1,0,0:0:0
312,172,8823,1,8,0:0:0
360,280,8934,5,0,0:0:0
432,184,9045,1,0,0:0:0
312,172,9156,1,0,0:0:0
360,280,9267,6,0,B|412:316|476:296,1,120.000002861023,8|8,0:0|0:0,0:0:0
432,184,9489,2,0,B|368:80,1,120.000002861023,4|0,0:0|0:0,0:0:0
256,36,9712,2,0,B|256:156,1,120.000002861023,8|0,0:0|0:0,0:0:0
140,192,9934,2,0,B|77:89,1,120.000002861023
12,192,10156,2,0,B|12:312,1,120.000002861023,8|0,0:0|0:0,0:0:0
124,352,10378,5,0,0:0:0
236,312,10489,1,0,0:0:0
256,192,10600,1,8,0:0:0
388,352,10712,5,0,0:0:0
276,312,10823,1,0,0:0:0
256,192,10934,1,0,0:0:0
256,72,11045,6,0,B|308:40|372:32|432:56|464:116,1,240.000005722046,8|4,0:0|0:0,0:0:0
372,192,11378,1,0,0:0:0
464,267,11489,1,8,0:0:0
388,352,11600,1,0,0:0:0
275,310,11712,2,0,B|256:192,1,120.000002861023
236,73,11934,2,0,B|256:192,1,120.000002861023,8|0,0:0|0:0,0:0:0
352,260,12156,5,0,0:0:0
452,192,12267,1,0,0:0:0
496,80,12378,1,8,0:0:0
352,124,12489,5,0,0:0:0
452,192,12600,1,0,0:0:0
496,304,12712,1,0,0:0:0
388,352,12823,6,0,B|328:352|268:320|244:260|256:192,1,240.000005722046,8|4,0:0|0:0,0:0:0
352,124,13156,1,0,0:0:0
452,192,13267,1,8,0:0:0
496,304,13378,1,0,0:0:0
388,352,13489,2,0,B|316:348|280:304,1,120.000002861023
124,32,13712,2,0,B|196:36|232:80,1,120.000002861023,8|0,0:0|0:0,0:0:0
256,192,13934,5,0,0:0:0
184,288,14045,1,0,0:0:0
64,288,14156,1,8,0:0:0
136,192,14267,5,0,0:0:0
256,192,14378,1,0,0:0:0
376,192,14489,1,0,0:0:0
480,132,14600,6,0,B|468:72|416:24|340:32|292:76,1,240.000005722046,8|4,0:0|0:0,0:0:0
256,192,14934,1,0,0:0:0
184,288,15045,1,8,0:0:0
64,288,15156,1,0,0:0:0
20,176,15267,6,0,B|68:68,1,120.000002861023
492,176,15489,2,0,B|444:68,1,120.000002861023,8|0,0:0|0:0,0:0:0
80,184,15712,2,0,B|156:92,1,120.000002861023,0|0,0:0|0:0,0:0:0
432,184,15934,2,0,B|356:92,1,120.000002861023,8|0,0:0|0:0,0:0:0
256,28,16156,5,0,0:0:0
200,136,16267,1,8,0:0:0
312,204,16378,1,8,0:0:0
192,276,16489,1,8,0:0:0
320,348,16600,1,4,0:0:0
64,288,16823,6,0,B|36:240|32:192|36:144|64:96,1,200,8|0,0:0|0:0,0:0:0
144,36,17156,1,0,0:0:0
156,136,17267,1,8,0:0:0
64,96,17378,1,0,0:0:0
144,36,17489,6,0,B|344:36,1,200,0|8,0:0|0:0,0:0:0
440,72,17823,1,0,0:0:0
348,108,17934,2,0,B|148:108,1,200,0|8,0:0|0:0,0:0:0
56,144,18267,1,8,0:0:0
148,180,18378,6,0,B|348:180,2,200,0|8|0,0:0|0:0|0:0,0:0:0
96,92,18934,1,0,0:0:0
196,92,19045,1,8,0:0:0
148,180,19156,1,0,0:0:0
96,92,19267,6,0,B|104:32|156:12|212:16|256:40,1,200,2|8,0:0|0:0,0:0:0
416,92,19600,2,0,B|408:32|356:12|300:16|256:40,1,200,2|0,0:0|0:0,0:0:0
256,140,19934,2,0,B|256:340,1,200,10|0,0:0|0:0,0:0:0
392,192,20378,5,8,0:0:0
120,192,20600,1,0,0:0:0
416,92,20823,1,8,0:0:0
96,92,21045,6,0,B|192:64,1,100
156,352,21267,2,0,B|128:256,1,100,8|0,0:0|0:0,0:0:0
416,292,21489,2,0,B|320:320,1,100
356,32,21711,2,0,B|384:128,1,100,8|8,0:0|0:0,0:0:0
256,192,21934,6,0,B|260:144|288:92|344:76|396:68,1,200,0|8,0:0|0:0,0:0:0
484,112,22267,1,0,0:0:0
424,192,22378,2,0,B|324:192,1,100
88,192,22600,2,0,B|188:192,1,100,8|0,0:0|0:0,0:0:0
256,264,22823,6,0,B|208:280|152:272|108:240|88:192,1,200,8|0,0:0|0:0,0:0:0
256,120,23156,2,0,B|304:104|360:112|404:144|424:192,1,200,8|0,0:0|0:0,0:0:0
260,272,23489,6,0,B|212:288|160:268,1,100,8|8,0:0|0:0,0:0:0
252,112,23712,2,0,B|300:96|352:116,1,100,4|0,0:0|0:0,0:0:0
256,192,23934,2,0,B|208:192|164:160,1,100,8|0,0:0|0:0,0:0:0
256,192,24156,2,0,B|304:192|348:224,1,100
256,264,24378,2,0,B|156:248,1,100,8|0,0:0|0:0,0:0:0
256,120,24600,6,0,B|356:136,1,100
256,264,24823,2,0,B|156:248,1,100,8|0,0:0|0:0,0:0:0
259,120,25045,2,0,B|358:141,1,100
252,263,25267,2,0,B|153:242,1,100,8|8,0:0|0:0,0:0:0
48,128,25489,5,0,0:0:0
464,128,25712,1,8,0:0:0
256,20,25934,5,0,0:0:0
204,108,26045,1,0,0:0:0
308,108,26156,1,8,0:0:0
256,20,26267,1,0,0:0:0
204,108,26378,6,0,B|256:192,1,100
172,244,26600,2,0,B|256:192,1,100,8|0,0:0|0:0,0:0:0
308,276,26823,2,0,B|256:192,1,100
340,140,27045,2,0,B|256:192,1,100,8|8,0:0|0:0,0:0:0
156,168,27267,6,0,B|120:128|128:68|164:28|220:16,1,200,0|8,0:0|0:0,0:0:0
256,108,27600,1,0,0:0:0
356,168,27712,2,0,B|392:128|384:68|348:28|292:16,1,200,0|8,0:0|0:0,0:0:0
256,108,28045,1,0,0:0:0
256,208,28156,6,0,B|200:208|140:184|128:128|140:80,1,200,0|8,0:0|0:0,0:0:0
256,108,28489,1,0,0:0:0
256,208,28600,2,0,B|312:208|372:184|384:128|372:80,1,200,0|8,0:0|0:0,0:0:0
256,108,28934,1,8,0:0:0
139,83,29045,5,0,0:0:0
372,83,29267,1,8,0:0:0
96,192,29489,5,0,0:0:0
156,272,29600,1,0,0:0:0
256,292,29712,1,8,0:0:0
356,272,29823,1,0,0:0:0
416,192,29934,6,0,B|340:4,1,200,8|0,0:0|0:0,0:0:0
360,104,30267,2,0,B|172:28,1,200,8|0,0:0|0:0,0:0:0
260,84,30600,2,0,B|84:184,1,200,8|4,0:0|0:0,0:0:0
120,300,30934,5,0,0:0:0
236,324,31045,1,0,0:0:0
320,236,31156,1,0,0:0:0
380,132,31267,2,0,B|476:204,1,119.999996337891
232,296,31489,2,0,B|136:224,1,119.999996337891,8|0,0:0|0:0,0:0:0
76,120,31712,5,0,0:0:0
196,120,31823,1,0,0:0:0
136,224,31934,1,8,0:0:0
76,120,32045,5,0,0:0:0
196,120,32156,1,0,0:0:0
136,224,32267,1,0,0:0:0
76,120,32378,2,0,B|80:56|132:8|200:0|256:36,1,240.000005722046,8|4,0:0|0:0,0:0:0
256,156,32712,1,0,0:0:0
436,119,32823,2,0,B|432:56|380:8|312:0|256:35,1,240.000005722046,8|0,0:0|0:0,0:0:0
256,156,33156,1,0,0:0:0
308,264,33267,6,0,B|347:224|371:155|347:88|307:48,1,240.000005722046,8|0,0:0|0:0,0:0:0
188,64,33600,1,0,0:0:0
116,160,33712,1,8,0:0:0
184,260,33823,1,0,0:0:0
212,268,33878,1,0,0:0:0
244,268,33934,1,0,0:0:0
344,204,34045,1,0,0:0:0
332,84,34156,6,0,B|296:36|240:8|172:8|116:40,1,240.000005722046,8|4,0:0|0:0,0:0:0
116,160,34489,1,0,0:0:0
184,260,34600,2,0,B|216:208|200:144,1,120.000002861023,8|0,0:0|0:0,0:0:0
272,240,34823,2,0,B|272:304|212:340,1,120.000002861023
332,320,35045,2,0,B|364:260|344:204,1,120.000002861023,8|0,0:0|0:0,0:0:0
256,124,35267,5,0,0:0:0
228,240,35378,1,0,0:0:0
344,204,35489,1,8,0:0:0
256,124,35600,5,0,0:0:0
224,120,35656,1,0,0:0:0
192,116,35712,1,0,0:0:0
96,192,35823,1,0,0:0:0
72,308,35934,6,0,B|112:352|184:364|240:344|280:280,1,240.000005722046,8|4,0:0|0:0,0:0:0
300,164,36267,1,0,0:0:0
192,116,36378,2,0,B|96:192,1,120.000002861023,8|0,0:0|0:0,0:0:0
332,128,36600,2,0,B|256:32,1,120.000002861023
320,268,36823,2,0,B|416:192,1,120.000002861023,8|0,0:0|0:0,0:0:0
180,256,37045,6,0,B|256:352,1,120.000002861023
372,364,37267,1,8,0:0:0
472,300,37378,1,0,0:0:0
484,272,37434,1,0,0:0:0
492,244,37489,1,0,0:0:0
492,124,37600,5,0,0:0:0
400,44,37712,1,8,0:0:0
284,76,37823,1,8,0:0:0
256,192,37934,6,0,B|256:250|278:298|341:317|384:305,1,200,4|8,0:0|0:0,0:0:0
356,192,38267,1,0,0:0:0
256,192,38378,2,0,B|256:133|278:85|341:66|384:78,1,200,0|8,0:0|0:0,0:0:0
356,192,38712,1,0,0:0:0
296,288,38823,6,0,B|252:313|200:303,1,100
216,96,39045,2,0,B|259:70|311:80,1,100,8|0,0:0|0:0,0:0:0
292,284,39267,2,0,B|248:308|196:296,1,100
220,100,39489,2,0,B|264:76|316:88,1,100,8|8,0:0|0:0,0:0:0
292,284,39712,6,0,B|250:308|185:307|146:279|120:232,1,200,0|8,0:0|0:0,0:0:0
136,132,40045,1,0,0:0:0
212,196,40156,1,0,0:0:0
120,232,40267,1,0,0:0:0
136,132,40378,1,8,0:0:0
212,196,40489,1,0,0:0:0
120,232,40600,6,0,B|80:204|52:152|60:100|100:60,1,200,2|0,0:0|0:0,0:0:0
392,232,40934,2,0,B|432:204|460:152|452:100|412:60,1,200,2|0,0:0|0:0,0:0:0
256,92,41267,2,0,B|256:292,1,200,10|0,0:0|0:0,0:0:0
444,360,41712,5,8,0:0:0
68,24,41934,1,0,0:0:0
444,24,42156,1,8,0:0:0
68,360,42378,5,0,0:0:0
500,192,42600,1,8,0:0:0
12,192,42823,1,0,0:0:0
256,92,43045,5,8,0:0:0
256,192,43156,1,8,0:0:0
256,292,43267,2,0,B|208:308|148:288|124:236|156:180,1,200,0|8,0:0|0:0,0:0:0
256,192,43600,1,0,0:0:0
256,292,43712,2,0,B|304:308|364:288|388:236|356:180,1,200,0|8,0:0|0:0,0:0:0
256,192,44045,1,0,0:0:0
256,92,44156,6,0,B|308:60|360:56|408:92|428:136,1,200,2|0,0:0|0:0,0:0:0
256,92,44489,2,0,B|204:60|152:56|104:92|84:136,1,200,10|0,0:0|0:0,0:0:0
176,264,44823,2,0,B|176:164,1,100,8|8,0:0|0:0,0:0:0
256,92,45045,6,0,B|256:292,2,200,4|8|0,0:0|0:0|0:0,0:0:0
344,140,45600,1,0,0:0:0
256,192,45712,1,8,0:0:0
168,244,45823,1,0,0:0:0
168,144,45934,6,0,B|208:52,1,100
344,240,46156,2,0,B|304:332,1,100,8|0,0:0|0:0,0:0:0
168,144,46378,6,0,B|253:92,1,100
344,240,46600,2,0,B|259:291,1,100,8|0,0:0|0:0,0:0:0
168,244,46823,5,0,0:0:0
344,140,47045,1,8,0:0:0
80,96,47267,6,0,B|167:146,1,100
432,292,47489,2,0,B|346:241,1,100,8|0,0:0|0:0,0:0:0
52,148,47712,6,0,B|142:192,1,100
460,236,47934,2,0,B|371:191,1,100,8|0,0:0|0:0,0:0:0
112,48,48156,6,0,B|205:86,1,100
400,336,48378,2,0,B|308:297,1,100,8|8,0:0|0:0,0:0:0
164,152,48600,6,0,B|128:112|144:56|192:20|256:32,1,200,0|8,0:0|0:0,0:0:0
256,132,48934,1,0,0:0:0
348,152,49045,2,0,B|384:112|368:56|320:20|256:32,1,200,0|8,0:0|0:0,0:0:0
256,132,49378,1,0,0:0:0
316,212,49489,6,0,B|373:231|358:305|301:356|256:315,1,200,0|8,0:0|0:0,0:0:0
256,132,49823,1,0,0:0:0
196,211,49934,2,0,B|138:231|153:305|210:356|256:315,1,200,0|8,0:0|0:0,0:0:0
256,132,50267,1,8,0:0:0
164,96,50378,5,0,0:0:0
348,96,50600,1,8,0:0:0
100,192,50823,5,0,0:0:0
160,272,50934,1,0,0:0:0
256,296,51045,1,8,0:0:0
352,272,51156,1,0,0:0:0
412,192,51267,6,0,B|408:144|360:104|304:100|256:132,1,200,8|0,0:0|0:0,0:0:0
100,192,51600,2,0,B|104:144|152:104|208:100|256:132,1,200,8|0,0:0|0:0,0:0:0
412,192,51934,5,8,0:0:0
256,132,52045,1,8,0:0:0
100,192,52156,6,0,B|100:251|135:297|195:297,1,160.000003814697,4|0,0:0|0:0,0:0:0
195,269,52378,2,0,B|254:269|300:233|300:173,1,160.000003814697,8|0,0:0|0:0,0:0:0
272,174,52600,2,0,B|272:114|236:68|176:68,1,160.000003814697,8|0,0:0|0:0,0:0:0
173,97,52823,6,0,B|113:99|69:137|71:197,1,160.000003814697,8|0,0:0|0:0,0:0:0
100,196,53045,2,0,B|102:255|140:299|200:296,1,160.000003814697,8|0,0:0|0:0,0:0:0
199,268,53267,2,0,B|258:264|302:226|299:166,1,160.000003814697,8|0,0:0|0:0,0:0:0
270,165,53489,6,0,B|262:105|223:62|164:68,1,160.000003814697,8|0,0:0|0:0,0:0:0
168,98,53712,2,0,B|108:104|65:143|71:202,1,160.000003814697,8|0,0:0|0:0,0:0:0
100,201,53934,2,0,B|106:260|145:302|204:296,1,160.000003814697,8|0,0:0|0:0,0:0:0
208,267,54156,6,0,B|267:257|306:215|296:155,1,160.000003814697,8|0,0:0|0:0,0:0:0
270,162,54378,2,0,B|260:102|218:62|158:72,1,160.000003814697,8|0,0:0|0:0,0:0:0
164,100,54601,2,0,B|104:108|64:151|74:210,1,160.000003814697,8|0,0:0|0:0,0:0:0
100,208,54823,6,0,B|160:228|208:172,2,120.000002861023,8|0|0,0:0|0:0|0:0,0:0:0
8,128,55156,1,8,0:0:0
92,40,55267,2,0,B|152:12|208:24,2,120.000002861023,0|0|8,0:0|0:0|0:0,0:0:0
8,128,55600,1,0,0:0:0
100,208,55712,6,0,B|260:208,1,160.000003814697,12|0,0:0|0:0,0:0:0
260,179,55934,2,0,B|99:179,1,160.000003814697,8|0,0:0|0:0,0:0:0
99,203,56156,2,0,B|258:211,1,160.000003814697,8|0,0:0|0:0,0:0:0
260,183,56378,6,0,B|99:174,1,160.000003814697,8|0,0:0|0:0,0:0:0
98,199,56600,2,0,B|257:215,1,160.000003814697,8|0,0:0|0:0,0:0:0
260,187,56822,2,0,B|99:170,1,160.000003814697,8|0,0:0|0:0,0:0:0
98,194,57045,6,0,B|255:218,1,160.000003814697,8|0,0:0|0:0,0:0:0
260,191,57267,2,0,B|101:165,1,160.000003814697,8|0,0:0|0:0,0:0:0
98,190,57489,2,0,B|254:222,1,160.000003814697,8|0,0:0|0:0,0:0:0
260,195,57712,6,0,B|102:161,1,160.000003814697,8|0,0:0|0:0,0:0:0
98,185,57934,2,0,B|251:225,1,160.000003814697,8|0,0:0|0:0,0:0:0
260,199,58156,2,0,B|105:157,1,160.000003814697,8|0,0:0|0:0,0:0:0
96,176,58378,6,0,B|128:292,1,120.000002861023,8|8,0:0|0:0,0:0:0
240,344,58600,1,0,0:0:0
272,348,58656,1,0,0:0:0
304,352,58712,1,0,0:0:0
424,332,58823,6,0,B|488:232,1,120.000002861023,8|8,0:0|0:0,0:0:0
472,112,59045,1,8,0:0:0
368,52,59156,1,8,0:0:0
256,96,59267,6,0,B|223:146|214:211|249:268|324:283,2,240.000005722046,4|8|0,0:0|0:0|0:0,0:0:0
368,52,59823,1,0,0:0:0
472,112,59934,1,8,0:0:0
414,216,60045,2,0,B|344:244|284:216|256:156|256:96,1,240.000005722046,4|0,0:0|0:0,0:0:0
376,108,60378,5,8,0:0:0
304,204,60489,1,0,0:0:0
280,220,60545,1,0,0:0:0
256,236,60600,1,0,0:0:0
136,260,60712,1,0,0:0:0
36,192,60823,6,0,B|36:132|80:76|140:60|208:72,2,240.000005722046,8|4|8,0:0|0:0|0:0,0:0:0
136,260,61378,1,0,0:0:0
256,236,61489,2,0,B|288:172|256:120,2,120.000002861023,0|0|8,0:0|0:0|0:0,0:0:0
152,172,61823,2,0,B|144:112|176:48|232:20|300:32,1,240.000005722046,4|0,0:0|0:0,0:0:0
408,84,62156,5,8,0:0:0
420,204,62267,1,0,0:0:0
416,232,62323,1,0,0:0:0
412,260,62378,1,0,0:0:0
100,124,62600,1,8,0:0:0
180,36,62712,1,8,0:0:0
300,32,62823,6,0,B|392:112,2,119.999996337891,4|0|0,0:0|0:0|0:0,0:0:0
180,36,63156,1,2,0:0:0
332,348,63378,1,2,0:0:0
88,192,63600,1,2,0:0:0
424,192,63823,6,0,B|332:116,1,120.000002861023,2|8,0:0|0:0,0:0:0
256,208,64045,1,0,0:0:0
256,236,64100,1,0,0:0:0
256,268,64156,1,2,0:0:0
140,300,64267,1,2,0:0:0
88,192,64378,1,8,0:0:0
140,84,64489,5,8,0:0:0
168,96,64545,1,0,0:0:0
196,108,64600,1,4,0:0:0
256,208,64712,2,0,B|256:328,1,120.000002861023,0|8,0:0|0:0,0:0:0
372,300,64934,1,2,0:0:0
88,192,65156,1,2,0:0:0
424,192,65378,1,2,0:0:0
256,20,65600,5,2,0:0:0
256,140,65712,1,8,0:0:0
256,260,65823,1,0,0:0:0
280,276,65878,1,0,0:0:0
308,292,65934,1,2,0:0:0
428,312,66045,1,2,0:0:0
424,192,66156,1,8,0:0:0
428,72,66267,1,8,0:0:0
320,20,66378,6,0,B|80:36,1,240.000005722046,4|8,0:0|0:0,0:0:0
176,108,66712,1,0,0:0:0
88,192,66823,2,0,B|328:176,1,240.000005722046,0|8,0:0|0:0,0:0:0
308,292,67156,2,0,B|244:264|204:228|180:176|176:108,1,240.000005722046,4|0,0:0|0:0,0:0:0
292,84,67489,5,8,0:0:0
400,136,67600,1,0,0:0:0
412,164,67656,1,0,0:0:0
424,192,67712,1,0,0:0:0
88,192,67934,1,0,0:0:0
436,60,68156,1,4,0:0:0
76,324,68378,1,8,0:0:0
256,20,68600,5,0,0:0:0
256,140,68712,1,0,0:0:0
256,260,68823,1,8,0:0:0
256,380,68934,2,0,B|324:384|384:352|404:280|372:224,1,240.000005722046,4|0,0:0|0:0,0:0:0
256,260,69267,2,0,B|188:264|128:232|108:160|140:104,2,240.000005722046,8|0|8,0:0|0:0|0:0,0:0:0
256,140,69823,1,8,0:0:0
256,20,69934,6,0,B|136:32,1,120.000002861023,4|0,0:0|0:0,0:0:0
24,72,70156,1,0,0:0:0
4,192,70267,5,2,0:0:0
508,192,70489,1,2,0:0:0
24,72,70712,1,2,0:0:0
488,312,70934,5,2,0:0:0
372,336,71045,1,8,0:0:0
256,308,71156,1,0,0:0:0
256,276,71212,1,0,0:0:0
256,248,71267,1,2,0:0:0
200,140,71378,1,2,0:0:0
312,100,71489,1,8,0:0:0
200,60,71600,1,8,0:0:0
312,20,71712,6,0,B|416:80,2,120.000002861023,4|0|0,0:0|0:0|0:0,0:0:0
96,80,72045,5,2,0:0:0
416,304,72267,1,2,0:0:0
116,192,72489,1,2,0:0:0
396,192,72712,5,2,0:0:0
316,104,72823,1,8,0:0:0
196,104,72934,1,0,0:0:0
116,192,73045,1,2,0:0:0
104,220,73100,1,0,0:0:0
92,248,73156,1,2,0:0:0
108,368,73267,1,8,0:0:0
224,340,73378,1,8,0:0:0
256,224,73489,6,0,B|256:104,2,120.000002861023,4|0|8,0:0|0:0|0:0,0:0:0
224,340,73823,5,2,0:0:0
288,44,74045,1,2,0:0:0
28,192,74267,1,2,0:0:0
484,192,74489,5,2,0:0:0
364,192,74600,1,8,0:0:0
244,192,74712,1,0,0:0:0
216,204,74767,1,0,0:0:0
188,216,74823,1,2,0:0:0
108,308,74934,1,2,0:0:0
224,340,75045,1,8,0:0:0
340,308,75156,1,8,0:0:0
364,192,75267,6,0,B|364:72,2,120.000002861023,4|0|0,0:0|0:0|0:0,0:0:0
340,308,75600,5,2,0:0:0
172,76,75823,1,2,0:0:0
424,192,76045,1,2,0:0:0
88,192,76267,1,2,0:0:0
196,240,76378,1,8,0:0:0
256,136,76489,5,0,0:0:0
256,104,76545,1,0,0:0:0
256,76,76600,1,8,0:0:0
152,16,76712,1,8,0:0:0
48,80,76823,1,8,0:0:0
88,192,76934,1,8,0:0:0
196,240,77045,6,0,B|284:192,1,100,4|0,0:0|0:0,0:0:0
348,116,77267,1,8,0:0:0
256,76,77378,1,0,0:0:0
164,116,77489,1,0,0:0:0
144,212,77600,1,0,0:0:0
204,292,77712,1,8,0:0:0
308,292,77823,2,0,B|340:244|348:192|308:144|256:136,1,200,4|0,0:0|0:0,0:0:0
256,236,78156,5,8,0:0:0
356,224,78267,1,0,0:0:0
376,208,78323,1,0,0:0:0
396,192,78378,1,0,0:0:0
424,96,78489,1,8,0:0:0
348,32,78600,1,8,0:0:0
256,76,78712,1,8,0:0:0
256,172,78823,1,4,0:0:0
132,192,85934,6,0,B|224:148,1,100,4|0,0:0|0:0,0:0:0
380,192,86156,2,0,B|288:236,1,100,8|0,0:0|0:0,0:0:0
200,276,86378,1,0,0:0:0
256,192,86489,1,0,0:0:0
312,108,86600,1,8,0:0:0
132,24,86823,1,0,0:0:0
380,360,87045,1,8,0:0:0
56,192,87267,5,0,0:0:0
156,192,87378,1,0,0:0:0
256,192,87489,2,0,B|356:192,1,100,8|8,0:0|0:0,0:0:0
444,140,87712,6,0,B|452:88|412:40|356:24|308:36,2,200,0|8|0,0:0|0:0|0:0,0:0:0
68,244,88378,2,0,B|60:296|100:344|156:360|204:348,2,200,8|0|8,0:0|0:0|0:0,0:0:0
124,160,88934,1,0,0:0:0
212,116,89045,2,0,B|312:116,1,100
356,28,89267,2,0,B|256:28,1,100,8|8,0:0|0:0,0:0:0
156,44,89489,6,0,B|132:96|140:148|176:188|236:192,2,200,0|8|0,0:0|0:0|0:0,0:0:0
256,28,90045,1,0,0:0:0
356,28,90156,2,0,B|356:228,2,200,8|0|8,0:0|0:0|0:0,0:0:0
156,356,90823,5,0,0:0:0
156,256,90934,1,0,0:0:0
156,156,91045,1,8,0:0:0
160,56,91156,5,0,0:0:0
180,44,91212,1,0,0:0:0
200,32,91267,1,0,0:0:0
312,352,91489,1,8,0:0:0
12,192,91712,5,0,0:0:0
112,192,91823,1,0,0:0:0
212,192,91934,1,8,0:0:0
312,192,92045,1,0,0:0:0
332,96,92156,6,0,B|256:32,1,100
256,132,92378,1,0,0:0:0
256,232,92489,2,0,B|180:168,1,100,8|0,0:0|0:0,0:0:0
256,132,92712,5,0,0:0:0
332,96,92823,1,8,0:0:0
416,116,92934,1,8,0:0:0
456,192,93045,6,0,B|452:240|420:284|372:312|316:312,1,200,4|8,0:0|0:0,0:0:0
320,212,93378,1,0,0:0:0
220,212,93489,2,0,B|165:211|117:239|85:283|81:331,1,200,0|8,0:0|0:0,0:0:0
184,332,93823,1,0,0:0:0
256,260,93934,6,0,B|256:60,1,200,0|8,0:0|0:0,0:0:0
168,112,94267,1,0,0:0:0
256,160,94378,2,0,B|308:168|360:140|376:84|352:32,1,200,0|8,0:0|0:0,0:0:0
256,60,94712,1,0,0:0:0
168,112,94823,5,0,0:0:0
344,272,95045,1,8,0:0:0
156,192,95267,5,0,0:0:0
256,192,95378,1,0,0:0:0
356,192,95489,1,8,0:0:0
88,56,95712,5,0,0:0:0
424,328,95934,1,8,0:0:0
180,260,96156,5,0,0:0:0
256,192,96267,1,0,0:0:0
332,124,96378,1,8,0:0:0
256,56,96489,1,0,0:0:0
180,124,96600,6,0,B|176:172|212:224|268:236|320:228,2,200,0|8|0,0:0|0:0|0:0,0:0:0
256,56,97156,1,0,0:0:0
332,124,97267,2,0,B|332:324,2,200,8|0|8,0:0|0:0|0:0,0:0:0
180,324,97934,5,0,0:0:0
180,224,98045,1,0,0:0:0
180,124,98156,1,8,0:0:0
256,56,98267,1,0,0:0:0
332,124,98378,6,0,B|303:169|264:193|199:202|138:167,2,200,0|8|0,0:0|0:0|0:0,0:0:0
256,56,98934,1,0,0:0:0
156,72,99045,1,8,0:0:0
92,148,99156,1,0,0:0:0
120,244,99267,6,0,B|180:324,2,100,8|0|0,0:0|0:0|0:0,0:0:0
188,172,99600,2,0,B|288:172,2,100,8|0|0,0:0|0:0|0:0,0:0:0
156,72,99934,1,8,0:0:0
256,56,100045,1,8,0:0:0
340,82,100156,6,0,B|340:241,1,160.000003814697,12|0,0:0|0:0,0:0:0
319,244,100378,6,0,B|319:79,1,166.66666418314,8|0,0:0|0:0,0:0:0
298,75,100600,6,0,B|298:248,1,173.333330233892,8|0,0:0|0:0,0:0:0
277,251,100823,6,0,B|277:72,1,180.00000590086,8|0,0:0|0:0,0:0:0
260,68,101045,6,0,B|260:255,1,186.666662216187,8|0,0:0|0:0,0:0:0
238,256,101267,6,0,B|238:63,1,193.333329876264,8|0,0:0|0:0,0:0:0
220,60,101489,6,0,B|220:259,1,199.999994039536,8|0,0:0|0:0,0:0:0
200,264,101712,6,0,B|200:57,1,206.666672825813,8|0,0:0|0:0,0:0:0
182,53,101934,6,0,B|182:267,1,213.333333333333,8|0,0:0|0:0,0:0:0
161,270,102156,6,0,B|161:52,1,219.999993443489,8|0,0:0|0:0,0:0:0
137,48,102378,6,0,B|137:273,1,226.666657209397,8|0,0:0|0:0,0:0:0
113,277,102600,6,0,B|113:44,1,233.333322902521,8|0,0:0|0:0,0:0:0
80,24,102823,6,0,B|-8:104,1,120.000002861023,8|0,0:0|0:0,0:0:0
72,192,103045,1,0,0:0:0
80,360,103156,2,0,B|-8:280,1,120.000002861023,8|0,0:0|0:0,0:0:0
72,192,103378,1,0,0:0:0
208,192,103489,2,0,B|328:192,1,120.000002861023,8|0,0:0|0:0,0:0:0
420,173,103712,6,0,B|427:76|348:40,1,160.000003814697,4|0,0:0|0:0,0:0:0
327,55,103934,6,0,B|401:88|393:180,1,153.333338359992,8|0,0:0|0:0,0:0:0
370,190,104156,6,0,B|376:100|304:68,1,146.66666229566,8|0,0:0|0:0,0:0:0
287,83,104378,6,0,B|353:113|348:197,1,139.999999582767,8|0,0:0|0:0,0:0:0
327,205,104600,6,0,B|332:124|268:95,1,133.333333333333,8|0,0:0|0:0,0:0:0
252,108,104823,6,0,B|312:135|307:211,1,126.666662136714,8|0,0:0|0:0,0:0:0
288,220,105045,6,0,B|292:147|235:120,1,119.999994277954,8|0,0:0|0:0,0:0:0
220,132,105267,6,0,B|278:158|272:230,1,113.333328604698,8|0,0:0|0:0,0:0:0
248,230,105489,6,0,B|252:165|200:142,1,106.666666666667,8|0,0:0|0:0,0:0:0
188,155,105712,6,0,B|236:176|231:236,1,99.9999970197679,8|0,0:0|0:0,0:0:0
216,240,105934,6,0,B|218:184|174:163,1,93.3333311080933,8|0,0:0|0:0,0:0:0
159,176,106156,6,0,B|202:195|198:248,1,86.6666651169459,8|0,0:0|0:0,0:0:0
172,268,106378,6,0,B|104:248|84:192,1,120.000002861023,8|8,0:0|0:0,0:0:0
96,72,106600,1,0,0:0:0
124,60,106656,1,0,0:0:0
152,48,106712,1,0,0:0:0
256,104,106823,5,8,0:0:0
344,192,106934,1,0,0:0:0
256,280,107045,1,8,0:0:0
168,192,107156,1,8,0:0:0
256,104,107267,6,0,B|320:84|384:100|428:156|428:216,2,240.000005722046,4|8|0,0:0|0:0|0:0,0:0:0
168,192,107823,1,0,0:0:0
256,280,107934,1,8,0:0:0
344,192,108045,6,0,B|364:128|348:64|292:20|232:20,1,240.000005722046,4|0,0:0|0:0,0:0:0
256,136,108378,1,8,0:0:0
256,248,108489,1,0,0:0:0
256,368,108600,6,0,B|202:394|132:379|90:328|79:262,2,240.000005722046,0|8|4,0:0|0:0|0:0,0:0:0
256,16,109267,2,0,B|311:-9|380:5|423:55|433:121,2,240.000005722046,8|0|8,0:0|0:0|0:0,0:0:0
168,100,109823,1,4,0:0:0
152,123,109878,1,0,0:0:0
136,146,109934,1,0,0:0:0
256,344,110156,1,8,0:0:0
388,144,110378,5,0,0:0:0
288,80,110489,1,0,0:0:0
200,164,110600,1,8,0:0:0
248,276,110712,1,8,0:0:0
368,264,110823,6,0,B|465:191,2,120.000002861023,4|0|8,0:0|0:0|0:0,0:0:0
256,192,111156,1,2,0:0:0
48,192,111378,1,2,0:0:0
464,192,111600,1,2,0:0:0
216,216,111823,5,2,0:0:0
256,104,111934,1,8,0:0:0
332,196,112045,1,0,0:0:0
316,220,112100,1,0,0:0:0
300,244,112156,1,0,0:0:0
204,320,112267,1,2,0:0:0
84,308,112378,1,8,0:0:0
56,192,112489,1,8,0:0:0
100,80,112600,6,0,B|208:32,2,120.000002861023,4|0|0,0:0|0:0|0:0,0:0:0
56,192,112934,1,2,0:0:0
456,192,113156,1,2,0:0:0
100,80,113378,1,2,0:0:0
412,304,113600,5,2,0:0:0
296,332,113712,1,8,0:0:0
256,220,113823,1,0,0:0:0
256,192,113878,1,0,0:0:0
256,164,113934,1,0,0:0:0
216,52,114045,1,2,0:0:0
100,80,114156,1,8,0:0:0
56,192,114267,1,8,0:0:0
100,304,114378,6,0,B|156:352|224:344|268:288|256:220,1,240.000005722046,4|8,0:0|0:0,0:0:0
256,100,114712,1,0,0:0:0
256,219,114823,2,0,B|244:288|288:344|356:352|412:304,1,240.000005722046,0|8,0:0|0:0,0:0:0
348,204,115156,2,0,B|332:148|256:108|180:148|164:204,1,240.000005722046,4|0,0:0|0:0,0:0:0
256,220,115489,6,0,B|256:96,1,120.000002861023,8|0,0:0|0:0,0:0:0
163,204,115712,2,0,B|136:88,1,120.000002861023
348,204,115934,2,0,B|376:88,1,120.000002861023,8|0,0:0|0:0,0:0:0
256,100,116156,6,0,B|208:64|140:52|80:88|60:152,2,240.000005722046,4|8|0,0:0|0:0|0:0,0:0:0
256,220,116712,1,0,0:0:0
140,192,116823,1,8,0:0:0
144,72,116934,6,0,B|192:32|256:24|320:32|368:72,1,240.000005722046,4|0,0:0|0:0,0:0:0
256,100,117267,2,0,B|208:140|144:148|80:140|32:100,1,240.000005722046,8|0,0:0|0:0,0:0:0
144,72,117600,1,0,0:0:0
140,192,117712,1,8,0:0:0
256,220,117823,1,8,0:0:0
372,192,117934,6,0,B|368:72,1,120.000002861023,4|0,0:0|0:0,0:0:0
256,100,118156,1,8,0:0:0
144,72,118267,1,2,0:0:0
368,312,118489,1,2,0:0:0
140,192,118712,1,2,0:0:0
372,192,118934,5,2,0:0:0
256,220,119045,1,8,0:0:0
140,192,119156,1,0,0:0:0
124,168,119212,1,0,0:0:0
108,144,119267,1,0,0:0:0
12,72,119378,1,2,0:0:0
0,192,119489,1,8,0:0:0
12,312,119600,1,8,0:0:0
108,240,119712,6,0,B|172:140,2,120.000002861023,4|0|0,0:0|0:0|0:0,0:0:0
12,312,120045,1,2,0:0:0
500,72,120267,1,2,0:0:0
108,144,120489,1,2,0:0:0
404,240,120712,5,2,0:0:0
284,228,120823,1,8,0:0:0
228,124,120934,1,0,0:0:0
236,96,120989,1,0,0:0:0
244,68,121045,1,0,0:0:0
360,40,121156,1,2,0:0:0
444,128,121267,1,8,0:0:0
404,240,121378,1,8,0:0:0
284,228,121489,6,0,B|317:114,2,120.000002861023,4|0|8,0:0|0:0|0:0,0:0:0
404,240,121823,1,2,0:0:0
108,144,122045,1,2,0:0:0
444,128,122267,1,2,0:0:0
68,256,122489,5,2,0:0:0
184,292,122600,1,8,0:0:0
256,192,122712,1,0,0:0:0
256,164,122767,1,0,0:0:0
256,132,122823,1,0,0:0:0
184,36,122934,1,2,0:0:0
72,76,123045,1,8,0:0:0
44,192,123156,1,8,0:0:0
152,248,123267,6,0,B|185:134,2,120.000002861023,4|0|0,0:0|0:0|0:0,0:0:0
44,192,123600,1,2,0:0:0
468,192,123823,1,2,0:0:0
72,76,124045,1,2,0:0:0
440,308,124267,5,2,0:0:0
320,292,124378,1,8,0:0:0
256,192,124489,5,0,0:0:0
256,160,124545,1,0,0:0:0
256,132,124600,1,8,0:0:0
328,36,124712,1,8,0:0:0
440,76,124823,1,8,0:0:0
468,192,124934,1,8,0:0:0
440,308,125045,6,0,B|392:288|380:232,1,100,4|0,0:0|0:0,0:0:0
360,136,125267,1,8,0:0:0
440,76,125378,2,0,B|400:36|356:16|304:20|256:32,1,200
256,132,125712,1,8,0:0:0
256,232,125823,6,0,B|216:272|172:292|120:288|72:276,1,200
20,192,126156,1,8,0:0:0
40,92,126267,1,0,0:0:0
116,28,126378,2,0,B|216:40,1,100
396,28,126600,2,0,B|296:40,1,100,8|0,0:0|0:0,0:0:0
256,132,126823,5,4,0:0:0
312,216,126934,2,0,B|400:268,2,100,0|8|0,0:0|0:0|0:0,0:0:0
200,216,127267,2,0,B|112:268,2,100,0|0|8,0:0|0:0|0:0,0:0:0
256,132,127600,5,0,0:0:0
356,148,127712,2,0,B|396:240,1,100
156,236,127934,2,0,B|116:144,1,100,8|0,0:0|0:0,0:0:0
256,60,128156,5,0,0:0:0
388,192,128267,1,0,0:0:0
256,323,128378,1,8,0:0:0
124,192,128489,1,0,0:0:0
256,192,128600,1,4,0:0:0
324,260,128712,6,0,B|408:312,1,100,0|8,0:0|0:0,0:0:0
324,124,128934,2,0,B|376:40,1,100
188,124,129156,2,0,B|104:72,1,100,0|8,0:0|0:0,0:0:0
188,260,129378,2,0,B|136:344,1,100
328,255,129600,6,0,B|416:301,1,100,0|8,0:0|0:0,0:0:0
319,119,129822,2,0,B|365:31,1,100
183,128,130044,2,0,B|95:82,1,100,0|8,0:0|0:0,0:0:0
192,264,130266,2,0,B|146:352,1,100,0|4,0:0|0:0,0:0:0
240,368,130489,5,0,0:0:0
272,272,130600,1,8,0:0:0
240,176,130712,1,0,0:0:0
272,80,130823,2,0,B|348:144,1,100
240,304,131045,2,0,B|164:240,1,100
88,172,131267,5,4,0:0:0
112,76,131378,1,8,0:0:0
136,68,131434,1,8,0:0:0
160,60,131489,1,8,0:0:0
256,36,131600,1,8,0:0:0
312,120,131712,5,8,0:0:0
316,136,131767,1,8,0:0:0
320,152,131823,1,8,0:0:0
324,168,131878,1,0,0:0:0
328,184,131934,1,8,0:0:0
332,200,131989,1,0,0:0:0
336,216,132045,1,8,0:0:0
340,232,132100,1,8,0:0:0
344,248,132156,6,0,B|312:312|256:344|192:324|148:276,1,240.000005722046,4|8,0:0|0:0,0:0:0
88,172,132489,1,0,0:0:0
188,104,132600,2,0,B|308:104,1,120.000002861023
404,176,132823,2,0,B|284:180,2,120.000002861023,8|0|0,0:0|0:0|0:0,0:0:0
500,248,133156,5,0,0:0:0
408,324,133267,1,8,0:0:0
288,308,133378,1,0,0:0:0
264,292,133434,1,0,0:0:0
240,276,133489,1,0,0:0:0
256,36,133712,2,0,B|328:28|384:56|412:112|404:176,1,240.000005722046,8|4,0:0|0:0,0:0:0
256,192,134045,5,0,0:0:0
100,208,134156,2,0,B|88:273|136:317,1,120.000002861023,8|0,0:0|0:0,0:0:0
412,176,134378,6,0,B|426:112|379:67,1,120.000002861023,0|8,0:0|0:0,0:0:0
92,204,134600,6,0,B|78:268|124:314,1,120.000002861023
416,180,134823,6,0,B|432:116|387:70,1,120.000002861023
256,84,135045,5,8,0:0:0
216,196,135156,1,0,0:0:0
216,228,135212,1,0,0:0:0
216,256,135267,1,0,0:0:0
374,73,135489,6,0,B|427:128|416:192|384:240|312:252,1,240.000005722046,8|4,0:0|0:0,0:0:0
192,236,135823,1,0,0:0:0
304,192,135934,1,8,0:0:0
184,176,136045,1,0,0:0:0
296,132,136156,1,0,0:0:0
176,116,136267,1,0,0:0:0
148,108,136323,1,0,0:0:0
120,100,136378,1,8,0:0:0
44,192,136489,6,0,B|4:304,1,120.000002861023
104,372,136712,1,0,0:0:0
224,352,136823,1,8,0:0:0
192,236,136934,1,0,0:0:0
188,208,136989,1,0,0:0:0
184,176,137045,1,0,0:0:0
0,20,137267,5,8,0:0:0
512,364,137489,1,4,0:0:0
404,308,137600,1,0,0:0:0
512,252,137712,5,8,0:0:0
404,204,137823,1,0,0:0:0
376,192,137878,1,0,0:0:0
348,180,137934,1,0,0:0:0
268,284,138045,1,0,0:0:0
164,204,138156,1,8,0:0:0
244,100,138267,1,0,0:0:0
348,180,138378,6,0,B|456:228,1,120.000002861023
436,348,138600,1,8,0:0:0
324,308,138712,1,0,0:0:0
296,296,138767,1,0,0:0:0
268,284,138823,1,0,0:0:0
48,192,139045,1,8,0:0:0
124,100,139156,1,0,0:0:0
244,100,139267,6,0,B|296:108|336:136|356:188|356:244,2,200,4|8|0,0:0|0:0|0:0,0:0:0
244,200,139823,1,8,0:0:0
332,152,139934,1,0,0:0:0
244,100,140045,1,8,0:0:0
244,200,140156,5,0,0:0:0
332,152,140267,1,8,0:0:0
356,140,140323,1,8,0:0:0
376,128,140378,1,8,0:0:0
456,68,140489,1,8,0:0:0
368,24,140600,1,8,0:0:0
268,32,140712,1,8,0:0:0
184,88,140823,1,8,0:0:0
140,176,140934,1,8,0:0:0
176,264,141045,6,0,B|228:312|296:308|356:268|364:208,1,240.000005722046,4|8,0:0|0:0,0:0:0
304,104,141378,1,0,0:0:0
184,88,141489,2,0,B|120:104|80:176|116:248|176:264,1,240.000005722046,0|8,0:0|0:0,0:0:0
256,176,141823,6,0,B|16:176,1,240.000005722046,4|0,0:0|0:0,0:0:0
60,288,142156,1,8,0:0:0
176,264,142267,1,0,0:0:0
204,252,142323,1,0,0:0:0
232,240,142378,1,0,0:0:0
504,116,142600,1,8,0:0:0
8,116,142823,6,0,B|32:176|84:208|152:212|212:180,2,240.000005722046,4|8|0,0:0|0:0|0:0,0:0:0
100,40,143378,1,0,0:0:0
128,48,143434,1,0,0:0:0
156,56,143489,1,8,0:0:0
256,120,143600,6,0,B|256:360,1,240.000005722046,4|0,0:0|0:0,0:0:0
360,300,143934,1,8,0:0:0
256,240,144045,1,0,0:0:0
232,224,144100,1,0,0:0:0
204,208,144156,1,0,0:0:0
8,72,144378,1,8,0:0:0
28,192,144489,1,8,0:0:0
8,312,144600,6,0,B|124:280,2,120.000002861023,4|0|8,0:0|0:0|0:0,0:0:0
28,192,144934,1,2,0:0:0
484,192,145156,1,2,0:0:0
8,72,145378,1,2,0:0:0
504,312,145600,5,2,0:0:0
484,192,145712,1,8,0:0:0
416,92,145823,1,0,0:0:0
392,76,145878,1,0,0:0:0
368,60,145934,1,0,0:0:0
256,104,146045,5,2,0:0:0
168,192,146156,1,8,0:0:0
256,280,146267,1,8,0:0:0
344,192,146378,6,0,B|315:75,2,120.000002861023,4|0|0,0:0|0:0|0:0,0:0:0
256,280,146712,1,2,0:0:0
28,192,146934,1,2,0:0:0
484,192,147156,1,2,0:0:0
8,72,147378,5,2,0:0:0
120,112,147489,1,8,0:0:0
164,224,147600,1,0,0:0:0
172,252,147656,1,0,0:0:0
180,280,147712,1,0,0:0:0
256,372,147823,1,2,0:0:0
332,280,147934,1,8,0:0:0
256,188,148045,1,8,0:0:0
180,280,148156,6,0,B|204:336|264:364|328:368|388:336,2,240.000005722046,4|8|0,0:0|0:0|0:0,0:0:0
256,188,148712,1,0,0:0:0
372,216,148823,1,8,0:0:0
360,336,148934,6,0,B|298:362|235:353|177:320|158:262,1,240.000005722046,4|0,0:0|0:0,0:0:0
256,188,149267,1,8,0:0:0
368,144,149378,1,0,0:0:0
396,136,149434,1,0,0:0:0
424,128,149489,1,0,0:0:0
88,128,149712,1,8,0:0:0
424,256,149934,6,0,B|380:292|316:308|252:296|204:248,2,240.000005722046,4|8|0,0:0|0:0|0:0,0:0:0
492,156,150489,1,0,0:0:0
388,96,150600,1,8,0:0:0
268,72,150712,6,0,B|268:312,1,240.000005722046,4|0,0:0|0:0,0:0:0
160,368,151045,1,8,0:0:0
84,276,151156,1,0,0:0:0
76,248,151212,1,0,0:0:0
68,220,151267,1,0,0:0:0
72,100,151378,1,0,0:0:0
160,20,151489,1,8,0:0:0
268,72,151600,1,8,0:0:0
256,192,151712,6,0,B|204:232|144:220,2,120.000002861023,4|0|8,0:0|0:0|0:0,0:0:0
268,72,152045,1,2,0:0:0
268,312,152267,1,2,0:0:0
72,100,152489,1,2,0:0:0
432,300,152712,5,2,0:0:0
376,192,152823,1,8,0:0:0
256,192,152934,1,0,0:0:0
228,192,152989,1,0,0:0:0
196,192,153045,1,0,0:0:0
76,208,153156,1,2,0:0:0
48,324,153267,2,0,B|156:376,1,120.000002861023,8|8,0:0|0:0,0:0:0
256,312,153489,6,0,B|340:227,2,120.000002861023,4|0|8,0:0|0:0|0:0,0:0:0
356,376,153823,1,2,0:0:0
156,8,154045,1,2,0:0:0
432,300,154267,1,2,0:0:0
80,84,154489,5,2,0:0:0
136,192,154600,1,8,0:0:0
256,192,154712,1,0,0:0:0
284,192,154767,1,0,0:0:0
316,192,154823,1,0,0:0:0
436,180,154934,1,2,0:0:0
504,80,155045,1,8,0:0:0
384,72,155156,1,8,0:0:0
436,180,155267,6,8,B|504:136|508:60|448:8|396:8,2,239.999992675781,4|4|0,0:0|0:0|0:0,0:0:0
316,192,155823,1,0,0:0:0
200,164,155934,1,8,0:0:0
164,48,156045,2,0,B|212:12|292:16|332:72|320:144,1,239.999992675781,4|0,0:0|0:0,0:0:0
200,164,156378,2,0,B|188:235|228:291|308:295|356:259,2,239.999992675781,8|0|8,0:0|0:0|0:0,0:0:0
256,56,156934,1,0,0:0:0
312,164,157045,6,0,B|323:235|283:291|203:295|155:259,2,239.999992675781,4|8|0,0:0|0:0|0:0,0:0:0
256,56,157600,1,0,0:0:0
200,164,157712,1,8,0:0:0
256,272,157823,6,0,B|328:240|332:172|304:112|228:104,1,239.999992675781,4|0,0:0|0:0,0:0:0
132,172,158156,1,8,0:0:0
144,292,158267,1,0,0:0:0
164,316,158323,1,0,0:0:0
184,340,158378,1,0,0:0:0
328,44,158600,1,8,0:0:0
444,72,158712,1,8,0:0:0
464,192,158823,6,0,B|344:192,2,120.000002861023,4|0|8,0:0|0:0|0:0,0:0:0
444,312,159156,1,2,0:0:0
68,72,159378,1,2,0:0:0
328,340,159600,1,2,0:0:0
184,44,159823,5,2,0:0:0
256,140,159934,1,8,0:0:0
256,260,160045,1,0,0:0:0
248,288,160100,1,0,0:0:0
240,316,160156,1,0,0:0:0
132,368,160267,1,2,0:0:0
28,312,160378,1,8,0:0:0
8,192,160489,1,8,0:0:0
128,192,160600,6,0,B|248:192,2,120.000002861023,4|0|8,0:0|0:0|0:0,0:0:0
8,192,160934,1,2,0:0:0
504,192,161156,1,2,0:0:0
28,312,161378,1,2,0:0:0
484,72,161600,5,2,0:0:0
504,192,161712,1,8,0:0:0
484,312,161823,1,0,0:0:0
460,332,161878,1,0,0:0:0
436,348,161934,1,0,0:0:0
316,356,162045,1,2,0:0:0
256,252,162156,1,8,0:0:0
256,132,162267,1,8,0:0:0
196,28,162378,6,0,B|76:36,2,120.000002861023,4|0|0,0:0|0:0|0:0,0:0:0
316,28,162712,1,2,0:0:0
196,356,162934,1,2,0:0:0
76,36,163156,1,2,0:0:0
436,348,163378,5,2,0:0:0
316,356,163489,1,8,0:0:0
256,252,163600,1,0,0:0:0
244,224,163656,1,0,0:0:0
232,196,163712,1,0,0:0:0
208,80,163823,1,2,0:0:0
316,28,163934,1,8,0:0:0
432,56,164045,1,8,0:0:0
488,160,164156,6,0,B|488:280,2,120.000002861023,4|0|0,0:0|0:0|0:0,0:0:0
432,56,164489,1,2,0:0:0
80,328,164712,1,2,0:0:0
316,28,164934,1,2,0:0:0
196,356,165156,5,2,0:0:0
80,328,165267,1,8,0:0:0
20,224,165378,1,0,0:0:0
16,192,165434,1,0,0:0:0
12,164,165489,1,8,0:0:0
36,48,165600,1,8,0:0:0
156,24,165712,1,8,0:0:0
256,92,165823,1,8,0:0:0
256,212,165934,6,0,B|256:332,2,120.000002861023,4|0|8,0:0|0:0|0:0,0:0:0
256,92,166267,2,0,B|320:60|372:52|436:72|472:124,2,240.000005722046,2|2|2,0:0|0:0|0:0,0:0:0
256,332,166934,5,2,0:0:0
136,328,167045,1,8,0:0:0
64,232,167156,1,0,0:0:0
60,204,167212,1,0,0:0:0
56,176,167267,1,0,0:0:0
44,56,167378,1,2,0:0:0
160,20,167489,1,8,0:0:0
256,92,167600,1,8,0:0:0
256,212,167712,6,0,B|256:332,2,120.000002861023,4|0|0,0:0|0:0|0:0,0:0:0
256,92,168045,2,0,B|192:60|140:52|76:72|40:124,2,240.000005722046,2|2|2,0:0|0:0|0:0,0:0:0
256,332,168712,5,2,0:0:0
320,232,168823,1,8,0:0:0
384,332,168934,1,0,0:0:0
412,320,168989,1,0,0:0:0
440,308,169045,1,0,0:0:0
476,192,169156,1,2,0:0:0
412,88,169267,1,8,0:0:0
356,192,169378,1,8,0:0:0
292,88,169489,6,0,B|172:88,2,120.000002861023,4|0|8,0:0|0:0|0:0,0:0:0
412,88,169823,2,0,B|460:128|476:192|468:256|440:308,2,240.000005722046,2|2|2,0:0|0:0|0:0,0:0:0
100,88,170489,5,2,0:0:0
160,192,170600,1,8,0:0:0
280,192,170712,1,0,0:0:0
308,180,170767,1,0,0:0:0
336,168,170823,1,0,0:0:0
256,80,170934,1,2,0:0:0
144,128,171045,1,8,0:0:0
88,232,171156,1,8,0:0:0
120,348,171267,6,0,B|236:376,2,120.000002861023,4|0|8,0:0|0:0|0:0,0:0:0
88,232,171600,2,0,B|116:176|168:136|228:120|288:132,2,240.000005722046,2|2|2,0:0|0:0|0:0,0:0:0
424,152,172267,6,0,B|488:52,2,120.000002861023,8|8|8,0:0|0:0|0:0,0:0:0
304,136,172600,2,0,B|356:244,2,120.000002861023,8|8|8,0:0|0:0|0:0,0:0:0
256,24,172934,1,8,0:0:0
136,44,173045,6,0,B|44:80,2,100,4|0|8,0:0|0:0|0:0,0:0:0
208,112,173378,1,8,0:0:0
256,200,173489,2,0,B|348:160,2,100,0|0|8,0:0|0:0|0:0,0:0:0
208,112,173823,2,0,B|152:120|108:152|96:208|124:256,1,200,4|0,0:0|0:0,0:0:0
208,308,174156,5,8,0:0:0
288,248,174267,1,0,0:0:0
304,228,174323,1,0,0:0:0
320,208,174378,1,0,0:0:0
364,116,174489,5,8,0:0:0
288,52,174600,1,8,0:0:0
208,112,174712,1,8,0:0:0
220,208,174823,6,0,B|300:300,1,120.000002861023,4|0,0:0|0:0,0:0:0
240,156,175045,2,0,B|148:236,1,120.000002861023,8|0,0:0|0:0,0:0:0
292,176,175267,2,0,B|212:84,1,120.000002861023
272,228,175489,2,0,B|364:148,1,120.000002861023,8|0,0:0|0:0,0:0:0
213,85,175712,5,0,0:0:0
149,234,175823,1,0,0:0:0
298,298,175934,1,8,0:0:0
362,149,176045,1,0,0:0:0
352,124,176100,1,0,0:0:0
340,96,176156,1,0,0:0:0
256,12,176267,1,0,0:0:0
136,28,176378,6,0,B|74:34|18:82|7:149|32:208,1,240.000005722046,8|4,0:0|0:0,0:0:0
149,234,176712,1,0,0:0:0
116,120,176823,1,8,0:0:0
31,205,176934,1,0,0:0:0
149,234,177045,2,0,B|216:240|256:192,1,120.000002861023
362,149,177267,2,0,B|296:144|256:192,1,120.000002861023,8|0,0:0|0:0,0:0:0
256,312,177489,5,0,0:0:0
360,252,177600,1,0,0:0:0
256,192,177712,1,8,0:0:0
256,312,177823,1,0,0:0:0
280,332,177878,1,0,0:0:0
304,352,177934,1,0,0:0:0
424,356,178045,1,0,0:0:0
360,252,178156,6,0,B|152:132,1,240.000005722046,8|4,0:0|0:0,0:0:0
48,192,178489,1,0,0:0:0
152,251,178600,1,8,0:0:0
48,312,178712,1,0,0:0:0
152,372,178823,6,0,B|256:312,1,119.999996337891
360,372,179045,2,0,B|256:312,1,119.999996337891,8|0,0:0|0:0,0:0:0
256,192,179267,5,0,0:0:0
360,252,179378,1,0,0:0:0
256,312,179489,1,8,0:0:0
256,192,179600,1,0,0:0:0
284,180,179656,1,0,0:0:0
312,168,179712,1,0,0:0:0
428,192,179823,1,0,0:0:0
372,296,179934,2,0,B|312:324|248:320|192:296|152:252,1,240.000005722046,8|4,0:0|0:0,0:0:0
256,192,180267,5,0,0:0:0
256,312,180378,1,8,0:0:0
152,252,180489,1,0,0:0:0
256,192,180600,2,0,B|360:132,1,120.000002861023
256,68,180823,2,0,B|152:128,1,120.000002861023,8|0,0:0|0:0,0:0:0
152,252,181045,5,0,0:0:0
256,308,181156,1,0,0:0:0
360,252,181267,1,8,0:0:0
360,132,181378,1,0,0:0:0
352,104,181434,1,0,0:0:0
344,76,181489,1,0,0:0:0
224,64,181600,1,0,0:0:0
128,136,181712,1,8,0:0:0
152,252,181823,1,8,0:0:0
256,308,181934,6,0,B|256:68,1,239.999992675781,4|8,0:0|0:0,0:0:0
136,72,182267,1,0,0:0:0
68,168,182378,2,0,B|152:252,1,119.999996337891
444,216,182600,2,0,B|360:132,1,119.999996337891,8|0,0:0|0:0,0:0:0
255,75,182823,6,0,B|231:131|256:192,1,120.000002861023
256,308,183045,2,0,B|280:252|256:192,1,120.000002861023,8|0,0:0|0:0,0:0:0
256,192,183212,1,0,0:0:0
256,192,183267,1,0,0:0:0
156,124,183378,1,0,0:0:0
48,176,183489,1,8,0:0:0
36,296,183600,1,0,0:0:0
144,352,183712,6,0,B|256:308,1,120.000002861023,4|0,0:0|0:0,0:0:0
368,32,183934,2,0,B|256:76,1,120.000002861023,8|0,0:0|0:0,0:0:0
256,192,184156,2,0,B|304:232|360:252,1,120.000002861023
256,192,184378,2,0,B|208:152|152:132,1,120.000002861023,8|0,0:0|0:0,0:0:0
48,192,184600,5,0,0:0:0
32,312,184712,1,0,0:0:0
144,352,184823,1,8,0:0:0
256,308,184934,1,0,0:0:0
256,280,184989,1,0,0:0:0
256,248,185045,1,0,0:0:0
256,128,185156,1,0,0:0:0
180,36,185267,2,0,B|88:112,1,120.000002861023,8|0,0:0|0:0,0:0:0
332,348,185489,6,0,B|424:272,1,120.000002861023,4|0,0:0|0:0,0:0:0
174,38,185712,2,0,B|85:117,1,120.000002861023,8|0,0:0|0:0,0:0:0
337,345,185934,2,0,B|426:266,1,120.000002861023
169,41,186156,2,0,B|82:123,1,120.000002861023,8|0,0:0|0:0,0:0:0
28,232,186378,5,0,0:0:0
104,324,186489,1,0,0:0:0
224,308,186600,2,0,B|256:192,1,120.000002861023,8|0,0:0|0:0,0:0:0
255,192,186767,1,0,0:0:0
255,192,186823,1,0,0:0:0
256,72,186934,1,0,0:0:0
152,132,187045,6,0,B|176:192|236:220|300:224|356:196,1,240.000005722046,8|4,0:0|0:0,0:0:0
364,76,187378,1,0,0:0:0
256,128,187489,1,8,0:0:0
356,195,187600,1,0,0:0:0
364,76,187712,6,0,B|244:60,1,120.000002861023
148,308,187934,2,0,B|268:324,1,120.000002861023,8|0,0:0|0:0,0:0:0
376,276,188156,6,0,B|440:176,2,120.000002861023,0|8|8,0:0|0:0|0:0,0:0:0
256,248,188489,6,0,B|256:128,2,120.000002861023,8|8|8,0:0|0:0|0:0,0:0:0
136,276,188823,6,0,B|72:176,2,120.000002861023,8|8|4,0:0|0:0|0:0,0:0:0
256,192,189100,12,0,201489,0:0:0
