osu file format v14

[General]
AudioFilename: Yousei Teikoku - Sacrifice.mp3
AudioLeadIn: 1000
PreviewTime: 140823
Countdown: 0
SampleSet: Soft
StackLeniency: 0.7
Mode: 0
LetterboxInBreaks: 0
WidescreenStoryboard: 1

[Editor]
DistanceSpacing: 2
BeatDivisor: 4
GridSize: 4
TimelineZoom: 1.7

[Metadata]
Title:Sacrifice
TitleUnicode:Sacrifice
Artist:Yousei Teikoku
ArtistUnicode:Yousei Teikoku
Creator:Asia Senpai
Version:Snep
Source:Yousei Teikoku
Tags:
BeatmapID:666092
BeatmapSetID:296696

[Difficulty]
HPDrainRate:5
CircleSize:4
OverallDifficulty:7
ApproachRate:10
SliderMultiplier:2
SliderTickRate:2

[Events]
//Background and Video events
0,0,"117863.jpg",0,0
//Break Periods
//Storyboard Layer 0 (Background)
//Storyboard Layer 1 (Fail)
//Storyboard Layer 2 (Pass)
//Storyboard Layer 3 (Foreground)
//Storyboard Sound Samples

[TimingPoints]
601,222.222222222222,4,2,1,80,1,0

[Colours]
Combo1 : 255,70,70
Combo2 : 89,255,89
Combo3 : 187,187,255
Combo4 : 255,130,255
Combo5 : 255,255,111

[HitObjects]
88,88,601,6,0,L|204:108,1,100
344,64,823,1,0,0:0:0:0:
192,108,934,1,0,0:0:0:0:
328,188,1045,1,0,0:0:0:0:
184,252,1156,1,0,0:0:0:0:
269,78,1267,1,0,0:0:0:0:
328,188,1378,6,0,P|251:177|276:76,1,200
328,188,1712,1,0,0:0:0:0:
192,108,1823,1,0,0:0:0:0:
192,112,1878,1,0,0:0:0:0:
192,116,1934,1,0,0:0:0:0:
448,88,2045,6,0,P|416:92|456:116,2,100
372,244,2378,2,0,L|236:204,1,100
160,156,2600,1,0,0:0:0:0:
92,248,2712,1,0,0:0:0:0:
44,144,2823,1,0,0:0:0:0:
128,64,2934,2,0,B|196:48|196:48|260:64,2,100
308,148,3267,5,0,0:0:0:0:
108,152,3378,1,0,0:0:0:0:
252,260,3489,1,0,0:0:0:0:
208,80,3601,1,0,0:0:0:0:
208,80,3656,1,0,0:0:0:0:
208,80,3712,1,0,0:0:0:0:
156,260,3823,1,0,0:0:0:0:
204,80,3934,2,0,B|284:152|180:204|264:272,1,200
384,112,4267,5,0,0:0:0:0:
388,212,4378,1,0,0:0:0:0:
316,280,4489,1,0,0:0:0:0:
216,272,4600,1,0,0:0:0:0:
140,208,4712,1,0,0:0:0:0:
140,108,4823,2,0,P|228:36|332:56,1,200
100,68,5156,5,0,0:0:0:0:
308,40,5267,1,0,0:0:0:0:
228,224,5378,1,0,0:0:0:0:
228,224,5434,1,0,0:0:0:0:
228,224,5489,1,0,0:0:0:0:
152,40,5600,1,0,0:0:0:0:
352,72,5712,2,0,B|276:192|176:112,1,200
196,120,6045,5,0,0:0:0:0:
228,224,6156,2,0,L|310:280,1,100
145,167,6378,2,0,L|227:223,1,100
352,72,6600,2,0,B|224:44|224:44|244:140,1,200
116,272,6934,1,0,0:0:0:0:
316,280,7045,1,0,0:0:0:0:
312,80,7156,1,0,0:0:0:0:
312,80,7212,5,0,0:0:0:0:
312,80,7267,1,0,0:0:0:0:
112,88,7378,1,0,0:0:0:0:
268,176,7489,2,0,B|292:272|412:192|456:312,2,200
364,164,8045,1,0,0:0:0:0:
428,88,8156,1,0,0:0:0:0:
464,180,8267,1,0,0:0:0:0:
316,264,8378,1,0,0:0:0:0:
404,260,8489,1,0,0:0:0:0:
288,200,8600,5,0,0:0:0:0:
404,260,8712,1,0,0:0:0:0:
216,220,8823,1,0,0:0:0:0:
404,260,8934,1,0,0:0:0:0:
404,260,8989,1,0,0:0:0:0:
404,260,9045,1,0,0:0:0:0:
200,148,9156,1,0,0:0:0:0:
404,260,9267,1,0,0:0:0:0:
136,164,9378,22,0,L|252:112,1,100
324,96,9600,2,0,L|420:152,1,100
476,224,9823,2,0,L|400:336,1,100
316,312,10045,1,0,0:0:0:0:
216,308,10156,2,0,P|82:233|68:160,1,200
128,116,10489,5,0,0:0:0:0:
204,180,10600,1,0,0:0:0:0:
284,120,10712,1,0,0:0:0:0:
284,120,10767,1,0,0:0:0:0:
284,120,10823,1,0,0:0:0:0:
364,180,10934,1,0,0:0:0:0:
432,96,11045,2,0,P|480:192|416:264,1,200
364,180,11378,1,0,0:0:0:0:
364,180,11489,2,0,P|308:132|196:200,1,200
352,316,11823,5,0,0:0:0:0:
368,208,11934,2,0,L|244:156,1,100
160,116,12156,1,0,0:0:0:0:
316,240,12267,1,0,0:0:0:0:
208,72,12378,1,0,0:0:0:0:
264,264,12489,1,0,0:0:0:0:
264,264,12545,1,0,0:0:0:0:
264,264,12600,1,0,0:0:0:0:
268,64,12712,1,0,0:0:0:0:
204,272,12823,2,0,P|208:128|260:104,1,200
340,104,13156,5,0,0:0:0:0:
420,164,13267,1,0,0:0:0:0:
384,256,13378,1,0,0:0:0:0:
284,252,13489,1,0,0:0:0:0:
256,160,13600,1,0,0:0:0:0:
176,96,13712,1,0,0:0:0:0:
100,164,13823,1,0,0:0:0:0:
232,256,13934,6,0,B|208:256|208:256|192:200|192:200|232:160,2,100
340,104,14267,1,0,0:0:0:0:
340,104,14323,1,0,0:0:0:0:
340,104,14378,1,0,0:0:0:0:
384,256,14489,1,0,0:0:0:0:
256,160,14600,1,0,0:0:0:0:
420,164,14712,1,0,0:0:0:0:
284,252,14823,1,0,0:0:0:0:
232,252,14934,5,0,0:0:0:0:
176,96,15045,1,0,0:0:0:0:
136,248,15156,1,0,0:0:0:0:
256,160,15267,1,0,0:0:0:0:
100,164,15378,1,0,0:0:0:0:
420,164,15489,1,0,0:0:0:0:
256,52,15600,1,0,0:0:0:0:
100,164,15712,1,0,0:0:0:0:
256,288,15823,1,0,0:0:0:0:
176,96,15934,5,0,0:0:0:0:
256,160,16045,1,0,0:0:0:0:
256,160,16100,1,0,0:0:0:0:
256,160,16156,1,0,0:0:0:0:
336,104,16267,1,0,0:0:0:0:
420,164,16378,1,0,0:0:0:0:
348,232,16489,1,0,0:0:0:0:
256,288,16600,2,0,L|132:260,1,100
184,168,16823,2,0,L|284:188,1,100
272,232,17045,6,0,L|148:204,1,100
200,112,17268,2,0,L|300:132,1,100
388,160,17489,1,0,0:0:0:0:
400,260,17600,1,0,0:0:0:0:
332,336,17712,1,0,0:0:0:0:
232,340,17823,1,0,0:0:0:0:
140,308,17934,1,0,0:0:0:0:
76,224,18045,1,0,0:0:0:0:
72,124,18156,5,0,0:0:0:0:
148,60,18267,1,0,0:0:0:0:
244,36,18378,1,0,0:0:0:0:
340,64,18489,1,0,0:0:0:0:
388,160,18600,2,0,L|276:96,1,100
348,200,18823,2,0,L|236:128,1,100
308,236,19045,2,0,L|192:160,1,100
268,272,19267,2,0,L|160:200,1,100
296,112,19489,5,0,0:0:0:0:
260,148,19600,1,0,0:0:0:0:
220,180,19712,1,0,0:0:0:0:
184,212,19823,1,0,0:0:0:0:
268,272,19934,1,0,0:0:0:0:
308,236,20045,1,0,0:0:0:0:
352,200,20156,1,0,0:0:0:0:
388,160,20267,1,0,0:0:0:0:
368,64,20378,6,0,L|224:40,1,100
176,80,20600,2,0,L|116:216,1,100
104,268,20823,2,0,L|192:360,1,100
272,344,21045,2,0,L|412:320,1,100
448,264,21267,2,0,L|452:152,1,100
352,156,21489,1,0,0:0:0:0:
252,152,21600,1,0,0:0:0:0:
216,244,21712,1,0,0:0:0:0:
300,296,21823,1,0,0:0:0:0:
384,244,21934,5,0,0:0:0:0:
300,296,22045,1,0,0:0:0:0:
216,244,22156,1,0,0:0:0:0:
252,152,22267,1,0,0:0:0:0:
352,156,22378,1,0,0:0:0:0:
300,216,22489,2,0,L|196:188,1,100
300,216,22712,2,0,L|304:112,1,100
300,216,22934,2,0,L|216:304,1,100
300,216,23156,6,0,L|384:320,1,100
456,256,23378,1,0,0:0:0:0:
404,172,23489,1,0,0:0:0:0:
328,108,23600,1,0,0:0:0:0:
228,104,23712,2,0,P|164:84|112:32,2,100
328,108,24045,2,0,P|392:88|444:36,2,100
228,104,24378,2,0,P|179:115|138:143,2,100
328,108,24712,2,0,P|376:119|417:147,2,100
272,192,25045,5,0,0:0:0:0:
200,260,25156,1,0,0:0:0:0:
272,328,25267,1,0,0:0:0:0:
344,260,25378,1,0,0:0:0:0:
272,192,25489,1,0,0:0:0:0:
200,124,25600,1,0,0:0:0:0:
272,56,25712,1,0,0:0:0:0:
348,124,25823,1,0,0:0:0:0:
420,192,25934,6,0,L|312:192,1,100
124,192,26156,2,0,L|232:192,1,100
408,248,26378,2,0,L|320:200,1,100
140,128,26600,2,0,L|240:172,1,100
384,300,26823,2,0,L|304:208,1,100
312,124,27045,1,0,0:0:0:0:
240,52,27156,1,0,0:0:0:0:
164,120,27267,1,0,0:0:0:0:
240,184,27378,5,0,0:0:0:0:
316,248,27489,2,0,P|276:284|204:284,1,100
184,204,27712,2,0,P|219:170|268:160,1,100
332,276,27934,2,0,P|292:312|220:312,1,100
168,180,28156,2,0,P|203:146|252:136,1,100
352,312,28378,2,0,P|312:348|240:348,1,100
168,356,28600,2,0,P|119:346|83:312,1,100
52,216,28823,1,0,0:0:0:0:
84,120,28934,5,0,0:0:0:0:
164,60,29045,1,0,0:0:0:0:
264,48,29156,1,0,0:0:0:0:
248,148,29267,2,0,P|204:128|128:172,1,100
136,236,29489,1,0,0:0:0:0:
236,252,29600,1,0,0:0:0:0:
332,224,29712,1,0,0:0:0:0:
416,172,29823,1,0,0:0:0:0:
376,80,29934,6,0,P|336:164|368:72,2,300
336,112,30712,1,0,0:0:0:0:
384,200,30823,1,0,0:0:0:0:
284,208,30934,1,0,0:0:0:0:
240,120,31045,1,0,0:0:0:0:
184,204,31156,1,0,0:0:0:0:
156,108,31267,2,0,P|196:36|240:28,1,100
336,32,31489,2,0,P|376:36|432:108,1,100
448,172,31712,5,0,0:0:0:0:
348,172,31823,1,0,0:0:0:0:
348,272,31934,1,0,0:0:0:0:
260,224,32045,1,0,0:0:0:0:
260,224,32100,1,0,0:0:0:0:
260,224,32156,1,0,0:0:0:0:
348,172,32267,1,0,0:0:0:0:
264,120,32378,6,0,L|144:128,1,100
152,28,32600,2,0,L|260:24,1,100
340,72,32823,2,0,L|348:176,1,100
260,224,33045,2,0,L|364:280,1,100
280,344,33267,2,0,B|244:292|236:352|236:352|136:260,2,200
368,296,33823,1,0,0:0:0:0:
368,296,33878,1,0,0:0:0:0:
368,296,33934,5,0,0:0:0:0:
344,208,34045,1,0,0:0:0:0:
244,196,34156,2,0,P|168:120|140:184,1,200
156,264,34489,1,0,0:0:0:0:
72,212,34600,1,0,0:0:0:0:
60,112,34712,1,0,0:0:0:0:
152,68,34823,1,0,0:0:0:0:
244,108,34934,1,0,0:0:0:0:
160,160,35045,5,0,0:0:0:0:
332,60,35156,1,0,0:0:0:0:
348,160,35267,2,0,L|244:236,1,100
284,316,35489,1,0,0:0:0:0:
160,160,35600,1,0,0:0:0:0:
160,160,35656,1,0,0:0:0:0:
160,160,35712,1,0,0:0:0:0:
244,108,35823,6,0,L|348:148,1,100
152,68,36045,2,0,L|264:116,1,100
60,28,36267,2,0,L|196:88,1,100
78,157,36489,2,0,P|64:203|91:243,1,100
176,296,36712,2,0,P|207:259|194:213,1,100
128,140,36934,1,0,0:0:0:0:
220,180,37045,1,0,0:0:0:0:
292,112,37156,1,0,0:0:0:0:
384,76,37267,1,0,0:0:0:0:
480,104,37378,1,0,0:0:0:0:
488,128,37434,1,0,0:0:0:0:
492,152,37489,1,0,0:0:0:0:
316,56,37600,6,0,L|376:164,1,100
456,100,37823,2,0,L|396:232,1,100
324,148,38045,2,0,L|384:256,1,100
412,328,38267,1,0,0:0:0:0:
320,368,38378,1,0,0:0:0:0:
224,340,38489,1,0,0:0:0:0:
200,244,38600,1,0,0:0:0:0:
228,148,38712,1,0,0:0:0:0:
56,44,38823,1,0,0:0:0:0:
156,52,38934,5,0,0:0:0:0:
256,68,39045,2,0,P|292:136|276:168,1,100
216,224,39267,2,0,P|180:292|196:324,1,100
264,372,39489,2,0,P|352:344|368:324,1,100
416,264,39712,1,0,0:0:0:0:
332,212,39823,1,0,0:0:0:0:
424,168,39934,1,0,0:0:0:0:
336,124,40045,1,0,0:0:0:0:
424,72,40156,1,0,0:0:0:0:
328,40,40267,5,0,0:0:0:0:
224,40,40378,2,0,B|173:40|173:40|173:98,1,100
174,188,40600,2,0,B|174:239|174:239|226:239,1,100
332,237,40823,2,0,B|383:237|383:237|383:188,1,100
380,88,41045,2,0,B|380:39|380:39|329:39,1,100
149,35,41267,1,0,0:0:0:0:
229,195,41378,1,0,0:0:0:0:
328,40,41489,1,0,0:0:0:0:
185,86,41600,5,0,0:0:0:0:
301,182,41712,1,0,0:0:0:0:
297,72,41823,1,0,0:0:0:0:
214,144,41934,1,0,0:0:0:0:
321,168,42045,1,0,0:0:0:0:
255,92,42156,1,0,0:0:0:0:
250,191,42267,1,0,0:0:0:0:
321,120,42378,1,0,0:0:0:0:
410,164,42489,1,0,0:0:0:0:
356,248,42600,6,0,L|213:245,1,100
160,211,42823,1,0,0:0:0:0:
102,128,42934,1,0,0:0:0:0:
70,222,43045,1,0,0:0:0:0:
121,307,43156,1,0,0:0:0:0:
220,315,43267,2,0,P|263:283|226:225,1,100
160,211,43489,2,0,P|159:150|188:118,1,100
255,92,43712,2,0,P|314:81|356:108,1,100
410,164,43934,2,0,P|418:234|376:272,1,100
310,225,44156,5,0,0:0:0:0:
156,97,44267,1,0,0:0:0:0:
348,42,44378,1,0,0:0:0:0:
260,89,44489,2,0,P|231:140|286:178,1,100
315,169,44712,2,0,P|306:86|287:90,1,100
206,77,44934,2,0,P|177:128|232:166,1,100
354,175,45156,2,0,P|345:92|326:96,1,100
167,68,45378,2,0,P|138:119|193:157,1,100
355,173,45600,2,0,P|320:279|315:297,1,100
128,214,45823,6,0,L|176:102,1,100
314,173,46045,2,0,L|275:266,1,100
190,236,46267,2,0,L|238:124,1,100
401,197,46489,2,0,L|364:290,1,100
250,254,46712,2,0,L|289:159,1,100
456,218,46934,2,0,L|419:311,1,100
