osu file format v9

[General]
AudioFilename: Rebellion Anthem.mp3
AudioLeadIn: 0
PreviewTime: 106942
Countdown: 0
SampleSet: Normal
StackLeniency: 0.7
Mode: 1
LetterboxInBreaks: 1

[Editor]
Bookmarks: 5422,27575,45183,56477,67771,79065,101653,107300,118594,124241,135535,146830,169418,175065,186359,192006,203300,225888,255535,261182,272477,283771,295065,306006
DistanceSpacing: 0.8
BeatDivisor: 4
GridSize: 32

[Metadata]
Title:Rebellion Anthem
Artist:Yousei Teikoku
Creator:Medi-chan
Version:Taiko
Source:
Tags:

[Difficulty]
HPDrainRate:6
CircleSize:5
OverallDifficulty:6
ApproachRate:5
SliderMultiplier:1.6
SliderTickRate:1

[Events]
//Background and Video events
0,0,"Taiko BG.jpeg"
//Break Periods
//Storyboard Layer 0 (Background)
//Storyboard Layer 1 (Fail)
//Storyboard Layer 2 (Pass)
//Storyboard Layer 3 (Foreground)
//Storyboard Sound Samples
//Background Colour Transformations
3,100,163,162,255

[TimingPoints]
5423,461.538461538462,4,1,0,100,1,0
12806,-100,4,2,0,100,0,0
42345,-100,4,2,0,30,0,0
45167,352.941176470588,4,1,0,100,1,0
67766,-100,4,1,0,85,0,0
107295,-100,4,1,0,100,0,1
124236,-100,4,1,0,100,0,0
135535,-100,4,1,0,85,0,0
175060,-100,4,1,0,100,0,1
192001,-100,4,1,0,100,0,0
203292,-100,4,1,0,75,0,0
225888,-100,4,1,0,60,0,0
253586,-100,4,1,0,70,0,0
253763,-100,4,1,0,80,0,0
253939,-100,4,1,0,90,0,0
254116,-100,4,1,0,100,0,0
254469,-100,4,1,0,85,0,0
261177,-100,4,1,0,100,0,1
283766,-100,4,1,0,100,0,0

[HitObjects]
256,192,12807,1,0
256,192,13499,1,8
256,192,13615,1,8
256,192,13730,1,0
256,192,13961,1,0
256,192,14653,1,0
256,192,15423,1,0
256,192,15499,1,0
256,192,15576,1,0
256,192,15653,1,0
256,192,16499,1,0
256,192,17192,1,8
256,192,17307,1,8
256,192,17423,1,0
256,192,17653,1,0
256,192,18346,1,0
256,192,19038,1,0
256,192,19115,1,0
256,192,19192,1,0
256,192,19269,1,0
256,192,20192,1,0
256,192,20884,1,8
256,192,20999,1,8
256,192,21115,1,0
256,192,21346,1,0
256,192,22038,1,0
256,192,22730,1,0
256,192,22807,1,0
256,192,22884,1,0
256,192,22961,1,0
256,192,23884,1,0
256,192,24576,1,8
256,192,24692,1,0
256,192,24807,1,0
256,192,25730,1,0
256,192,26423,1,8
256,192,26538,1,8
256,192,26653,1,8
256,192,27576,5,4
256,192,28269,1,0
256,192,28384,1,0
256,192,28499,1,8
256,192,28730,1,8
256,192,29423,1,8
256,192,30192,1,0
256,192,30269,1,0
256,192,30346,1,0
256,192,30423,1,0
256,192,31269,1,8
256,192,31961,1,0
256,192,32038,1,0
256,192,32115,1,0
256,192,32192,1,8
256,192,33115,1,8
256,192,33807,1,0
256,192,33884,1,0
256,192,33961,1,0
256,192,34038,1,8
256,192,34961,1,8
256,192,35653,1,8
256,192,35769,1,0
256,192,35884,1,0
256,192,36807,1,8
256,192,37499,1,8
256,192,37615,1,8
256,192,37730,1,8
256,192,38653,1,0
256,192,39346,1,8
256,192,39423,1,0
256,192,39499,1,0
256,192,39576,1,0
256,192,40499,1,8
256,192,41192,1,0
256,192,41269,1,0
256,192,41346,1,0
256,192,41423,1,0
256,192,42346,1,0
256,192,45167,5,4
256,192,45343,1,0
256,192,45696,1,8
256,192,45784,1,8
256,192,45872,1,0
256,192,46049,1,0
256,192,46402,1,8
256,192,46490,1,8
256,192,46578,1,0
256,192,46755,1,0
256,192,47108,1,8
256,192,47196,1,8
256,192,47284,1,0
256,192,47637,1,4
256,192,47990,1,0
256,192,48167,1,0
256,192,48519,1,0
256,192,48608,1,8
256,192,48696,1,8
256,192,48872,1,0
256,192,49225,1,0
256,192,49314,1,8
256,192,49402,1,8
256,192,49578,1,0
256,192,49931,1,0
256,192,50019,1,8
256,192,50108,1,8
256,192,50461,1,4
256,192,50814,1,4
256,192,50990,1,0
256,192,51343,1,0
256,192,51431,1,8
256,192,51519,1,0
256,192,51696,1,0
256,192,52049,1,0
256,192,52137,1,8
256,192,52225,1,0
256,192,52402,1,0
256,192,52755,1,8
256,192,52843,1,0
256,192,52931,1,8
256,192,53284,1,4
256,192,53637,1,0
256,192,53814,1,0
256,192,54166,1,0
256,192,54255,1,8
256,192,54343,1,8
256,192,54519,1,0
256,192,54872,1,0
256,192,54961,1,8
256,192,55049,1,8
256,192,55225,1,0
256,192,55578,1,8
256,192,55666,1,8
256,192,55755,1,0
256,192,56461,5,4
256,192,56637,1,8
256,192,56814,1,0
256,192,56902,1,0
256,192,56990,1,8
256,192,57166,1,0
256,192,57255,1,0
256,192,57343,1,8
256,192,57519,1,8
256,192,57696,1,8
256,192,57872,1,0
256,192,58049,1,0
256,192,58225,1,0
256,192,58314,1,0
256,192,58402,1,8
256,192,58578,1,0
256,192,58666,1,0
256,192,58755,1,0
256,192,58843,1,0
256,192,58931,1,8
256,192,59108,1,0
256,192,59284,1,0
256,192,59461,1,8
256,192,59638,1,0
256,192,59726,1,0
256,192,59814,1,8
256,192,59990,1,0
256,192,60079,1,0
256,192,60167,1,8
256,192,60343,1,8
256,192,60520,1,8
256,192,60696,1,0
256,192,60873,1,0
256,192,61049,1,0
256,192,61138,1,0
256,192,61226,1,8
256,192,61402,1,0
256,192,61490,1,0
256,192,61579,1,0
256,192,61667,1,8
256,192,61755,1,0
256,192,61932,1,0
256,192,62108,1,0
256,192,62284,1,8
256,192,62461,1,8
256,192,62549,1,8
256,192,62637,1,8
256,192,62814,1,0
256,192,62902,1,0
256,192,62990,1,8
256,192,63078,1,8
256,192,63166,1,0
256,192,63343,1,8
256,192,63519,1,0
256,192,63696,1,8
256,192,63872,1,0
256,192,63961,1,0
256,192,64049,1,8
256,192,64225,1,0
256,192,64314,1,0
256,192,64402,1,8
256,192,64578,1,0
256,192,64755,1,8
256,192,64931,1,0
256,192,65108,1,8
256,192,65284,1,0
256,192,65372,1,0
256,192,65461,1,8
256,192,65637,1,0
256,192,65725,1,0
256,192,65814,1,8
256,192,65990,1,0
256,192,66078,1,8
256,192,66166,1,8
256,192,66343,1,0
256,192,66431,1,0
256,192,66519,1,8
256,192,66608,1,8
256,192,66696,1,0
256,192,66872,1,8
256,192,67049,1,0
256,192,67225,1,0
256,192,67402,1,4
256,192,67578,1,4
256,192,67755,5,4
256,192,67931,1,0
256,192,68108,1,0
256,192,68196,1,0
256,192,68284,1,0
256,192,68637,1,0
256,192,68814,1,0
256,192,68902,1,0
256,192,68990,1,0
256,192,69078,1,0
256,192,69166,1,0
256,192,69343,1,0
256,192,69519,1,0
256,192,69608,1,0
256,192,69696,1,0
256,192,69872,1,0
256,192,70049,1,0
256,192,70225,1,0
256,192,70314,1,0
256,192,70402,1,0
256,192,70578,1,0
256,192,70755,1,0
256,192,70931,1,0
256,192,71019,1,0
256,192,71108,1,0
256,192,71284,1,0
256,192,71461,1,0
256,192,71637,1,0
256,192,71725,1,0
256,192,71814,1,0
256,192,71990,1,0
256,192,72166,1,0
256,192,72255,1,0
256,192,72343,1,0
256,192,72431,1,0
256,192,72519,1,0
256,192,72696,1,0
256,192,72872,1,0
256,192,72961,1,0
256,192,73049,1,0
256,192,73137,1,0
256,192,73225,1,0
256,192,73314,1,0
256,192,73402,1,0
256,192,73578,1,0
256,192,73931,1,0
256,192,74019,1,0
256,192,74108,1,0
256,192,74284,1,0
256,192,74461,1,0
256,192,74637,1,0
256,192,74725,1,0
256,192,74814,1,0
256,192,74990,1,0
256,192,75166,1,0
256,192,75255,1,0
256,192,75343,1,0
256,192,75431,1,0
256,192,75519,1,0
256,192,75696,1,0
256,192,75872,1,0
256,192,76049,1,0
256,192,76137,1,0
256,192,76225,1,0
256,192,76402,1,0
256,192,76490,1,0
256,192,76578,1,0
256,192,76666,1,0
256,192,76755,1,0
256,192,76931,1,0
256,192,77108,1,0
256,192,77284,1,0
256,192,77372,1,0
256,192,77461,1,0
256,192,77549,1,0
256,192,77637,1,0
256,192,77814,1,0
256,192,77990,1,0
256,192,78078,1,0
256,192,78166,1,0
256,192,78343,1,0
256,192,78519,1,0
256,192,78696,1,4
256,192,78872,1,4
256,192,79049,5,4
256,192,79225,1,8
256,192,79402,1,0
256,192,79578,1,8
256,192,79755,1,0
256,192,79931,1,8
256,192,80108,1,0
256,192,80284,1,8
256,192,80461,1,8
256,192,80637,1,8
256,192,80814,1,0
256,192,80990,1,8
256,192,81166,1,8
256,192,81343,1,8
256,192,81519,1,0
256,192,81696,1,8
256,192,81872,1,0
256,192,82049,1,8
256,192,82225,1,0
256,192,82402,1,8
256,192,82578,1,0
256,192,82755,1,8
256,192,82931,1,0
256,192,83108,1,8
256,192,83284,1,8
256,192,83461,1,8
256,192,83637,1,8
256,192,83814,1,0
256,192,83990,1,8
256,192,84166,1,8
256,192,84343,1,8
256,192,84431,1,0
256,192,84519,1,0
256,192,84608,1,0
256,192,84696,1,8
256,192,84872,1,0
256,192,85049,1,8
256,192,85225,1,0
256,192,85402,1,8
256,192,85578,1,0
256,192,85755,1,8
256,192,85931,1,0
256,192,86108,1,0
256,192,86284,1,0
256,192,86461,1,8
256,192,86637,1,0
256,192,86814,1,0
256,192,86990,1,0
256,192,87166,1,8
256,192,87343,1,0
256,192,87519,1,8
256,192,87696,1,0
256,192,87872,1,8
256,192,88049,1,0
256,192,88225,1,8
256,192,88402,1,0
256,192,88578,1,8
256,192,88755,1,0
256,192,88931,1,0
256,192,89108,1,0
256,192,89284,1,0
256,192,89461,1,0
256,192,89637,1,8
256,192,89814,1,0
256,192,89990,1,0
256,192,90078,1,8
256,192,90166,1,0
256,192,90255,1,0
256,192,90343,1,8
256,192,90519,1,0
256,192,90696,1,8
256,192,90872,1,8
256,192,91049,1,0
256,192,91225,1,0
256,192,91402,1,8
256,192,91578,1,8
256,192,91755,1,0
256,192,91843,1,0
256,192,91931,1,8
256,192,92108,1,0
256,192,92284,1,8
256,192,92461,1,0
256,192,92549,1,0
256,192,92637,1,8
256,192,92814,1,0
256,192,92990,1,8
256,192,93166,1,8
256,192,93343,1,0
256,192,93519,1,0
256,192,93696,1,8
256,192,93872,1,8
256,192,94049,1,0
256,192,94225,1,0
256,192,94402,1,0
256,192,94578,1,0
256,192,94666,1,0
256,192,94755,1,0
256,192,94931,1,8
256,192,95108,1,0
256,192,95284,1,0
256,192,95372,1,0
256,192,95461,1,0
256,192,95637,1,8
256,192,95725,1,0
256,192,95814,1,8
256,192,95902,1,0
256,192,95990,1,0
256,192,96166,1,8
256,192,96343,1,0
256,192,96519,1,8
256,192,96696,1,0
256,192,96784,1,0
256,192,96872,1,8
256,192,97049,1,0
256,192,97225,1,8
256,192,97402,1,0
256,192,97490,1,0
256,192,97578,1,8
256,192,97666,1,0
256,192,97755,1,0
256,192,97931,1,8
256,192,98108,1,0
256,192,98284,1,8
256,192,98461,1,0
256,192,98637,1,8
256,192,98814,1,0
256,192,98902,1,0
256,192,98990,1,8
256,192,99166,1,8
256,192,99343,1,0
256,192,99431,1,0
256,192,99519,1,8
256,192,99696,1,8
256,192,99872,1,0
256,192,99961,1,0
256,192,100049,1,0
256,192,100137,1,0
256,192,100225,1,8
256,192,100402,1,0
256,192,100490,1,0
256,192,100578,1,0
256,192,100666,1,8
256,192,100755,1,0
256,192,100843,1,0
256,192,100931,1,8
256,192,101019,1,0
256,192,101108,1,8
256,192,101196,1,8
256,192,101284,1,0
256,192,101372,1,8
256,192,101461,1,8
256,192,101549,1,8
256,192,101637,5,8
256,192,101814,1,0
256,192,101990,1,8
256,192,102166,1,8
256,192,102431,1,0
256,192,102519,1,8
256,192,102696,1,0
256,192,102872,1,0
256,192,102961,1,0
256,192,103049,1,8
256,192,103225,1,8
256,192,103402,1,8
256,192,103578,1,0
256,192,103666,1,0
256,192,103755,1,8
256,192,104019,1,0
256,192,104108,1,8
256,192,104284,1,0
256,192,104372,1,0
256,192,104461,1,8
256,192,104637,1,0
256,192,104814,1,8
256,192,104990,1,0
256,192,105166,1,8
256,192,105343,1,0
256,192,105519,1,0
256,192,105696,1,8
256,192,105784,1,0
256,192,105872,1,0
256,192,106049,1,0
256,192,106137,1,0
256,192,106225,1,0
256,192,106314,1,8
256,192,106490,1,0
256,192,106578,1,8
256,192,106931,1,12
256,192,107284,5,4
256,192,107461,1,8
256,192,107637,1,0
256,192,107725,1,0
256,192,107814,1,8
256,192,107990,1,0
256,192,108078,1,0
256,192,108166,1,8
256,192,108343,1,0
256,192,108519,1,8
256,192,108696,1,8
256,192,108784,1,8
256,192,108872,1,0
256,192,109049,1,8
256,192,109225,1,0
256,192,109314,1,0
256,192,109402,1,8
256,192,109578,1,0
256,192,109755,1,8
256,192,109931,1,0
256,192,110019,1,0
256,192,110108,1,8
256,192,110284,1,0
256,192,110372,1,8
256,192,110461,1,8
256,192,110637,1,8
256,192,110814,1,0
256,192,110902,1,0
256,192,110990,1,8
256,192,111166,1,0
256,192,111343,1,0
256,192,111431,1,0
256,192,111519,1,8
256,192,111696,1,0
256,192,111872,1,8
256,192,112049,1,8
256,192,112225,1,8
256,192,112314,1,8
256,192,112402,1,0
256,192,112490,1,0
256,192,112578,1,8
256,192,112666,1,8
256,192,112755,1,0
256,192,112843,1,8
256,192,112931,1,0
256,192,113108,1,8
256,192,113284,1,0
256,192,113461,1,0
256,192,113637,1,8
256,192,113725,1,0
256,192,113814,1,0
256,192,113990,1,0
256,192,114166,1,0
256,192,114255,1,8
256,192,114343,1,0
256,192,114519,1,0
256,192,114696,1,8
256,192,114784,1,8
256,192,114872,1,0
256,192,115049,1,0
256,192,115225,1,8
256,192,115314,1,8
256,192,115402,1,0
256,192,115490,1,0
256,192,115578,1,8
256,192,115755,1,0
256,192,115843,1,0
256,192,115931,1,8
256,192,116108,1,0
256,192,116284,1,8
256,192,116461,1,8
256,192,116549,1,0
256,192,116637,1,0
256,192,116725,1,8
256,192,116814,1,8
256,192,116990,1,0
256,192,117166,1,8
256,192,117255,1,8
256,192,117343,1,0
256,192,117431,1,0
256,192,117519,1,8
256,192,117696,1,0
256,192,117872,1,8
256,192,118049,1,0
256,192,118137,1,0
256,192,118225,1,0
256,192,118314,1,0
256,192,118402,1,0
256,192,118490,1,0
256,192,118578,5,8
256,192,118755,1,4
256,192,119108,1,4
256,192,119284,1,4
256,192,119637,1,4
256,192,119814,1,4
256,192,120166,1,4
256,192,120343,1,4
256,192,120696,1,4
256,192,121049,1,12
256,192,121402,1,12
256,192,121578,1,4
256,192,121931,1,4
256,192,122108,1,4
256,192,122461,1,4
256,192,122637,1,4
256,192,122990,1,4
256,192,123166,1,4
256,192,123519,1,4
256,192,123872,1,12
256,192,124225,5,4
256,192,124402,1,0
256,192,124578,1,0
256,192,124666,1,0
256,192,124755,1,8
256,192,124843,1,0
256,192,124931,1,0
256,192,125108,1,8
256,192,125284,1,0
256,192,125372,1,0
256,192,125461,1,8
256,192,125637,1,8
256,192,125814,1,0
256,192,125902,1,0
256,192,125990,1,0
256,192,126166,1,0
256,192,126255,1,0
256,192,126343,1,8
256,192,126519,1,0
256,192,126608,1,0
256,192,126696,1,8
256,192,126872,1,0
256,192,127049,1,8
256,192,127137,1,8
256,192,127225,1,0
256,192,127402,1,8
256,192,127578,1,0
256,192,127755,1,0
256,192,127843,1,0
256,192,127931,1,0
256,192,128108,1,0
256,192,128196,1,0
256,192,128284,1,0
256,192,128461,1,8
256,192,128637,1,0
256,192,128725,1,0
256,192,128814,1,0
256,192,128990,1,0
256,192,129166,1,8
256,192,129255,1,8
256,192,129343,1,0
256,192,129431,1,0
256,192,129519,1,8
256,192,129696,1,0
256,192,129872,1,8
256,192,130049,1,0
256,192,130225,1,8
256,192,130314,1,8
256,192,130402,1,0
256,192,130578,1,0
256,192,130666,1,0
256,192,130755,1,0
256,192,130843,1,0
256,192,130931,1,8
256,192,131108,1,0
256,192,131284,1,8
256,192,131461,1,0
256,192,131549,1,0
256,192,131637,1,8
256,192,131814,1,0
256,192,131902,1,0
256,192,131990,1,8
256,192,132166,1,0
256,192,132343,1,8
256,192,132519,1,0
256,192,132696,1,8
256,192,132784,1,8
256,192,132872,1,0
256,192,132961,1,0
256,192,133049,1,8
256,192,133225,1,0
256,192,133402,1,0
256,192,133490,1,0
256,192,133578,1,8
256,192,133755,1,8
256,192,133931,1,8
256,192,134019,1,8
256,192,134108,1,8
256,192,134284,1,8
256,192,134461,1,0
256,192,134549,1,0
256,192,134637,1,8
256,192,134725,1,8
256,192,134814,1,0
256,192,134990,1,8
256,192,135166,1,0
256,192,135255,1,0
256,192,135343,1,0
256,192,135431,1,0
256,192,135519,5,0
256,192,135696,1,0
256,192,135872,1,8
256,192,135961,1,0
256,192,136049,1,0
256,192,136225,1,0
256,192,136578,1,8
256,192,136666,1,0
256,192,136755,1,0
256,192,136931,1,0
256,192,137108,1,0
256,192,137284,1,8
256,192,137372,1,0
256,192,137461,1,0
256,192,137637,1,0
256,192,137814,1,8
256,192,137990,1,8
256,192,138078,1,8
256,192,138166,1,0
256,192,138255,1,0
256,192,138343,1,0
256,192,138519,1,8
256,192,138696,1,8
256,192,138784,1,0
256,192,138872,1,0
256,192,139225,1,0
256,192,139314,1,0
256,192,139402,1,8
256,192,139490,1,8
256,192,139578,1,0
256,192,139931,1,0
256,192,140108,1,8
256,192,140196,1,0
256,192,140284,1,0
256,192,140461,1,8
256,192,140549,1,0
256,192,140637,1,0
256,192,140725,1,0
256,192,140814,1,8
256,192,140990,1,0
256,192,141166,1,0
256,192,141343,1,8
256,192,141519,1,8
256,192,141608,1,0
256,192,141696,1,0
256,192,142049,1,0
256,192,142137,1,0
256,192,142225,1,8
256,192,142402,1,8
256,192,142490,1,0
256,192,142578,1,0
256,192,142755,1,0
256,192,142931,1,8
256,192,143019,1,8
256,192,143108,1,0
256,192,143284,1,0
256,192,143461,1,0
256,192,143549,1,0
256,192,143637,1,8
256,192,143725,1,8
256,192,143814,1,0
256,192,143990,1,0
256,192,144166,1,8
256,192,144343,1,8
256,192,144431,1,8
256,192,144519,1,8
256,192,144696,1,0
256,192,144872,1,8
256,192,144961,1,8
256,192,145049,1,8
256,192,145137,1,8
256,192,145225,1,0
256,192,145402,1,0
256,192,145578,1,0
256,192,145755,1,0
256,192,145843,1,0
256,192,145931,1,0
256,192,146019,1,0
256,192,146108,1,8
256,192,146461,1,8
256,192,146549,1,8
256,192,146637,1,8
256,192,146725,1,0
256,192,146814,5,8
256,192,146990,1,0
256,192,147166,1,8
256,192,147255,1,0
256,192,147343,1,0
256,192,147519,1,0
256,192,147696,1,0
256,192,147872,1,8
256,192,147961,1,0
256,192,148049,1,0
256,192,148225,1,8
256,192,148402,1,0
256,192,148490,1,0
256,192,148578,1,8
256,192,148755,1,0
256,192,148843,1,0
256,192,148931,1,8
256,192,149108,1,0
256,192,149196,1,0
256,192,149284,1,8
256,192,149461,1,0
256,192,149637,1,8
256,192,149725,1,8
256,192,149814,1,0
256,192,149990,1,0
256,192,150166,1,8
256,192,150255,1,0
256,192,150343,1,8
256,192,150519,1,0
256,192,150696,1,8
256,192,150784,1,8
256,192,150872,1,0
256,192,151049,1,0
256,192,151137,1,0
256,192,151225,1,0
256,192,151402,1,8
256,192,151490,1,0
256,192,151666,1,0
256,192,151755,1,8
256,192,151931,1,0
256,192,152108,1,0
256,192,152196,1,0
256,192,152284,1,8
256,192,152372,1,8
256,192,152461,1,8
256,192,152549,1,0
256,192,152637,1,0
256,192,152814,1,0
256,192,152902,1,0
256,192,152990,1,0
256,192,153166,1,8
256,192,153343,1,0
256,192,153519,1,8
256,192,153608,1,0
256,192,153696,1,0
256,192,153872,1,8
256,192,153961,1,0
256,192,154137,1,0
256,192,154225,1,8
256,192,154402,1,0
256,192,154578,1,0
256,192,154666,1,0
256,192,154755,1,8
256,192,154843,1,8
256,192,154931,1,0
256,192,155108,1,0
256,192,155284,1,0
256,192,155372,1,0
256,192,155461,1,8
256,192,155637,1,0
256,192,155725,1,0
256,192,155814,1,8
256,192,155990,1,0
256,192,156166,1,8
256,192,156343,1,0
256,192,156431,1,0
256,192,156519,1,8
256,192,156696,1,0
256,192,156784,1,0
256,192,156872,1,8
256,192,156961,1,8
256,192,157049,1,0
256,192,157225,1,8
256,192,157402,1,0
256,192,157490,1,0
256,192,157578,1,8
256,192,157666,1,8
256,192,157755,1,0
256,192,157931,1,0
256,192,158108,1,0
256,192,158284,1,0
256,192,158461,1,8
256,192,158549,1,8
256,192,158637,1,0
256,192,158814,1,0
256,192,158990,1,8
256,192,159166,1,0
256,192,159255,1,0
256,192,159343,1,8
256,192,159519,1,0
256,192,159608,1,0
256,192,159696,1,8
256,192,159872,1,0
256,192,159961,1,0
256,192,160049,1,8
256,192,160225,1,0
256,192,160314,1,0
256,192,160402,1,8
256,192,160578,1,0
256,192,160666,1,8
256,192,160755,1,8
256,192,160931,1,8
256,192,161108,1,0
256,192,161196,1,0
256,192,161284,1,8
256,192,161461,1,0
256,192,161637,1,8
256,192,161725,1,8
256,192,161814,1,0
256,192,161902,1,0
256,192,161990,1,8
256,192,162166,1,0
256,192,162343,1,8
256,192,162519,1,8
256,192,162696,1,0
256,192,162872,1,0
256,192,163049,1,0
256,192,163137,1,8
256,192,163225,1,0
256,192,163314,1,0
256,192,163402,1,8
256,192,163578,1,0
256,192,163755,1,8
256,192,163931,1,0
256,192,164108,1,8
256,192,164196,1,8
256,192,164284,1,0
256,192,164461,1,0
256,192,164549,1,0
256,192,164637,1,8
256,192,164814,1,8
256,192,164990,1,0
256,192,165166,1,8
256,192,165255,1,8
256,192,165343,1,0
256,192,165431,1,0
256,192,165519,1,8
256,192,165696,1,0
256,192,165872,1,8
256,192,165961,1,0
256,192,166049,1,0
256,192,166137,1,0
256,192,166225,1,8
256,192,166402,1,8
256,192,166578,1,0
256,192,166755,1,0
256,192,166843,1,0
256,192,166931,1,8
256,192,167108,1,0
256,192,167196,1,0
256,192,167284,1,8
256,192,167461,1,0
256,192,167549,1,0
256,192,167637,1,8
256,192,167814,1,8
256,192,167902,1,0
256,192,167990,1,8
256,192,168166,1,8
256,192,168255,1,0
256,192,168343,1,0
256,192,168431,1,8
256,192,168519,1,0
256,192,168608,1,0
256,192,168696,1,8
256,192,168784,1,0
256,192,168872,1,8
256,192,168961,1,8
256,192,169049,1,0
256,192,169137,1,0
256,192,169225,1,0
256,192,169314,1,0
256,192,169402,5,8
256,192,169578,1,0
256,192,169755,1,8
256,192,169931,1,0
256,192,170019,1,8
256,192,170108,1,8
256,192,170284,1,0
256,192,170372,1,8
256,192,170549,1,8
256,192,170637,1,8
256,192,170814,1,8
256,192,170990,1,0
256,192,171078,1,0
256,192,171166,1,8
256,192,171343,1,0
256,192,171431,1,0
256,192,171519,1,0
256,192,171696,1,8
256,192,171872,1,0
256,192,172049,1,0
256,192,172225,1,8
256,192,172314,1,0
256,192,172490,1,0
256,192,172578,1,8
256,192,172755,1,0
256,192,172931,1,8
256,192,173019,1,8
256,192,173108,1,0
256,192,173284,1,8
256,192,173461,1,0
256,192,173637,1,0
256,192,173725,1,0
256,192,173814,1,0
256,192,173990,1,8
256,192,174078,1,8
256,192,174166,1,0
256,192,174343,1,4
256,192,174696,1,12
256,192,175049,5,4
256,192,175225,1,0
256,192,175314,1,0
256,192,175402,1,8
256,192,175578,1,8
256,192,175666,1,8
256,192,175755,1,8
256,192,175931,1,0
256,192,176108,1,0
256,192,176196,1,0
256,192,176284,1,8
256,192,176372,1,0
256,192,176461,1,8
256,192,176637,1,0
256,192,176814,1,8
256,192,176990,1,8
256,192,177166,1,0
256,192,177255,1,8
256,192,177343,1,0
256,192,177431,1,0
256,192,177519,1,8
256,192,177696,1,0
256,192,177872,1,8
256,192,177961,1,0
256,192,178049,1,0
256,192,178225,1,8
256,192,178402,1,0
256,192,178490,1,0
256,192,178578,1,8
256,192,178755,1,0
256,192,178931,1,8
256,192,179019,1,8
256,192,179108,1,8
256,192,179284,1,0
256,192,179461,1,8
256,192,179549,1,8
256,192,179637,1,0
256,192,179814,1,8
256,192,179990,1,0
256,192,180078,1,0
256,192,180166,1,8
256,192,180255,1,8
256,192,180343,1,8
256,192,180431,1,0
256,192,180519,1,0
256,192,180608,1,0
256,192,180696,1,0
256,192,180872,1,8
256,192,181049,1,0
256,192,181137,1,0
256,192,181225,1,0
256,192,181402,1,8
256,192,181578,1,0
256,192,181666,1,8
256,192,181755,1,0
256,192,181931,1,0
256,192,182019,1,0
256,192,182108,1,8
256,192,182196,1,8
256,192,182284,1,0
256,192,182461,1,0
256,192,182637,1,0
256,192,182725,1,0
256,192,182814,1,8
256,192,182990,1,0
256,192,183166,1,8
256,192,183255,1,0
256,192,183343,1,8
256,192,183431,1,8
256,192,183519,1,0
256,192,183696,1,0
256,192,183872,1,0
256,192,184049,1,0
256,192,184137,1,0
256,192,184225,1,8
256,192,184402,1,0
256,192,184490,1,8
256,192,184666,1,8
256,192,184755,1,0
256,192,184931,1,0
256,192,185019,1,0
256,192,185108,1,8
256,192,185196,1,8
256,192,185284,1,0
256,192,185461,1,0
256,192,185637,1,8
256,192,185725,1,8
256,192,185814,1,8
256,192,185902,1,0
256,192,185990,1,8
256,192,186078,1,8
256,192,186166,1,0
256,192,186255,1,0
256,192,186343,5,8
256,192,186519,1,4
256,192,186872,1,4
256,192,187049,1,4
256,192,187402,1,4
256,192,187578,1,4
256,192,187931,1,4
256,192,188108,1,4
256,192,188461,1,4
256,192,188814,1,12
256,192,189166,1,12
256,192,189343,1,4
256,192,189696,1,4
256,192,189872,1,4
256,192,190225,1,4
256,192,190402,1,4
256,192,190755,1,4
256,192,190931,1,4
256,192,191284,1,4
256,192,191637,1,12
256,192,191990,5,4
256,192,192166,1,0
256,192,192343,1,0
256,192,192431,1,0
256,192,192519,1,8
256,192,192608,1,8
256,192,192696,1,0
256,192,192872,1,8
256,192,193049,1,0
256,192,193225,1,0
256,192,193402,1,8
256,192,193490,1,8
256,192,193578,1,0
256,192,193755,1,8
256,192,193843,1,0
256,192,194019,1,0
256,192,194108,1,8
256,192,194284,1,0
256,192,194461,1,0
256,192,194549,1,0
256,192,194637,1,0
256,192,194814,1,0
256,192,194990,1,8
256,192,195078,1,8
256,192,195166,1,0
256,192,195255,1,0
256,192,195343,1,0
256,192,195519,1,0
256,192,195696,1,0
256,192,195784,1,8
256,192,195872,1,8
256,192,195961,1,0
256,192,196137,1,0
256,192,196225,1,8
256,192,196402,1,8
256,192,196578,1,8
256,192,196666,1,8
256,192,196755,1,0
256,192,196843,1,0
256,192,196931,1,8
256,192,197108,1,0
256,192,197284,1,8
256,192,197461,1,0
256,192,197549,1,0
256,192,197637,1,0
256,192,197814,1,8
256,192,197990,1,0
256,192,198078,1,8
256,192,198255,1,0
256,192,198343,1,8
256,192,198519,1,8
256,192,198696,1,8
256,192,198784,1,8
256,192,198872,1,8
256,192,199049,1,0
256,192,199225,1,0
256,192,199314,1,0
256,192,199402,1,8
256,192,199578,1,0
256,192,199755,1,0
256,192,199843,1,0
256,192,199931,1,0
256,192,200019,1,0
256,192,200108,1,0
256,192,200284,1,8
256,192,200461,1,0
256,192,200549,1,0
256,192,200637,1,8
256,192,200814,1,0
256,192,200990,1,8
256,192,201078,1,8
256,192,201166,1,0
256,192,201343,1,0
256,192,201519,1,8
256,192,201608,1,0
256,192,201696,1,0
256,192,201784,1,0
256,192,201872,1,8
256,192,202049,1,8
256,192,202225,1,0
256,192,202314,1,8
256,192,202490,1,8
256,192,202578,1,8
256,192,202755,1,0
256,192,202931,1,0
256,192,203019,1,0
256,192,203108,1,8
256,192,203196,1,0
256,192,203284,5,8
256,192,203637,1,0
256,192,203990,1,8
256,192,204343,1,8
256,192,204519,1,8
256,192,204696,1,0
256,192,204872,1,8
256,192,205049,1,0
256,192,205402,1,8
256,192,205755,1,0
256,192,205931,1,8
256,192,206108,1,8
256,192,206461,1,0
256,192,206814,1,0
256,192,207166,1,0
256,192,207343,1,8
256,192,207519,1,0
256,192,207696,1,8
256,192,207872,1,0
256,192,208225,1,0
256,192,208578,1,8
256,192,208755,1,0
256,192,208931,1,0
256,192,209284,1,0
256,192,209461,1,8
256,192,209814,1,0
256,192,210166,1,8
256,192,210343,1,8
256,192,210519,1,0
256,192,210696,1,8
256,192,210872,1,0
256,192,211049,1,8
256,192,211225,1,8
256,192,211402,1,0
256,192,211578,1,0
256,192,211755,1,0
256,192,212108,1,8
256,192,212461,1,0
256,192,212814,1,0
256,192,212990,1,8
256,192,213343,1,0
256,192,213519,1,8
256,192,213872,1,8
256,192,213961,1,8
256,192,214049,1,0
256,192,214137,1,0
256,192,214225,1,8
256,192,214402,1,0
256,192,214578,1,8
256,192,214931,1,0
256,192,215284,1,0
256,192,215637,1,8
256,192,215814,1,8
256,192,215990,1,0
256,192,216166,1,0
256,192,216343,1,8
256,192,216519,1,0
256,192,216872,1,0
256,192,217049,1,0
256,192,217225,1,0
256,192,217402,1,8
256,192,217755,1,0
256,192,217931,1,0
256,192,218108,1,8
256,192,218461,1,0
256,192,218637,1,0
256,192,218814,1,0
256,192,218990,1,8
256,192,219166,1,0
256,192,219343,1,8
256,192,219519,1,8
256,192,219696,1,0
256,192,219872,1,0
256,192,220049,1,0
256,192,220225,1,4
256,192,220578,1,0
256,192,220931,1,8
256,192,221108,1,0
256,192,221284,1,0
256,192,221461,1,0
256,192,221637,1,8
256,192,221814,1,0
256,192,221990,1,8
256,192,222343,1,8
256,192,222519,1,0
256,192,222696,1,8
256,192,222872,1,0
256,192,223049,1,8
256,192,223225,1,0
256,192,223402,1,0
256,192,223578,1,0
256,192,223755,1,8
256,192,223931,1,0
256,192,224108,1,0
256,192,224284,1,0
256,192,224461,1,8
256,192,224637,1,0
256,192,224814,1,0
256,192,224990,1,0
256,192,225166,1,8
256,192,225343,1,0
256,192,225519,1,0
256,192,225696,1,0
256,192,225872,5,4
256,192,226225,1,0
256,192,226578,1,0
256,192,226931,1,0
256,192,227284,1,0
256,192,227637,1,0
256,192,227990,1,0
256,192,228343,1,0
256,192,228696,1,4
256,192,229049,1,0
256,192,229402,1,0
256,192,229755,1,0
256,192,230108,1,0
256,192,230461,1,0
256,192,230814,1,0
256,192,230990,1,8
256,192,231078,1,8
256,192,231166,1,0
256,192,231255,1,8
256,192,231343,1,0
256,192,231431,1,0
256,192,231519,1,8
256,192,231872,1,0
256,192,232225,1,0
256,192,232578,1,0
256,192,232931,1,0
256,192,233284,1,0
256,192,233637,1,0
256,192,233990,1,0
256,192,234343,1,4
256,192,234696,1,0
256,192,235049,1,0
256,192,235402,1,0
256,192,235755,1,0
256,192,236108,1,0
256,192,236461,1,0
256,192,236814,1,0
256,192,237166,1,4
256,192,237519,1,0
256,192,237872,1,0
256,192,238225,1,0
256,192,238578,1,0
256,192,238931,1,0
256,192,239284,1,0
256,192,239637,1,0
256,192,239990,1,4
256,192,240343,1,0
256,192,240696,1,0
256,192,241049,1,0
256,192,241402,1,0
256,192,241755,1,0
256,192,242108,1,0
256,192,242196,1,0
256,192,242284,1,8
256,192,242372,1,0
256,192,242461,1,0
256,192,242549,1,8
256,192,242637,1,0
256,192,242725,1,8
256,192,242814,1,8
256,192,242990,1,8
256,192,243166,1,0
256,192,243255,1,0
256,192,243343,1,8
256,192,243519,1,0
256,192,243696,1,8
256,192,243872,1,0
256,192,243961,1,0
256,192,244049,1,8
256,192,244225,1,0
256,192,244402,1,8
256,192,244578,1,0
256,192,244667,1,0
256,192,244755,1,8
256,192,244931,1,0
256,192,245108,1,8
256,192,245284,1,0
256,192,245373,1,0
256,192,245461,1,8
256,192,245637,1,4
256,192,245814,1,8
256,192,245990,1,0
256,192,246079,1,0
256,192,246167,1,8
256,192,246343,1,0
256,192,246520,1,8
256,192,246696,1,0
256,192,246785,1,0
256,192,246873,1,8
256,192,247049,1,0
256,192,247225,1,8
256,192,247401,1,0
256,192,247490,1,0
256,192,247578,1,8
256,192,247754,1,0
256,192,247931,1,8
256,192,248019,1,8
256,192,248107,1,0
256,192,248196,1,0
256,192,248284,1,8
256,192,248372,1,0
256,192,248460,1,0
256,192,248637,1,8
256,192,248814,1,0
256,192,248902,1,0
256,192,248990,1,8
256,192,249166,1,0
256,192,249343,1,8
256,192,249519,1,0
256,192,249608,1,0
256,192,249696,1,8
256,192,249872,1,0
256,192,250049,1,8
256,192,250225,1,0
256,192,250314,1,0
256,192,250402,1,8
256,192,250578,1,0
256,192,250755,1,8
256,192,250931,1,0
256,192,251019,1,0
256,192,251108,1,8
256,192,251196,1,0
256,192,251284,1,0
256,192,251461,1,8
256,192,251637,1,0
256,192,251725,1,0
256,192,251814,1,8
256,192,251902,1,0
256,192,251990,1,0
256,192,252166,1,8
256,192,252343,1,0
256,192,252431,1,0
256,192,252519,1,8
256,192,252608,1,0
256,192,252696,1,0
256,192,252872,1,0
256,192,253049,1,0
256,192,253137,1,0
256,192,253225,1,0
256,192,253402,1,0
256,192,253578,1,4
256,192,253755,1,4
256,192,253931,1,4
256,192,254108,1,4
256,192,254461,1,8
256,192,254725,1,0
256,192,254814,1,8
256,192,255078,1,0
256,192,255166,1,8
256,192,255255,1,8
256,192,255343,1,0
256,192,255431,1,0
256,192,255519,5,0
256,192,255696,1,8
256,192,255872,1,0
256,192,255961,1,8
256,192,256137,1,0
256,192,256225,1,8
256,192,256402,1,8
256,192,256490,1,8
256,192,256578,1,0
256,192,256755,1,8
256,192,256931,1,0
256,192,257019,1,0
256,192,257108,1,8
256,192,257284,1,0
256,192,257461,1,0
256,192,257637,1,8
256,192,257814,1,0
256,192,257902,1,0
256,192,257990,1,8
256,192,258166,1,0
256,192,258343,1,8
256,192,258431,1,0
256,192,258608,1,0
256,192,258696,1,0
256,192,258872,1,0
256,192,259049,1,8
256,192,259225,1,0
256,192,259314,1,0
256,192,259402,1,8
256,192,259490,1,0
256,192,259578,1,0
256,192,259666,1,0
256,192,259755,1,8
256,192,259931,1,0
256,192,260108,1,0
256,192,260284,1,0
256,192,260461,1,4
256,192,260814,1,12
256,192,261166,5,4
256,192,261343,1,0
256,192,261431,1,0
256,192,261519,1,8
256,192,261696,1,8
256,192,261872,1,0
256,192,261961,1,0
256,192,262049,1,0
256,192,262137,1,0
256,192,262225,1,8
256,192,262402,1,8
256,192,262490,1,0
256,192,262578,1,8
256,192,262666,1,0
256,192,262755,1,0
256,192,262931,1,0
256,192,263108,1,8
256,192,263196,1,8
256,192,263284,1,0
256,192,263372,1,0
256,192,263461,1,8
256,192,263637,1,0
256,192,263814,1,0
256,192,263902,1,0
256,192,263990,1,0
256,192,264166,1,8
256,192,264255,1,0
256,192,264343,1,0
256,192,264519,1,8
256,192,264696,1,0
256,192,264784,1,0
256,192,264872,1,8
256,192,265049,1,8
256,192,265137,1,0
256,192,265225,1,0
256,192,265314,1,0
256,192,265402,1,8
256,192,265490,1,8
256,192,265578,1,0
256,192,265755,1,0
256,192,265931,1,8
256,192,266019,1,8
256,192,266108,1,0
256,192,266284,1,0
256,192,266461,1,0
256,192,266549,1,0
256,192,266637,1,8
256,192,266725,1,0
256,192,266814,1,8
256,192,266902,1,0
256,192,266990,1,0
256,192,267166,1,0
256,192,267343,1,0
256,192,267431,1,8
256,192,267519,1,8
256,192,267696,1,0
256,192,267872,1,8
256,192,267961,1,0
256,192,268049,1,0
256,192,268137,1,8
256,192,268225,1,0
256,192,268402,1,0
256,192,268578,1,0
256,192,268666,1,8
256,192,268755,1,8
256,192,268843,1,0
256,192,268931,1,8
256,192,269108,1,0
256,192,269284,1,0
256,192,269372,1,0
256,192,269461,1,0
256,192,269549,1,0
256,192,269637,1,8
256,192,269814,1,0
256,192,269902,1,8
256,192,269990,1,8
256,192,270166,1,0
256,192,270343,1,8
256,192,270431,1,8
256,192,270519,1,0
256,192,270696,1,0
256,192,270784,1,0
256,192,270872,1,0
256,192,271049,1,8
256,192,271225,1,0
256,192,271314,1,0
256,192,271402,1,8
256,192,271578,1,0
256,192,271755,1,8
256,192,271843,1,0
256,192,271931,1,8
256,192,272019,1,8
256,192,272108,1,8
256,192,272196,1,0
256,192,272284,1,8
256,192,272372,1,0
256,192,272461,5,0
256,192,272637,1,4
256,192,272990,1,4
256,192,273166,1,4
256,192,273519,1,4
256,192,273696,1,4
256,192,274049,1,4
256,192,274225,1,4
256,192,274578,1,4
256,192,274931,1,12
256,192,275284,1,12
256,192,275461,1,4
256,192,275814,1,4
256,192,275990,1,4
256,192,276343,1,4
256,192,276519,1,4
256,192,276872,1,4
256,192,277049,1,4
256,192,277402,1,12
256,192,277755,1,4
256,192,278108,5,4
256,192,278284,1,12
256,192,278637,1,12
256,192,278814,1,12
256,192,279166,1,12
256,192,279343,1,12
256,192,279696,1,12
256,192,279872,1,12
256,192,280225,1,12
256,192,280578,1,4
256,192,280931,1,4
256,192,281108,1,12
256,192,281461,1,12
256,192,281637,1,12
256,192,281990,1,12
256,192,282166,1,12
256,192,282519,1,12
256,192,282696,1,12
256,192,283049,1,4
256,192,283402,1,12
256,192,283755,5,4
256,192,283931,1,0
256,192,284108,1,0
256,192,284196,1,8
256,192,284284,1,0
256,192,284372,1,8
256,192,284461,1,0
256,192,284637,1,8
256,192,284814,1,0
256,192,284902,1,0
256,192,284990,1,8
256,192,285166,1,8
256,192,285343,1,0
256,192,285431,1,8
256,192,285519,1,8
256,192,285696,1,0
256,192,285872,1,8
256,192,285961,1,8
256,192,286049,1,0
256,192,286137,1,0
256,192,286225,1,8
256,192,286402,1,0
256,192,286578,1,8
256,192,286755,1,0
256,192,286931,1,0
256,192,287019,1,0
256,192,287108,1,8
256,192,287284,1,0
256,192,287372,1,0
256,192,287461,1,8
256,192,287637,1,0
256,192,287814,1,0
256,192,287990,1,8
256,192,288166,1,0
256,192,288255,1,0
256,192,288343,1,0
256,192,288431,1,0
256,192,288519,1,8
256,192,288696,1,8
256,192,288784,1,0
256,192,288872,1,8
256,192,288961,1,8
256,192,289049,1,0
256,192,289225,1,8
256,192,289402,1,0
256,192,289578,1,8
256,192,289755,1,8
256,192,289843,1,8
256,192,289931,1,8
256,192,290108,1,0
256,192,290196,1,8
256,192,290284,1,0
256,192,290372,1,0
256,192,290461,1,8
256,192,290637,1,8
256,192,290814,1,0
256,192,290902,1,0
256,192,290990,1,8
256,192,291166,1,0
256,192,291255,1,0
256,192,291343,1,8
256,192,291519,1,8
256,192,291608,1,0
256,192,291696,1,8
256,192,291872,1,8
256,192,291961,1,0
256,192,292137,1,0
256,192,292225,1,8
256,192,292402,1,8
256,192,292578,1,8
256,192,292666,1,8
256,192,292755,1,0
256,192,292931,1,0
256,192,293019,1,0
256,192,293108,1,8
256,192,293196,1,0
256,192,293284,1,8
256,192,293461,1,8
256,192,293637,1,0
256,192,293814,1,8
256,192,293990,1,0
256,192,294078,1,0
256,192,294166,1,8
256,192,294343,1,0
256,192,294519,1,8
256,192,294608,1,8
256,192,294696,1,0
256,192,294784,1,0
256,192,294872,1,8
256,192,294961,1,0
256,192,295049,5,0
256,192,295225,1,0
256,192,295578,1,8
256,192,295666,1,8
256,192,295755,1,0
256,192,295931,1,0
256,192,296284,1,8
256,192,296372,1,8
256,192,296461,1,0
256,192,296637,1,0
256,192,296990,1,0
256,192,297078,1,8
256,192,297166,1,8
256,192,297519,1,4
256,192,297872,1,4
256,192,298049,1,0
256,192,298402,1,0
256,192,298490,1,8
256,192,298578,1,8
256,192,298755,1,0
256,192,299108,1,0
256,192,299196,1,8
256,192,299284,1,8
256,192,299461,1,0
256,192,299814,1,8
256,192,299902,1,0
256,192,299990,1,0
256,192,300343,1,4
256,192,300696,1,4
256,192,300872,1,0
256,192,301225,1,8
256,192,301314,1,0
256,192,301402,1,0
256,192,301578,1,0
256,192,301931,1,8
256,192,302019,1,0
256,192,302108,1,0
256,192,302284,1,0
256,192,302637,1,8
256,192,302725,1,0
256,192,302814,1,0
256,192,303166,1,4
256,192,303519,1,4
256,192,303696,1,0
256,192,304049,1,0
256,192,304137,1,8
256,192,304225,1,0
256,192,304402,1,0
256,192,304755,1,0
256,192,304843,1,8
256,192,304931,1,0
256,192,305108,1,0
256,192,305461,1,8
256,192,305549,1,0
256,192,305637,1,8
256,192,305990,1,4
