osu file format v12

[General]
AudioFilename: PatriotAnthem.mp3
AudioLeadIn: 0
PreviewTime: 122945
Countdown: 0
SampleSet: Soft
StackLeniency: 0.7
Mode: 0
LetterboxInBreaks: 0
WidescreenStoryboard: 1

[Editor]
Bookmarks: 62945,86945,170945,182945,254945,278945,341945,377945,391070
DistanceSpacing: 0.3
BeatDivisor: 4
GridSize: 4

[Metadata]
Title:Patriot Anthem
TitleUnicode:Patriot Anthem
Artist:Yousei Teikoku
ArtistUnicode:妖精帝國
Creator:Scorpiour
Version:Scorpiour
Source:
Tags:
BeatmapID:306047
BeatmapSetID:119150

[Difficulty]
HPDrainRate:7
CircleSize:4
OverallDifficulty:8
ApproachRate:9
SliderMultiplier:1.8
SliderTickRate:1

[Events]
//Background and Video events
0,0,"bg.jpg",0,0
//Break Periods
//Storyboard Layer 0 (Background)
//Storyboard Layer 1 (Fail)
//Storyboard Layer 2 (Pass)
//Storyboard Layer 3 (Foreground)
//Storyboard Sound Samples
//Background Colour Transformations
3,100,0,0,0

[TimingPoints]
1445,375,4,2,1,100,1,0
38570,-100,4,2,1,5,0,0
38945,-100,4,1,1,70,0,0
122945,-100,4,1,1,70,0,1
146945,-100,4,1,1,70,0,0
206945,-100,4,1,1,70,0,1
230945,-100,4,1,1,70,0,0
293945,-100,4,1,1,70,0,1
317945,-100,4,1,1,70,0,0
385445,-100,4,2,1,5,0,0

[Colours]
Combo1 : 251,196,251
Combo2 : 196,196,251

[HitObjects]
256,192,35195,12,0,38570,0:0:0:0:
103,111,38945,5,0,0:0:0:0:
418,197,39132,1,0,0:0:0:0:
297,51,39320,1,0,0:0:0:0:
231,244,39508,1,0,0:0:0:0:
225,256,39601,1,0,0:0:0:0:
219,268,39695,2,0,B|207:311|218:357,1,90
418,197,40070,2,0,B|430:154|418:107,1,90
137,204,40445,1,0,0:0:0:0:
133,216,40538,1,0,0:0:0:0:
130,229,40632,1,0,0:0:0:0:
297,50,40820,1,0,0:0:0:0:
259,234,41007,1,0,0:0:0:0:
255,247,41101,1,0,0:0:0:0:
252,260,41195,2,0,L|223:357,1,90
435,307,41570,2,0,L|464:210,1,90
317,34,41945,6,0,P|273:82|302:192,1,180
470,195,42507,1,0,0:0:0:0:
462,220,42601,1,0,0:0:0:0:
453,245,42695,2,0,L|356:275,1,90
84,286,43070,2,0,L|181:256,1,90
391,194,43445,1,0,0:0:0:0:
378,197,43539,1,0,0:0:0:0:
365,200,43632,1,0,0:0:0:0:
106,204,43820,1,0,0:0:0:0:
245,117,44007,1,0,0:0:0:0:
257,113,44101,1,0,0:0:0:0:
269,109,44195,2,0,L|379:72,1,90
497,285,44570,2,0,L|387:322,1,90
234,331,44945,6,0,B|196:269|196:269|145:250|80:275,1,180
78,90,45507,1,0,0:0:0:0:
104,78,45601,1,0,0:0:0:0:
129,69,45695,2,0,L|180:148,1,90
91,272,46070,2,0,L|132:167,1,90
286,202,46445,1,0,0:0:0:0:
289,214,46538,1,0,0:0:0:0:
291,227,46632,1,0,0:0:0:0:
273,45,46820,1,0,0:0:0:0:
415,100,47007,1,0,0:0:0:0:
424,109,47100,1,0,0:0:0:0:
433,118,47195,2,0,L|452:216,1,90
234,291,47570,2,0,P|214:251|212:207,1,90
346,51,47945,6,0,B|293:97|214:66|214:66|176:77,1,180
92,279,48507,1,0,0:0:0:0:
105,302,48601,1,0,0:0:0:0:
122,322,48695,2,0,L|223:328,1,90
346,152,49070,2,0,L|257:162,1,90
452,300,49445,1,0,0:0:0:0:
453,313,49538,1,0,0:0:0:0:
454,326,49632,1,0,0:0:0:0:
404,110,49820,1,0,0:0:0:0:
320,268,50007,1,0,0:0:0:0:
317,281,50101,1,0,0:0:0:0:
314,294,50195,1,0,0:0:0:0:
311,307,50288,1,0,0:0:0:0:
308,320,50382,1,0,0:0:0:0:
308,320,50570,1,0,0:0:0:0:
113,34,50945,6,0,P|85:90|105:177,1,135
127,178,51320,2,0,L|226:153,1,90
239,165,51601,1,0,0:0:0:0:
264,174,51695,1,0,0:0:0:0:
466,285,51882,1,0,0:0:0:0:
412,162,52070,1,0,0:0:0:0:
321,306,52257,1,0,0:0:0:0:
311,321,52351,1,0,0:0:0:0:
300,336,52445,2,0,L|192:354,1,90
34,193,52820,1,0,0:0:0:0:
176,227,53007,1,0,0:0:0:0:
193,232,53101,1,0,0:0:0:0:
209,238,53195,1,0,0:0:0:0:
315,162,53382,1,0,0:0:0:0:
362,276,53570,1,0,0:0:0:0:
456,116,53757,1,0,0:0:0:0:
504,344,53945,6,0,P|442:356|353:339,1,135
362,275,54320,2,0,P|318:265|274:275,1,90
274,275,54601,1,0,0:0:0:0:
274,275,54695,1,0,0:0:0:0:
126,340,54882,1,0,0:0:0:0:
64,189,55070,1,0,0:0:0:0:
212,125,55257,1,0,0:0:0:0:
274,275,55445,1,0,0:0:0:0:
274,293,55538,1,0,0:0:0:0:
273,311,55632,1,0,0:0:0:0:
284,41,55820,1,0,0:0:0:0:
283,165,56007,1,0,0:0:0:0:
279,182,56101,1,0,0:0:0:0:
269,197,56195,1,0,0:0:0:0:
256,209,56288,1,0,0:0:0:0:
240,218,56382,1,0,0:0:0:0:
80,300,56570,1,0,0:0:0:0:
406,300,56757,1,0,0:0:0:0:
258,57,56945,6,0,B|317:92|394:61,1,135
421,47,57320,2,0,L|393:142,1,90
319,269,57695,2,0,L|298:336,1,45
278,199,57882,2,0,L|292:156,1,45
244,264,58070,2,0,P|204:282|160:278,1,90
24,152,58445,5,0,0:0:0:0:
24,152,58538,1,0,0:0:0:0:
24,152,58632,1,0,0:0:0:0:
160,278,58820,1,0,0:0:0:0:
199,52,59007,1,0,0:0:0:0:
176,86,59101,1,0,0:0:0:0:
157,116,59195,2,0,L|182:211,1,90
382,272,59570,2,0,L|357:177,1,90
462,305,59945,6,0,P|410:348|344:350,1,135
274,306,60320,2,0,P|230:299|186:308,1,90
21,346,60695,1,0,0:0:0:0:
21,346,60788,1,0,0:0:0:0:
21,346,60882,1,0,0:0:0:0:
119,234,61070,2,0,P|134:191|130:147,1,90
92,307,61445,1,0,0:0:0:0:
92,307,61538,1,0,0:0:0:0:
92,307,61632,1,0,0:0:0:0:
97,81,61820,1,0,0:0:0:0:
291,198,62007,1,0,0:0:0:0:
308,203,62101,1,0,0:0:0:0:
325,206,62195,1,0,0:0:0:0:
342,207,62288,1,0,0:0:0:0:
360,206,62382,1,0,0:0:0:0:
377,203,62476,1,0,0:0:0:0:
393,196,62570,2,0,L|304:109,1,90,0|0,0:0|2:0,0:0:0:0:
257,309,62945,5,0,0:0:0:0:
194,130,63132,1,0,0:0:0:0:
75,248,63320,1,0,0:0:0:0:
311,248,63507,1,0,0:0:0:0:
136,190,63695,1,0,0:0:0:0:
194,367,63882,1,0,0:0:0:0:
252,188,64070,1,0,0:0:0:0:
130,313,64257,1,0,0:0:0:0:
153,318,64632,5,0,0:0:0:0:
266,263,64820,1,0,0:0:0:0:
348,357,65007,1,0,0:0:0:0:
464,307,65195,2,0,P|486:269|488:224,1,90
277,105,65570,2,0,P|254:143|252:188,1,90
384,184,65945,5,0,0:0:0:0:
454,91,66132,1,0,0:0:0:0:
267,170,66320,1,0,0:0:0:0:
429,294,66507,1,0,0:0:0:0:
337,77,66695,1,0,0:0:0:0:
499,199,66882,1,0,0:0:0:0:
313,277,67070,1,0,0:0:0:0:
454,91,67257,1,0,0:0:0:0:
432,100,67632,5,0,0:0:0:0:
290,178,67820,1,0,0:0:0:0:
389,305,68007,1,0,0:0:0:0:
231,345,68195,2,0,P|186:350|141:345,1,90
4,218,68570,1,0,0:0:0:0:
42,53,68945,5,0,0:0:0:0:
170,94,69132,1,0,0:0:0:0:
300,130,69320,1,0,0:0:0:0:
432,156,69507,1,0,0:0:0:0:
327,15,69695,1,0,0:0:0:0:
170,94,69882,1,0,0:0:0:0:
268,240,70070,1,0,0:0:0:0:
300,130,70257,1,0,0:0:0:0:
281,147,70632,5,0,0:0:0:0:
70,230,70820,1,0,0:0:0:0:
103,9,71007,1,0,0:0:0:0:
156,127,71195,1,0,0:0:0:0:
129,350,71383,1,0,0:0:0:0:
335,263,71570,1,0,0:0:0:0:
211,248,71757,1,0,0:0:0:0:
235,54,71945,5,0,0:0:0:0:
418,44,72132,1,0,0:0:0:0:
450,300,72320,1,0,0:0:0:0:
267,310,72507,1,0,0:0:0:0:
335,128,72695,2,0,P|379:121|423:125,1,90
211,248,73070,2,0,P|166:255|122:251,1,90
101,238,73632,5,0,0:0:0:0:
283,274,73820,1,0,0:0:0:0:
407,137,74007,1,0,0:0:0:0:
472,260,74195,2,0,P|422:258|379:234,1,90
256,44,74570,1,0,0:0:0:0:
188,256,74945,6,0,L|159:343,1,90
379,222,75320,2,0,L|408:135,1,90
130,178,75695,1,0,0:0:0:0:
285,268,75882,1,0,0:0:0:0:
408,137,76070,1,0,0:0:0:0:
251,47,76257,1,0,0:0:0:0:
251,47,76351,1,0,0:0:0:0:
251,47,76445,1,0,0:0:0:0:
217,252,76632,5,0,0:0:0:0:
262,55,76820,1,0,0:0:0:0:
318,177,77007,1,0,0:0:0:0:
110,184,77195,2,0,P|65:178|19:185,1,90
213,145,77570,2,0,P|258:151|304:144,1,90
414,87,77945,5,0,0:0:0:0:
213,145,78132,1,0,0:0:0:0:
213,145,78226,1,0,0:0:0:0:
213,145,78320,1,0,0:0:0:0:
290,47,78507,1,0,0:0:0:0:
291,256,78695,2,0,P|296:301|290:346,1,90
82,284,79070,2,0,P|77:239|83:194,1,90
106,355,79445,5,0,0:0:0:0:
106,355,79538,1,0,0:0:0:0:
106,355,79632,1,0,0:0:0:0:
194,237,79820,1,0,0:0:0:0:
295,360,80007,1,0,0:0:0:0:
350,152,80195,1,0,0:0:0:0:
357,156,80288,1,0,0:0:0:0:
365,160,80382,1,0,0:0:0:0:
373,164,80476,1,0,0:0:0:0:
381,168,80570,2,0,L|406:258,1,90
195,321,80945,5,0,0:0:0:0:
195,321,81132,1,0,0:0:0:0:
68,134,81320,1,0,0:0:0:0:
68,134,81507,1,0,0:0:0:0:
292,120,81695,2,0,L|226:143,1,45
371,131,81882,2,0,L|437:108,1,45
321,196,82070,2,0,L|213:233,1,90
400,204,82445,5,0,0:0:0:0:
341,56,82632,1,0,0:0:0:0:
243,183,82820,1,0,0:0:0:0:
445,104,83007,1,0,0:0:0:0:
321,196,83195,2,0,L|299:291,1,90
213,109,83570,2,0,L|235:14,1,90
191,242,83945,5,0,0:0:0:0:
48,346,84132,1,0,0:0:0:0:
48,346,84226,1,0,0:0:0:0:
48,346,84320,1,0,0:0:0:0:
28,171,84507,1,0,0:0:0:0:
155,333,84695,2,0,P|199:340|243:335,1,90
439,239,85070,2,0,P|394:231|350:236,1,90
205,267,85445,5,0,0:0:0:0:
97,129,85632,1,0,0:0:0:0:
97,129,85726,1,0,0:0:0:0:
97,128,85820,2,0,P|141:121|185:126,1,90
309,239,86195,2,0,B|389:264|444:206|444:206|439:245,1,180
284,32,86945,6,0,P|299:97|265:152,1,135
203,183,87320,1,0,0:0:0:0:
68,101,87507,1,0,0:0:0:0:
57,92,87601,1,0,0:0:0:0:
46,83,87695,2,0,L|34:172,1,90
192,272,88070,2,0,L|203:182,1,90
99,307,88445,1,0,0:0:0:0:
99,307,88538,1,0,0:0:0:0:
99,307,88632,1,0,0:0:0:0:
282,239,88820,2,0,L|383:200,1,90
