osu file format v12

[General]
AudioFilename: yousei teikoku - noble roar.mp3
AudioLeadIn: 0
PreviewTime: 176653
Countdown: 0
SampleSet: Normal
StackLeniency: 0.7
Mode: 0
LetterboxInBreaks: 1
WidescreenStoryboard: 1

[Editor]
DistanceSpacing: 1
BeatDivisor: 4
GridSize: 4
TimelineZoom: 2.2

[Metadata]
Title:Noble Roar
TitleUnicode:Noble Roar
Artist:Yousei Teikoku
ArtistUnicode:妖精帝國
Creator:Setsurei
Version:Insane
Source:Innocent Venus
Tags:J-Rock Lantis Yui イノセント・ヴィーナス Inosento Vīnasu Joe Katsuragi Jin Tsurusawa Sana Nobuto kuroanchan Sallad4ever
BeatmapID:305479
BeatmapSetID:118880

[Difficulty]
HPDrainRate:7
CircleSize:4
OverallDifficulty:7
ApproachRate:9
SliderMultiplier:2
SliderTickRate:1

[Events]
//Background and Video events
0,0,"BG.jpg",0,0
//Break Periods
//Storyboard Layer 0 (Background)
//Storyboard Layer 1 (Fail)
//Storyboard Layer 2 (Pass)
//Storyboard Layer 3 (Foreground)
Sprite,Foreground,Centre,"Yousei Teikoku.png",320,240 M,0,228,,532,440 F,0,211428,211828,0,1 F,0,211828,227828,1 F,0,227828,228228,1,0
Sprite,Foreground,Centre,"Yousei Teikoku.png",320,240 L,215428,2 F,0,0,300,1,0 S,0,0,300,1,1.1 F,0,300,800,0 S,0,300,800,1 L,212228,1 F,0,0,400,1,0 S,0,0,400,1,1.1 F,0,400,800,0 S,0,400,800,1 M,0,56628,,532,440
//Storyboard Sound Samples
//Background Colour Transformations
3,100,163,162,255

[TimingPoints]
653,400,4,2,1,50,1,0
653,-133.333333333333,4,2,1,50,0,0
15053,-83.3333333333333,4,2,1,80,0,0
42253,-133.333333333333,4,2,1,70,0,0
56653,-83.3333333333333,4,2,1,100,0,1
85053,-83.3333333333333,4,2,1,100,0,0
159053,-100,4,2,1,70,0,0
159153,-100,4,1,0,30,0,0
174653,-100,4,1,0,70,0,0
176653,-83.3333333333333,4,2,1,100,0,1
211453,-83.3333333333333,4,2,1,100,0,0
224653,-83.3333333333333,4,2,1,70,0,0

[Colours]
Combo1 : 37,0,74
Combo2 : 174,0,0
Combo3 : 0,0,111

[HitObjects]
47,92,653,6,2,P|118:71|185:101,2,150.000005722046
108,232,1853,1,2,0:0:0:0:
248,284,2253,2,2,B|252:280|252:280|256:284|256:284|260:280|260:280|264:284|264:284|268:280|268:280|272:284|272:284|276:280|276:280|280:284|280:284|308:336|308:336|312:332|312:332|316:336|316:336|320:332|320:332|324:336|324:336|328:332|328:332|332:336|332:336|336:332|336:332|340:336|424:220|424:220|328:156|240:204,1,450.000017166138
128,144,3853,1,2,0:0:0:0:
228,32,4253,2,0,P|237:67|224:102,1,75.0000028610231,2|0,0:0|0:0,0:0:0:0:
120,300,5053,5,2,0:0:0:0:
54,166,5453,2,2,P|80:98|150:78,1,150.000005722046
283,147,6253,2,2,P|257:215|187:235,1,150.000005722046
219,87,7053,2,0,P|186:72|149:75,1,75.0000028610231,2|0,0:0|0:0,0:0:0:0:
127,147,7453,2,0,P|95:130|77:98,2,75.0000028610231,2|0|2,0:0|0:0|0:0,0:0:0:0:
292,152,8253,6,0,P|324:169|342:201,1,75.0000028610231,2|0,0:0|0:0,0:0:0:0:
392,144,8653,2,0,P|405:251|324:321,1,225.000008583069,2|0,0:0|0:0,0:0:0:0:
248,328,9453,2,2,P|179:300|150:233,1,150.000005722046
216,101,10253,2,2,P|284:128|313:195,1,150.000005722046
312,271,10853,1,2,0:0:0:0:
375,317,11053,1,2,0:0:0:0:
416,172,11453,1,2,0:0:0:0:
256,192,11853,1,2,0:0:0:0:
256,192,11953,12,0,14853,0:0:0:0:
135,191,15053,5,4,0:0:0:0:
135,191,15153,1,0,0:0:0:0:
135,191,15253,2,0,P|175:148|233:135,1,119.999996337891,0|2,0:0|0:0,0:0:0:0:
244,164,15553,1,0,0:0:0:0:
255,192,15653,2,0,P|285:191|311:205,1,59.9999981689454
416,262,15953,6,0,P|396:285|369:298,2,59.9999981689454
436,240,16253,1,8,0:0:0:0:
448,212,16353,1,0,0:0:0:0:
440,184,16453,1,0,0:0:0:0:
420,160,16553,1,0,0:0:0:0:
388,147,16653,6,0,B|308:140|308:20|198:15,1,239.999992675781,8|8,0:0|0:0,0:0:0:0:
36,92,17253,1,0,0:0:0:0:
36,272,17453,1,8,0:0:0:0:
196,356,17653,1,0,0:0:0:0:
346,256,17853,6,8,B|400:260|404:200|404:200|376:108|436:84|456:72,1,239.999992675781
480,156,18453,1,0,0:0:0:0:
368,336,18653,2,0,P|309:333|269:290,1,119.999996337891,8|0,0:0|0:0,0:0:0:0:
100,184,19053,1,8,0:0:0:0:
80,160,19153,1,0,0:0:0:0:
68,132,19253,1,0,0:0:0:0:
68,104,19353,1,0,0:0:0:0:
80,75,19453,2,0,P|121:35|180:34,1,119.999996337891,8|0,0:0|0:0,0:0:0:0:
311,100,19853,6,0,P|324:157|368:196,1,119.999996337891,8|0,0:0|0:0,0:0:0:0:
424,196,20153,1,0,0:0:0:0:
456,151,20253,2,0,P|443:94|399:55,1,119.999996337891,8|0,0:0|0:0,0:0:0:0:
211,50,20653,2,8,B|212:156|52:104|41:191,1,239.999992675781
216,236,21253,1,0,0:0:0:0:
115,228,21453,6,0,P|124:286|161:332,1,119.999996337891,8|0,0:0|0:0,0:0:0:0:
320,255,21853,2,0,P|311:197|274:151,1,119.999996337891,8|0,0:0|0:0,0:0:0:0:
448,100,22253,1,8,0:0:0:0:
368,148,22453,1,0,0:0:0:0:
448,200,22653,2,0,P|404:239|346:240,1,119.999996337891,8|0,0:0|0:0,0:0:0:0:
90,188,23053,6,8,P|151:286|266:308,1,239.999992675781
212,200,23653,1,0,0:0:0:0:
331,211,23853,2,8,P|270:113|155:91,1,239.999992675781
76,128,24453,1,0,0:0:0:0:
60,156,24553,1,0,0:0:0:0:
53,186,24653,1,8,0:0:0:0:
27,68,24853,5,0,0:0:0:0:
53,186,25053,2,0,P|68:243|115:279,2,119.999996337891,8|0|8,0:0|0:0|0:0,0:0:0:0:
27,68,25653,1,0,0:0:0:0:
147,67,25853,2,0,P|205:75|252:112,1,119.999996337891,8|0,0:0|0:0,0:0:0:0:
164,188,26253,5,8,0:0:0:0:
164,188,26453,1,0,0:0:0:0:
240,284,26653,1,8,0:0:0:0:
352,244,26853,2,0,P|357:303|332:356,1,119.999996337891,0|8,0:0|0:0,0:0:0:0:
212,364,27253,1,0,0:0:0:0:
91,351,27453,2,0,P|86:292|111:239,1,119.999996337891,8|0,0:0|0:0,0:0:0:0:
212,172,27853,5,8,0:0:0:0:
315,104,28053,2,0,P|283:56|226:40,1,119.999996337891,0|8,0:0|0:0,0:0:0:0:
141,125,28453,1,0,0:0:0:0:
56,209,28653,2,0,P|88:257|145:273,1,119.999996337891,8|0,0:0|0:0,0:0:0:0:
265,273,29053,1,8,0:0:0:0:
265,274,29453,5,2,0:0:0:0:
344,184,29653,2,0,P|314:183|286:194,1,59.9999981689454
332,256,29853,2,0,P|358:266|379:287,1,59.9999981689454,2|0,0:0|0:0,0:0:0:0:
388,320,30053,1,0,0:0:0:0:
269,335,30253,2,0,P|215:317|201:261,1,119.999996337891,2|0,0:0|0:0,0:0:0:0:
202,262,30553,1,0,0:0:0:0:
202,262,30653,1,2,0:0:0:0:
84,227,30853,1,0,0:0:0:0:
84,106,31053,6,0,P|141:92|197:111,1,119.999996337891,2|0,0:0|0:0,0:0:0:0:
220,128,31353,1,0,0:0:0:0:
236,152,31453,1,2,0:0:0:0:
356,156,31653,1,0,0:0:0:0:
442,240,31853,2,0,P|403:283|344:290,1,119.999996337891,2|0,0:0|0:0,0:0:0:0:
345,290,32153,1,0,0:0:0:0:
345,290,32253,1,2,0:0:0:0:
96,82,32653,6,0,P|150:59|207:75,1,119.999996337891,2|0,0:0|0:0,0:0:0:0:
156,140,33053,2,0,P|142:197|98:237,1,119.999996337891,2|0,0:0|0:0,0:0:0:0:
72,252,33353,1,0,0:0:0:0:
44,264,33453,1,2,0:0:0:0:
195,299,33653,2,0,P|216:245|271:225,1,119.999996337891,0|2,0:0|0:0,0:0:0:0:
88,68,34253,6,0,P|117:117|97:171,1,119.999996337891,2|0,0:0|0:0,0:0:0:0:
97,172,34553,1,0,0:0:0:0:
97,172,34653,1,2,0:0:0:0:
188,96,34853,2,0,P|218:145|275:156,1,119.999996337891,0|2,0:0|0:0,0:0:0:0:
448,112,35253,1,0,0:0:0:0:
428,292,35453,1,2,0:0:0:0:
332,220,35653,1,0,0:0:0:0:
224,164,35853,6,0,P|179:202|151:255,1,119.999996337891,2|0,0:0|0:0,0:0:0:0:
305,308,36253,1,2,0:0:0:0:
476,252,36453,1,0,0:0:0:0:
476,72,36653,1,2,0:0:0:0:
304,16,36853,1,0,0:0:0:0:
199,162,37053,1,2,0:0:0:0:
476,72,37253,5,0,0:0:0:0:
452,52,37353,1,0,0:0:0:0:
423,44,37453,2,0,P|366:29|308:39,1,119.999996337891,2|0,0:0|0:0,0:0:0:0:
191,80,37853,1,2,0:0:0:0:
376,129,38053,1,0,0:0:0:0:
196,200,38253,1,0,0:0:0:0:
302,37,38453,1,2,0:0:0:0:
312,231,38653,1,2,0:0:0:0:
424,360,38853,5,0,0:0:0:0:
452,352,38953,1,0,0:0:0:0:
476,335,39053,2,0,P|511:289|510:230,1,119.999996337891,2|0,0:0|0:0,0:0:0:0:
392,244,39453,1,2,0:0:0:0:
392,244,39553,2,0,L|332:254,1,59.9999981689454
272,263,39753,1,2,0:0:0:0:
56,160,40053,1,0,0:0:0:0:
219,84,40253,1,2,0:0:0:0:
35,323,40653,6,0,P|8:271|19:213,1,119.999996337891,2|0,0:0|0:0,0:0:0:0:
140,292,41053,1,2,0:0:0:0:
164,312,41153,2,0,P|190:325|220:328,1,59.9999981689454
252,324,41353,1,0,0:0:0:0:
280,308,41453,5,6,0:0:0:0:
407,180,41653,1,4,0:0:0:0:
279,52,41853,1,6,0:0:0:0:
119,295,42253,6,2,P|79:161|194:79,1,300.000011444092,6|2,0:0|0:0,0:0:0:0:
264,116,43253,1,0,0:0:0:0:
272,124,43453,1,0,0:0:0:0:
280,132,43653,1,2,0:0:0:0:
288,140,43853,2,2,P|328:274|213:356,1,300.000011444092,6|2,0:0|0:0,0:0:0:0:
148,156,45053,1,2,0:0:0:0:
244,96,45253,1,0,0:0:0:0:
248,208,45453,1,6,0:0:0:0:
148,156,45653,5,0,0:0:0:0:
244,96,45853,1,2,0:0:0:0:
148,156,46053,1,0,0:0:0:0:
79,187,46253,2,2,P|139:228|206:201,1,150.000005722046
248,140,46853,1,0,0:0:0:0:
211,75,47053,2,0,P|157:68|108:96,1,112.500004291535,2|0,0:0|0:0,0:0:0:0:
84,124,47453,2,0,P|71:158|80:194,1,75.0000028610231,2|2,0:0|0:0,0:0:0:0:
120,260,47853,1,2,0:0:0:0:
256,192,48253,1,2,0:0:0:0:
408,307,48653,6,0,P|425:275|426:238,2,75.0000028610231,2|0|2,0:0|0:0|0:0,0:0:0:0:
184,320,49453,2,2,P|116:291|81:227,1,150.000005722046
299,171,50253,2,2,P|265:107|197:79,1,150.000005722046
88,112,50853,1,0,0:0:0:0:
44,216,51053,1,2,0:0:0:0:
239,323,51453,2,2,P|313:324|370:278,1,150.000005722046,2|6,0:0|0:0,0:0:0:0:
394,55,52253,5,4,0:0:0:0:
256,192,52653,1,4,0:0:0:0:
118,54,53053,1,4,0:0:0:0:
256,192,53453,1,4,0:0:0:0:
256,192,53553,12,4,54853,0:0:0:0:
149,132,55053,5,4,0:0:0:0:
255,238,55353,1,4,0:0:0:0:
361,131,55653,1,4,0:0:0:0:
254,238,55953,1,4,0:0:0:0:
211,91,56253,2,0,P|167:59|112:66,1,112.500004291535,2|0,0:0|0:0,0:0:0:0:
91,124,56653,6,0,P|49:165|37:223,1,119.999996337891,8|0,0:0|0:0,0:0:0:0:
155,204,57053,2,0,P|155:263|187:312,1,119.999996337891,8|0,0:0|0:0,0:0:0:0:
273,227,57453,2,0,P|314:269|372:281,1,119.999996337891,8|0,0:0|0:0,0:0:0:0:
372,161,57853,1,8,0:0:0:0:
252,156,58053,1,0,0:0:0:0:
137,116,58253,2,0,B|168:64|204:112|236:60,1,119.999996337891,8|0,0:0|0:0,0:0:0:0:
356,60,58653,1,8,0:0:0:0:
476,60,58853,2,0,P|461:117|419:159,1,119.999996337891,0|8,0:0|0:0,0:0:0:0:
249,330,59453,5,8,0:0:0:0:
347,280,59653,1,0,0:0:0:0:
164,244,59853,2,0,P|232:152|347:158,1,239.999992675781,0|8,0:0|0:0,0:0:0:0:
456,64,60653,5,8,0:0:0:0:
458,92,60753,1,0,0:0:0:0:
447,120,60853,1,0,0:0:0:0:
375,235,61053,2,0,P|374:176|342:127,1,119.999996337891,8|0,0:0|0:0,0:0:0:0:
243,200,61453,6,0,P|244:259|276:308,1,119.999996337891,8|0,0:0|0:0,0:0:0:0:
228,132,61853,1,8,0:0:0:0:
212,108,61953,1,0,0:0:0:0:
208,79,62053,2,0,P|240:31|298:21,2,119.999996337891,0|8|0,0:0|0:0|0:0,0:0:0:0:
447,116,62653,6,0,P|423:170|378:208,1,119.999996337891,8|0,0:0|0:0,0:0:0:0:
317,209,62953,1,0,0:0:0:0:
286,155,63053,2,0,P|310:101|355:63,2,119.999996337891,8|0|8,0:0|0:0|0:0,0:0:0:0:
174,204,63653,1,0,0:0:0:0:
56,175,63853,2,0,P|78:121|129:92,2,119.999996337891,8|0|8,0:0|0:0|0:0,0:0:0:0:
44,356,64453,5,0,0:0:0:0:
56,176,64653,1,8,0:0:0:0:
204,275,64853,2,0,P|244:233|245:175,2,119.999996337891,0|8|0,0:0|0:0|0:0,0:0:0:0:
140,196,65453,1,8,0:0:0:0:
320,172,65653,1,0,0:0:0:0:
197,41,65853,1,8,0:0:0:0:
110,125,66053,6,0,B|52:133|83:196|31:205,1,119.999996337891,0|8,0:0|0:0,0:0:0:0:
31,204,66453,1,0,0:0:0:0:
31,205,66653,1,8,0:0:0:0:
72,320,66853,5,0,0:0:0:0:
100,308,66953,1,0,0:0:0:0:
116,284,67053,1,8,0:0:0:0:
256,192,67253,1,0,0:0:0:0:
396,99,67453,2,0,P|445:68|504:72,1,119.999996337891,8|0,0:0|0:0,0:0:0:0:
476,180,67853,6,0,P|478:239|446:289,1,119.999996337891,8|0,0:0|0:0,0:0:0:0:
420,304,68153,1,0,0:0:0:0:
392,312,68253,1,8,0:0:0:0:
200,296,68453,1,0,0:0:0:0:
180,272,68553,1,0,0:0:0:0:
171,243,68653,2,0,P|190:188|242:162,1,119.999996337891,8|0,0:0|0:0,0:0:0:0:
276,275,69053,6,0,P|327:248|345:193,1,119.999996337891,8|0,0:0|0:0,0:0:0:0:
276,106,69453,2,8,P|374:52|461:124,2,239.999992675781
191,191,70453,1,0,0:0:0:0:
275,275,70653,1,8,0:0:0:0:
344,176,70853,1,0,0:0:0:0:
444,105,71053,6,0,L|480:219,1,119.999996337891,8|0,0:0|0:0,0:0:0:0:
360,212,71453,2,0,L|418:316,1,119.999996337891,8|0,0:0|0:0,0:0:0:0:
300,312,71853,2,0,L|346:349,2,59.9999981689454,8|0|0,0:0|0:0|0:0,0:0:0:0:
137,237,72253,5,8,0:0:0:0:
221,152,72453,1,0,0:0:0:0:
324,92,72653,2,8,P|404:178|431:294,1,239.999992675781
384,332,73153,1,0,0:0:0:0:
328,356,73253,1,0,0:0:0:0:
268,360,73353,1,0,0:0:0:0:
208,356,73453,6,8,P|126:269|99:154,1,239.999992675781
216,128,74053,1,0,0:0:0:0:
334,119,74253,2,0,P|315:64|269:26,1,119.999996337891,8|0,0:0|0:0,0:0:0:0:
148,16,74653,1,8,0:0:0:0:
92,120,74853,2,0,P|111:175|157:213,1,119.999996337891,0|8,0:0|0:0,0:0:0:0:
392,192,75453,5,8,0:0:0:0:
392,192,75853,2,8,P|325:101|213:123,1,239.999992675781
92,120,76453,1,0,0:0:0:0:
92,120,76653,2,8,P|159:211|271:189,1,239.999992675781
204,88,77253,1,0,0:0:0:0:
320,55,77453,6,8,P|433:43|496:138,1,239.999992675781
496,168,77953,1,0,0:0:0:0:
488,196,78053,1,0,0:0:0:0:
383,296,78253,2,0,P|354:303|325:302,1,59.9999981689454,8|0,0:0|0:0,0:0:0:0:
296,296,78453,1,0,0:0:0:0:
111,259,78653,2,0,P|92:204|106:146,1,119.999996337891,8|0,0:0|0:0,0:0:0:0:
256,192,79053,12,12,81453,0:0:0:0:
256,192,81853,5,8,0:0:0:0:
256,192,82253,12,12,85053,0:0:0:0:
256,188,85453,5,6,0:0:0:0:
86,18,85853,1,2,0:0:0:0:
256,188,86253,1,2,0:0:0:0:
425,18,86653,1,2,0:0:0:0:
256,188,87053,1,2,0:0:0:0:
86,357,87453,1,2,0:0:0:0:
256,188,87853,1,2,0:0:0:0:
425,357,88253,1,2,0:0:0:0:
435,115,88653,6,0,P|397:71|340:54,1,119.999996337891,8|0,0:0|0:0,0:0:0:0:
323,171,89053,2,0,P|264:167|212:194,1,119.999996337891,8|0,0:0|0:0,0:0:0:0:
307,268,89453,2,0,P|262:306|245:362,2,119.999996337891,8|0|8,0:0|0:0|0:0,0:0:0:0:
68,272,90053,5,0,0:0:0:0:
68,272,90253,2,0,P|106:316|163:333,1,119.999996337891,8|0,0:0|0:0,0:0:0:0:
180,216,90653,2,0,P|239:219|291:191,1,119.999996337891,8|0,0:0|0:0,0:0:0:0:
196,119,91053,2,0,P|240:81|257:24,2,119.999996337891,8|0|8,0:0|0:0|0:0,0:0:0:0:
436,132,91853,6,0,L|473:245,1,119.999996337891,8|0,0:0|0:0,0:0:0:0:
353,245,92253,2,0,L|298:352,1,119.999996337891,8|0,0:0|0:0,0:0:0:0:
214,267,92653,2,0,L|100:304,2,119.999996337891,8|0|8,0:0|0:0|0:0,0:0:0:0:
452,240,93453,6,0,L|489:126,1,119.999996337891,8|0,0:0|0:0,0:0:0:0:
369,127,93853,2,0,L|315:19,1,119.999996337891,8|0,0:0|0:0,0:0:0:0:
230,105,94253,2,0,L|116:66,2,119.999996337891,8|0|8,0:0|0:0|0:0,0:0:0:0:
60,276,95053,6,0,L|104:316,1,59.9999981689454,8|0,0:0|0:0,0:0:0:0:
146,274,95253,2,0,L|176:325,1,59.9999981689454
218,283,95453,2,0,L|262:323,1,59.9999981689454,8|0,0:0|0:0,0:0:0:0:
304,281,95653,2,0,L|334:332,1,59.9999981689454
376,290,95853,2,0,P|420:329|478:337,2,119.999996337891,8|0|8,0:0|0:0|0:0,0:0:0:0:
504,84,96653,6,0,L|459:43,1,59.9999981689454,8|0,0:0|0:0,0:0:0:0:
418,86,96853,2,0,L|387:34,1,59.9999981689454
346,77,97053,2,0,L|301:36,1,59.9999981689454,8|0,0:0|0:0,0:0:0:0:
260,79,97253,2,0,L|229:27,1,59.9999981689454
187,69,97453,2,0,P|143:30|85:22,2,119.999996337891,8|0|8,0:0|0:0|0:0,0:0:0:0:
115,299,98253,6,0,P|68:266|58:208,1,119.999996337891,8|0,0:0|0:0,0:0:0:0:
179,215,98653,2,0,P|170:158|203:110,1,119.999996337891,8|0,0:0|0:0,0:0:0:0:
272,208,99053,1,8,0:0:0:0:
284,180,99153,1,0,0:0:0:0:
308,164,99253,1,0,0:0:0:0:
336,156,99353,1,0,0:0:0:0:
364,164,99453,1,8,0:0:0:0:
356,284,99653,1,0,0:0:0:0:
251,339,99853,6,0,P|208:299|150:287,1,119.999996337891,8|0,0:0|0:0,0:0:0:0:
44,348,100253,1,8,0:0:0:0:
24,324,100353,1,0,0:0:0:0:
20,296,100453,1,0,0:0:0:0:
72,123,100653,5,12,0:0:0:0:
199,250,100853,1,4,0:0:0:0:
326,122,101053,1,12,0:0:0:0:
375,317,101453,6,2,P|403:206|325:121,1,239.999992675781,6|2,0:0|0:0,0:0:0:0:
296,112,101953,1,0,0:0:0:0:
268,104,102053,1,0,0:0:0:0:
240,104,102153,1,0,0:0:0:0:
212,112,102253,1,2,0:0:0:0:
292,236,102653,1,2,0:0:0:0:
187,124,103053,6,2,P|159:235|237:320,1,239.999992675781,6|2,0:0|0:0,0:0:0:0:
264,336,103553,1,0,0:0:0:0:
292,340,103653,1,0,0:0:0:0:
324,340,103753,1,0,0:0:0:0:
352,332,103853,1,2,0:0:0:0:
388,60,104253,6,0,P|392:118|351:160,1,119.999996337891,2|0,0:0|0:0,0:0:0:0:
248,220,104653,1,6,0:0:0:0:
136,248,104853,1,0,0:0:0:0:
128,220,104953,1,0,0:0:0:0:
128,192,105053,1,2,0:0:0:0:
140,164,105153,1,0,0:0:0:0:
164,148,105253,1,0,0:0:0:0:
130,26,105453,6,0,P|73:39|38:85,1,119.999996337891
24,112,105753,1,0,0:0:0:0:
16,140,105853,1,0,0:0:0:0:
20,168,105953,1,0,0:0:0:0:
32,196,106053,1,0,0:0:0:0:
376,319,106253,6,0,P|419:281|421:223,1,119.999996337891,2|0,0:0|0:0,0:0:0:0:
408,196,106553,1,0,0:0:0:0:
384,176,106653,1,2,0:0:0:0:
356,160,106753,1,0,0:0:0:0:
324,160,106853,1,0,0:0:0:0:
296,172,106953,1,0,0:0:0:0:
276,192,107053,1,6,0:0:0:0:
148,300,107253,5,0,0:0:0:0:
200,192,107453,1,2,0:0:0:0:
200,192,107653,1,0,0:0:0:0:
292,268,107853,6,2,P|402:244|422:132,1,239.999992675781,6|2,0:0|0:0,0:0:0:0:
312,88,108453,1,0,0:0:0:0:
199,43,108653,2,2,P|89:67|69:179,1,239.999992675781,6|2,0:0|0:0,0:0:0:0:
112,292,109253,1,0,0:0:0:0:
212,360,109453,2,0,P|270:360|312:320,1,119.999996337891,6|0,0:0|0:0,0:0:0:0:
320,292,109753,1,0,0:0:0:0:
348,280,109853,2,0,P|405:267|435:217,1,119.999996337891,2|0,0:0|0:0,0:0:0:0:
256,192,110253,1,2,0:0:0:0:
160,324,110653,5,2,0:0:0:0:
255,28,111053,1,6,0:0:0:0:
352,324,111453,1,6,0:0:0:0:
100,141,111853,1,6,0:0:0:0:
411,141,112253,1,6,0:0:0:0:
256,192,112653,12,6,114053,0:0:0:0:
256,192,114253,5,4,0:0:0:0:
128,64,114553,1,4,0:0:0:0:
256,192,114853,1,4,0:0:0:0:
383,64,115153,1,4,0:0:0:0:
256,192,115453,5,12,0:0:0:0:
164,268,115653,5,0,0:0:0:0:
138,214,115753,1,0,0:0:0:0:
141,155,115853,1,8,0:0:0:0:
230,75,116053,5,0,0:0:0:0:
289,76,116153,1,0,0:0:0:0:
340,106,116253,1,8,0:0:0:0:
371,221,116453,5,0,0:0:0:0:
343,274,116553,1,0,0:0:0:0:
293,306,116653,1,8,0:0:0:0:
256,192,116853,5,0,0:0:0:0:
171,107,117053,6,0,P|133:63|75:59,1,119.999996337891,8|0,0:0|0:0,0:0:0:0:
115,171,117453,2,0,P|57:167|13:205,1,119.999996337891,8|0,0:0|0:0,0:0:0:0:
119,264,117853,2,0,P|75:302|71:360,2,119.999996337891,8|0|8,0:0|0:0|0:0,0:0:0:0:
239,251,118453,6,0,P|242:193|285:152,1,119.999996337891,0|8,0:0|0:0,0:0:0:0:
360,248,118853,1,0,0:0:0:0:
480,244,119053,2,0,P|477:302|434:343,2,119.999996337891,8|0|8,0:0|0:0|0:0,0:0:0:0:
440,132,119653,1,0,0:0:0:0:
347,55,119853,6,0,P|290:43|236:67,1,119.999996337891,8|0,0:0|0:0,0:0:0:0:
192,180,120253,2,0,P|144:147|120:92,2,119.999996337891,8|0|8,0:0|0:0|0:0,0:0:0:0:
424,52,121053,1,8,0:0:0:0:
396,180,121253,1,0,0:0:0:0:
296,96,121453,1,8,0:0:0:0:
266,222,121653,1,0,0:0:0:0:
368,284,121853,5,8,0:0:0:0:
266,222,122053,1,0,0:0:0:0:
181,138,122253,2,0,P|232:112|242:55,1,119.999996337891,8|0,0:0|0:0,0:0:0:0:
326,139,122653,2,0,P|275:165|265:222,1,119.999996337891,8|0,0:0|0:0,0:0:0:0:
146,221,123053,2,0,P|197:247|207:304,1,119.999996337891,8|0,0:0|0:0,0:0:0:0:
86,304,123453,1,8,0:0:0:0:
86,304,123653,1,0,0:0:0:0:
31,195,123853,6,0,P|47:139|93:101,1,119.999996337891,8|0,0:0|0:0,0:0:0:0:
120,88,124153,1,0,0:0:0:0:
148,80,124253,1,8,0:0:0:0:
292,56,124453,1,0,0:0:0:0:
386,166,124653,1,8,0:0:0:0:
216,335,125053,5,8,0:0:0:0:
156,232,125253,1,0,0:0:0:0:
100,125,125453,2,0,L|156:232,1,119.999996337891,8|0,0:0|0:0,0:0:0:0:
280,236,125853,2,0,L|335:129,2,119.999996337891,8|0|8,0:0|0:0|0:0,0:0:0:0:
365,321,126453,1,0,0:0:0:0:
449,236,126653,1,8,0:0:0:0:
449,116,126853,1,0,0:0:0:0:
363,30,127053,2,0,P|304:35|249:58,1,119.999996337891,8|0,0:0|0:0,0:0:0:0:
163,142,127453,2,0,P|119:103|63:81,2,119.999996337891,8|0|8,0:0|0:0|0:0,0:0:0:0:
384,240,128253,5,8,0:0:0:0:
172,353,128653,2,0,P|116:337|77:292,1,119.999996337891,8|0,0:0|0:0,0:0:0:0:
188,251,129053,2,0,P|159:200|163:141,1,119.999996337891,8|0,0:0|0:0,0:0:0:0:
274,192,129453,2,0,P|289:135|334:96,1,119.999996337891,8|0,0:0|0:0,0:0:0:0:
213,93,129853,1,8,0:0:0:0:
213,94,130253,6,0,P|154:100|108:138,1,119.999996337891,8|0,0:0|0:0,0:0:0:0:
211,195,130653,2,0,P|174:241|168:300,1,119.999996337891,8|0,0:0|0:0,0:0:0:0:
286,267,131053,2,0,P|292:325|330:371,1,119.999996337891,8|0,0:0|0:0,0:0:0:0:
404,276,131453,5,8,0:0:0:0:
444,184,131853,2,0,P|429:126|385:86,1,119.999996337891,8|0,0:0|0:0,0:0:0:0:
268,64,132253,1,8,0:0:0:0:
268,184,132453,1,0,0:0:0:0:
164,124,132653,2,0,P|133:174|136:234,1,119.999996337891,8|0,0:0|0:0,0:0:0:0:
252,276,133053,1,8,0:0:0:0:
252,276,133253,1,0,0:0:0:0:
123,335,133453,6,8,P|83:232|177:173,1,239.999992675781
208,176,133953,1,0,0:0:0:0:
236,172,134053,1,0,0:0:0:0:
260,156,134153,1,0,0:0:0:0:
276,132,134253,1,8,0:0:0:0:
484,264,134653,5,8,0:0:0:0:
255,347,135053,2,8,P|176:270|235:176,1,239.999992675781
235,176,135653,1,0,0:0:0:0:
300,76,135853,2,8,P|379:153|320:247,1,239.999992675781
92,76,136653,1,8,0:0:0:0:
91,76,137053,1,8,0:0:0:0:
212,76,137253,2,0,P|318:126|375:229,1,239.999992675781,0|0,0:0|0:0,0:0:0:0:
462,316,137853,1,8,0:0:0:0:
375,230,138053,1,0,0:0:0:0:
256,192,138253,12,4,140653,0:0:0:0:
256,192,141053,5,8,0:0:0:0:
256,192,141453,12,4,144253,0:0:0:0:
216,108,144653,5,2,0:0:0:0:
224,92,144753,1,0,0:0:0:0:
233,76,144853,2,0,P|257:57|286:51,2,59.9999981689454,0|0|2,0:0|0:0|0:0,0:0:0:0:
132,180,145253,1,0,0:0:0:0:
8,256,145453,2,0,P|45:302|100:324,2,119.999996337891,2|0|2,0:0|0:0|0:0,0:0:0:0:
132,180,146053,1,0,0:0:0:0:
272,292,146253,6,0,L|327:313,4,59.9999981689454,2|0|0|0|2,0:0|0:0|0:0|0:0|0:0,0:0:0:0:
412,176,146853,1,0,0:0:0:0:
268,68,147053,2,0,P|306:24|363:9,2,119.999996337891,2|0|2,0:0|0:0|0:0,0:0:0:0:
304,184,147653,1,0,0:0:0:0:
400,184,147853,1,2,0:0:0:0:
400,228,147953,1,0,0:0:0:0:
391,264,148053,6,0,P|386:294|370:319,2,59.9999981689454,0|0|2,0:0|0:0|0:0,0:0:0:0:
332,208,148453,1,0,0:0:0:0:
256,243,148653,2,0,P|243:187|190:165,2,119.999996337891,2|0|2,0:0|0:0|0:0,0:0:0:0:
256,244,149253,1,0,0:0:0:0:
168,248,149453,1,2,0:0:0:0:
108,188,149653,2,0,L|67:143,2,59.9999981689454,0|0|6,0:0|0:0|0:0,0:0:0:0:
349,188,150053,5,0,0:0:0:0:
108,188,150253,1,2,0:0:0:0:
324,296,150453,2,0,L|369:335,2,59.9999981689454,0|0|6,0:0|0:0|0:0,0:0:0:0:
108,188,150853,1,0,0:0:0:0:
296,104,151053,1,2,0:0:0:0:
308,92,151153,1,0,0:0:0:0:
320,80,151253,6,0,L|359:34,2,59.9999981689454,0|0|2,0:0|0:0|0:0,0:0:0:0:
490,250,151653,1,0,0:0:0:0:
249,250,151853,1,2,0:0:0:0:
8,250,152053,2,0,L|70:352,2,119.999996337891,0|2|0,0:0|0:0|0:0,0:0:0:0:
149,122,152653,5,2,0:0:0:0:
176,112,152753,1,0,0:0:0:0:
200,128,152853,1,0,0:0:0:0:
228,124,152953,1,0,0:0:0:0:
252,108,153053,1,2,0:0:0:0:
437,181,153253,1,0,0:0:0:0:
436,301,153453,6,0,P|378:302|331:265,2,119.999996337891,2|0|2,0:0|0:0|0:0,0:0:0:0:
437,181,154053,1,0,0:0:0:0:
440,60,154253,5,2,0:0:0:0:
256,24,154553,1,0,0:0:0:0:
352,176,154853,1,0,0:0:0:0:
160,176,155153,1,0,0:0:0:0:
304,280,155453,5,2,0:0:0:0:
196,336,155653,1,0,0:0:0:0:
108,252,155853,2,2,B|76:196|104:148|104:148|140:196|212:196|248:124|212:80|212:80|300:80|300:80|260:140|324:208|384:188|408:144|408:144|432:200|406:251,1,719.999978027344
256,192,157453,12,6,159053,0:0:0:0:
52,192,159253,5,0,0:0:0:0:
122,121,159453,1,0,0:0:0:0:
122,321,159853,1,0,0:0:0:0:
192,250,160053,1,0,0:0:0:0:
192,50,160453,5,0,0:0:0:0:
262,119,160653,2,0,P|296:85|344:89,1,100
332,188,161053,1,0,0:0:0:0:
190,329,161453,1,0,0:0:0:0:
290,329,161653,1,0,0:0:0:0:
148,187,162053,1,0,0:0:0:0:
52,163,162253,6,0,P|75:120|117:93,2,100,0|0|0,0:0|0:0|0:0,0:0:0:0:
148,187,162853,1,0,0:0:0:0:
289,328,163253,1,0,0:0:0:0:
360,256,163453,1,0,0:0:0:0:
501,115,163853,5,0,0:0:0:0:
430,44,164053,1,0,0:0:0:0:
359,114,164253,1,0,0:0:0:0:
164,160,164653,1,0,0:0:0:0:
76,208,164853,1,0,0:0:0:0:
236,332,165253,1,0,0:0:0:0:
334,302,165453,1,0,0:0:0:0:
475,160,165853,2,0,P|426:153|387:181,1,100
245,39,166453,5,0,0:0:0:0:
174,109,166653,1,0,0:0:0:0:
103,179,166853,2,0,L|150:193,2,50
244,320,167453,1,0,0:0:0:0:
383,180,167853,2,0,P|409:136|442:100,1,100
384,180,168253,2,0,L|410:276,1,100
482,205,168653,1,0,0:0:0:0:
340,63,169053,2,0,L|243:90,2,100
200,204,169853,5,0,0:0:0:0:
200,204,170053,1,0,0:0:0:0:
200,203,170253,2,0,P|190:252|213:295,2,100
344,64,171053,2,0,P|406:138|397:235,1,200
199,203,171853,2,0,P|137:129|146:32,2,200
400,224,173053,1,0,0:0:0:0:
261,77,173453,2,0,P|48:187|268:283,1,600,0|4,0:0|0:0,0:0:0:0:
471,299,175053,5,4,0:0:0:0:
364,192,175353,1,4,0:0:0:0:
257,298,175653,1,4,0:0:0:0:
150,191,175953,1,4,0:0:0:0:
256,84,176253,1,4,0:0:0:0:
425,252,176653,6,0,P|455:202|449:143,1,119.999996337891,8|0,0:0|0:0,0:0:0:0:
428,120,176953,1,0,0:0:0:0:
395,115,177053,2,0,P|338:129|300:174,1,119.999996337891,8|0,0:0|0:0,0:0:0:0:
188,216,177453,2,0,P|218:266|212:325,1,119.999996337891,8|0,0:0|0:0,0:0:0:0:
188,344,177753,1,0,0:0:0:0:
159,348,177853,2,0,P|102:333|64:288,2,119.999996337891,8|0|8,0:0|0:0|0:0,0:0:0:0:
116,236,178453,5,0,0:0:0:0:
140,120,178653,1,8,0:0:0:0:
227,200,178853,2,0,P|241:257|287:294,1,119.999996337891,0|8,0:0|0:0,0:0:0:0:
316,304,179153,1,0,0:0:0:0:
344,308,179253,1,0,0:0:0:0:
372,300,179353,1,0,0:0:0:0:
396,280,179453,5,8,0:0:0:0:
316,116,179653,1,0,0:0:0:0:
173,148,179853,2,8,P|63:172|47:283,1,239.999992675781,8|8,0:0|0:0,0:0:0:0:
168,268,180453,1,0,0:0:0:0:
268,203,180653,2,8,P|378:227|394:338,1,239.999992675781
468,244,181253,1,0,0:0:0:0:
460,216,181353,1,0,0:0:0:0:
452,188,181453,1,8,0:0:0:0:
320,104,181653,5,0,0:0:0:0:
199,95,181853,2,0,P|141:100|100:142,2,119.999996337891,8|0|8,0:0|0:0|0:0,0:0:0:0:
200,96,182353,1,0,0:0:0:0:
200,96,182453,1,0,0:0:0:0:
224,212,182653,5,8,0:0:0:0:
332,268,182853,1,0,0:0:0:0:
448,295,183053,2,8,P|422:184|311:159,1,239.999992675781
192,140,183653,1,0,0:0:0:0:
71,160,183853,2,8,P|97:271|208:296,1,239.999992675781
208,56,184653,5,8,0:0:0:0:
348,248,185053,1,8,0:0:0:0:
347,248,185253,2,0,P|316:298|265:328,1,119.999996337891,0|8,0:0|0:0,0:0:0:0:
236,332,185553,1,0,0:0:0:0:
208,328,185653,1,0,0:0:0:0:
48,240,185853,5,8,0:0:0:0:
48,240,186053,1,0,0:0:0:0:
48,239,186253,2,8,P|142:175|242:230,1,239.999992675781
424,72,187053,2,0,L|439:190,1,119.999996337891,8|0,0:0|0:0,0:0:0:0:
320,172,187453,2,0,L|284:286,1,119.999996337891,8|0,0:0|0:0,0:0:0:0:
216,188,187853,1,8,0:0:0:0:
95,175,188053,2,0,P|95:118|140:81,2,119.999996337891,0|8|0,0:0|0:0|0:0,0:0:0:0:
168,272,188653,1,8,0:0:0:0:
396,296,189053,5,8,0:0:0:0:
396,296,189253,1,0,0:0:0:0:
396,295,189453,2,8,P|454:196|404:93,1,239.999992675781
351,62,189953,1,0,0:0:0:0:
292,48,190053,1,0,0:0:0:0:
232,48,190153,1,0,0:0:0:0:
175,68,190253,2,8,P|117:167|167:270,1,239.999992675781
256,192,190853,5,0,0:0:0:0:
255,89,191053,1,8,0:0:0:0:
353,160,191253,1,0,0:0:0:0:
316,274,191453,1,8,0:0:0:0:
196,274,191653,1,0,0:0:0:0:
158,160,191853,1,8,0:0:0:0:
316,274,192253,5,8,0:0:0:0:
224,88,192653,2,8,P|332:133|382:239,1,239.999992675781
264,216,193253,1,0,0:0:0:0:
155,160,193453,2,8,P|189:272|289:333,1,239.999992675781
396,276,194053,1,0,0:0:0:0:
447,167,194253,1,8,0:0:0:0:
447,166,194453,2,0,P|432:110|384:75,2,119.999996337891,0|8|0,0:0|0:0|0:0,0:0:0:0:
447,167,195053,1,8,0:0:0:0:
244,36,195453,5,8,0:0:0:0:
332,120,195653,2,0,P|354:174|338:231,1,119.999996337891,0|8,0:0|0:0,0:0:0:0:
320,256,195953,1,0,0:0:0:0:
296,272,196053,1,0,0:0:0:0:
268,280,196153,1,0,0:0:0:0:
240,276,196253,1,8,0:0:0:0:
72,216,196453,5,0,0:0:0:0:
12,112,196653,2,0,L|129:86,1,119.999996337891,8|0,0:0|0:0,0:0:0:0:
216,168,197053,1,8,0:0:0:0:
296,260,197253,2,0,L|414:237,1,119.999996337891,0|8,0:0|0:0,0:0:0:0:
414,237,197553,1,0,0:0:0:0:
414,237,197653,1,0,0:0:0:0:
476,132,197853,6,0,P|456:72|414:30,2,119.999996337891,8|0|8,0:0|0:0|0:0,0:0:0:0:
356,136,198453,1,0,0:0:0:0:
292,32,198653,2,0,P|250:74|232:131,1,119.999996337891,8|0,0:0|0:0,0:0:0:0:
256,192,199053,12,4,201453,0:0:0:0:
256,192,201853,5,8,0:0:0:0:
256,192,202253,12,4,205053,0:0:0:0:
124,120,205453,6,0,P|181:121|215:74,1,119.999996337891,8|0,0:0|0:0,0:0:0:0:
331,100,205853,2,0,P|330:157|377:191,1,119.999996337891,8|0,0:0|0:0,0:0:0:0:
319,295,206253,2,0,P|262:294|228:341,1,119.999996337891,8|0,0:0|0:0,0:0:0:0:
120,295,206653,2,0,P|121:238|74:204,1,119.999996337891,8|0,0:0|0:0,0:0:0:0:
124,120,207053,2,0,P|181:121|215:74,1,119.999996337891,8|0,0:0|0:0,0:0:0:0:
331,100,207453,2,0,P|330:157|377:191,1,119.999996337891,8|0,0:0|0:0,0:0:0:0:
256,192,207853,1,8,0:0:0:0:
256,192,208253,1,8,0:0:0:0:
256,192,208653,12,4,211453,0:0:0:0:
256,192,211853,5,2,0:0:0:0:
200,87,212053,2,0,P|255:68|312:85,1,119.999996337891,0|2,0:0|0:0,0:0:0:0:
256,192,212453,1,0,0:0:0:0:
311,296,212653,2,0,P|256:315|199:298,1,119.999996337891,2|0,0:0|0:0,0:0:0:0:
114,213,213053,5,2,0:0:0:0:
114,213,213253,1,0,0:0:0:0:
113,212,213453,2,0,P|79:165|84:107,1,119.999996337891,2|0,0:0|0:0,0:0:0:0:
196,64,213853,1,2,0:0:0:0:
196,64,214053,2,0,L|311:94,2,119.999996337891,0|2|0,0:0|0:0|0:0,0:0:0:0:
84,108,214653,1,2,0:0:0:0:
134,253,214853,1,0,0:0:0:0:
245,209,215053,6,0,L|316:305,1,119.999996337891,2|0,0:0|0:0,0:0:0:0:
316,305,215453,1,6,0:0:0:0:
317,64,215853,2,0,L|436:79,1,119.999996337891,2|0,0:0|0:0,0:0:0:0:
436,79,216253,1,6,0:0:0:0:
194,79,216653,2,0,P|139:64|92:98,1,119.999996337891,2|0,0:0|0:0,0:0:0:0:
68,218,217053,1,2,0:0:0:0:
68,218,217253,2,0,P|84:274|126:322,1,119.999996337891,0|2,0:0|0:0,0:0:0:0:
192,216,217653,1,0,0:0:0:0:
312,212,217853,5,2,0:0:0:0:
312,211,218053,2,0,P|365:189|389:135,2,119.999996337891,0|2|0,0:0|0:0|0:0,0:0:0:0:
312,212,218653,1,2,0:0:0:0:
80,147,219053,2,2,P|153:61|261:93,1,239.999992675781
430,263,219853,2,2,P|357:349|249:317,1,239.999992675781
249,317,220453,1,0,0:0:0:0:
249,317,220653,1,2,0:0:0:0:
112,120,221053,1,2,0:0:0:0:
256,192,221453,12,4,224253,0:0:0:0:
256,192,224653,5,4,0:0:0:0:
164,111,224853,2,0,P|212:77|271:70,1,119.999996337891,0|2,0:0|0:0,0:0:0:0:
300,72,225153,1,0,0:0:0:0:
324,88,225253,1,0,0:0:0:0:
388,256,225453,2,0,P|369:311|316:334,1,119.999996337891,2|0,0:0|0:0,0:0:0:0:
195,332,225853,2,0,P|140:313|117:260,1,119.999996337891,2|0,0:0|0:0,0:0:0:0:
32,174,226253,5,2,0:0:0:0:
116,89,226453,1,0,0:0:0:0:
228,43,226653,2,0,P|286:31|345:41,1,119.999996337891,2|0,0:0|0:0,0:0:0:0:
376,52,226953,1,0,0:0:0:0:
404,64,227053,1,2,0:0:0:0:
460,236,227253,1,0,0:0:0:0:
391,336,227453,2,0,P|332:339|281:310,1,119.999996337891,2|0,0:0|0:0,0:0:0:0:
256,192,227853,5,4,0:0:0:0:
