osu file format v13

[General]
AudioFilename: yousei teikoku - noble roar.mp3
AudioLeadIn: 0
PreviewTime: 176653
Countdown: 0
SampleSet: Soft
StackLeniency: 0.7
Mode: 0
LetterboxInBreaks: 1
WidescreenStoryboard: 1

[Editor]
DistanceSpacing: 1
BeatDivisor: 4
GridSize: 4
TimelineZoom: 1

[Metadata]
Title:Noble Roar
TitleUnicode:Noble Roar
Artist:Yousei Teikoku
ArtistUnicode:妖精帝國
Creator:Setsurei
Version:Easy
Source:Innocent Venus
Tags:J-Rock Lantis Yui イノセント・ヴィーナス Inosento Vīnasu Joe Katsuragi Jin Tsurusawa Sana Nobuto kuroanchan Sallad4ever
BeatmapID:309676
BeatmapSetID:118880

[Difficulty]
HPDrainRate:2
CircleSize:3
OverallDifficulty:3
ApproachRate:3
SliderMultiplier:1
SliderTickRate:1

[Events]
//Background and Video events
0,0,"BG.jpg",0,0
//Break Periods
2,85453,87213
//Storyboard Layer 0 (Background)
//Storyboard Layer 1 (Fail)
//Storyboard Layer 2 (Pass)
//Storyboard Layer 3 (Foreground)
//Storyboard Sound Samples
//Background Colour Transformations
3,100,163,162,255

[TimingPoints]
653,400,4,2,1,50,1,0
15053,-100,4,2,1,100,0,0
42253,-100,4,2,1,70,0,0
56653,-100,4,2,1,100,0,1
85053,-100,4,2,1,100,0,0
159053,-100,4,2,1,70,0,0
159153,-100,4,1,0,30,0,0
174653,-100,4,1,0,70,0,0
176653,-100,4,2,1,100,0,1
208253,-200,4,2,1,100,0,1
211853,-100,4,2,1,100,0,0

[Colours]
Combo1 : 37,0,74
Combo2 : 174,0,0
Combo3 : 0,0,111

[HitObjects]
176,107,653,6,0,P|86:83|12:149,1,200,2|2,0:0|0:0,0:0:0:0:
108,184,1853,1,2,0:0:0:0:
28,244,2253,2,0,B|58:295|128:308|183:271|201:226|201:226|363:319,1,400,2|2,0:0|0:0,0:0:0:0:
451,276,4253,2,0,P|462:227|446:180,1,100,0|2,0:0|0:0,0:0:0:0:
384,104,5053,5,2,0:0:0:0:
296,60,5453,2,0,P|247:49|200:65,1,100,2|2,0:0|0:0,0:0:0:0:
128,132,6253,2,0,P|117:181|133:228,1,100,2|2,0:0|0:0,0:0:0:0:
224,268,7053,2,0,B|304:288|363:253|363:253|380:268|391:301,1,200,2|2,0:0|0:0,0:0:0:0:
336,384,8253,1,2,0:0:0:0:
236,371,8653,6,0,B|91:325|131:173|227:177|227:177|276:212|329:181,1,400,2|2,0:0|0:0,0:0:0:0:
420,208,10653,2,0,P|424:305|355:373,1,200,2|2,0:0|0:0,0:0:0:0:
256,192,11853,12,4,15053,0:0:0:0:
80,127,16653,6,0,P|132:47|228:48,1,200,8|8,0:0|0:0,0:0:0:0:
180,136,17853,1,8,0:0:0:0:
279,144,18253,2,0,P|227:224|131:223,1,200,8|8,0:0|0:0,0:0:0:0:
40,176,19453,1,8,0:0:0:0:
36,276,19853,6,0,P|172:330|310:281,1,300,8|8,0:0|0:0,0:0:0:0:
387,219,21453,2,0,P|410:263|403:312,2,99.9999999999999,8|8|8,0:0|0:0|0:0,0:0:0:0:
304,168,22653,1,8,0:0:0:0:
208,188,23053,6,0,B|208:80|316:72|316:72|324:52,2,200,8|8|8,0:0|0:0|0:0,0:0:0:0:
176,284,25053,2,0,P|132:260|115:215,2,99.9999999999999,8|8|8,0:0|0:0|0:0,0:0:0:0:
206,188,26253,2,0,P|473:132|314:353,1,700,8|8,0:0|0:0,0:0:0:0:
216,332,29453,6,0,L|123:294,1,99.9999999999999,2|2,0:0|0:0,0:0:0:0:
296,52,31053,2,0,L|388:89,1,99.9999999999999,2|2,0:0|0:0,0:0:0:0:
128,262,32653,2,0,L|89:170,1,99.9999999999999,2|2,0:0|0:0,0:0:0:0:
383,121,34253,2,0,L|422:212,1,99.9999999999999,2|2,0:0|0:0,0:0:0:0:
136,252,35853,6,0,B|136:352|392:220|391:326,1,300,2|2,0:0|0:0,0:0:0:0:
484,292,37453,2,0,B|452:176|296:185|296:185|269:127,1,300,2|2,0:0|0:0,0:0:0:0:
220,40,39053,6,0,B|276:20|276:20|346:55|346:55|408:55,1,200,2|2,0:0|0:0,0:0:0:0:
472,136,40253,1,2,0:0:0:0:
408,212,40653,2,0,B|345:212|345:212|275:247|275:247|219:227,1,200,2|6,0:0|0:0,0:0:0:0:
131,52,42253,6,0,P|55:112|47:209,1,200,6|2,0:0|0:0,0:0:0:0:
88,300,43453,1,2,0:0:0:0:
188,287,43853,2,0,P|264:227|272:130,1,200,6|2,0:0|0:0,0:0:0:0:
352,72,45053,5,2,0:0:0:0:
412,152,45453,2,0,P|416:201|404:250,1,99.9999999999999,6|2,0:0|0:0,0:0:0:0:
315,295,46253,2,0,P|311:246|323:197,1,99.9999999999999,2|2,0:0|0:0,0:0:0:0:
259,119,47053,2,0,P|210:115|161:127,2,99.9999999999999,2|2|2,0:0|0:0|0:0,0:0:0:0:
88,220,48653,6,0,B|136:248|124:308|124:308|180:288|209:333,1,200,2|2,0:0|0:0,0:0:0:0:
408,311,50253,2,0,P|442:222|388:142,1,200,2|2,0:0|0:0,0:0:0:0:
208,52,51853,1,6,0:0:0:0:
64,192,52653,1,4,0:0:0:0:
256,192,53453,12,4,55053,0:0:0:0:
256,292,56253,5,8,0:0:0:0:
256,191,56653,6,0,P|323:121|420:122,1,200,8|8,0:0|0:0,0:0:0:0:
484,200,57853,2,0,L|455:295,1,99.9999999999999,8|8,0:0|0:0,0:0:0:0:
367,344,58653,2,0,P|270:346|202:276,1,200,8|8,0:0|0:0,0:0:0:0:
148,191,59853,6,0,P|245:190|313:259,2,200,8|8|8,0:0|0:0|0:0,0:0:0:0:
56,232,61853,2,0,P|43:185|61:140,1,100,8|8,0:0|0:0,0:0:0:0:
108,48,62653,5,8,0:0:0:0:
208,48,63053,1,8,0:0:0:0:
303,223,63853,6,0,P|301:126|370:58,1,200,8|8,0:0|0:0,0:0:0:0:
416,148,65053,2,0,L|490:214,1,99.9999999999999,8|8,0:0|0:0,0:0:0:0:
392,244,65853,6,0,L|453:323,1,99.9999999999999,8|8,0:0|0:0,0:0:0:0:
259,268,67053,2,0,P|173:314|75:305,1,200,8|8,0:0|0:0,0:0:0:0:
96,208,68253,2,0,P|66:168|66:118,1,99.9999999999999,8|8,0:0|0:0,0:0:0:0:
164,136,69053,5,8,0:0:0:0:
228,211,69453,2,0,P|313:162|355:73,2,200,8|8|8,0:0|0:0|0:0,0:0:0:0:
172,296,71453,2,0,L|82:251,1,99.9999999999999,8|8,0:0|0:0,0:0:0:0:
68,152,72253,5,8,0:0:0:0:
145,86,72653,2,0,B|248:12|308:172|428:91,1,300,8|8,0:0|0:0,0:0:0:0:
479,175,74253,2,0,P|481:249|433:305,2,150,8|0|8,0:0|0:0|0:0,0:0:0:0:
388,216,75853,5,8,0:0:0:0:
199,288,76653,2,0,P|104:292|48:214,1,200,8|8,0:0|0:0,0:0:0:0:
92,123,77853,2,0,P|187:119|243:197,1,200,8|8,0:0|0:0,0:0:0:0:
143,211,79053,2,0,P|358:119|264:333,1,600,8|12,0:0|0:0,0:0:0:0:
256,192,82253,12,12,85053,0:0:0:0:
88,155,88653,6,0,P|168:99|266:100,1,200,8|8,0:0|0:0,0:0:0:0:
423,228,90253,2,0,P|343:284|245:283,1,200,8|8,0:0|0:0,0:0:0:0:
88,155,91853,2,0,P|168:99|266:100,1,200,8|8,0:0|0:0,0:0:0:0:
423,228,93453,2,0,P|343:284|245:283,1,200,8|8,0:0|0:0,0:0:0:0:
44,300,95053,6,0,P|33:251|45:203,1,99.9999999999999,8|8,0:0|0:0,0:0:0:0:
135,155,95853,2,0,P|146:204|134:252,1,99.9999999999999,8|8,0:0|0:0,0:0:0:0:
132,352,96653,5,8,0:0:0:0:
220,308,97053,2,0,B|288:260|280:192|280:192|341:184,1,200,8|8,0:0|0:0,0:0:0:0:
432,228,98253,6,0,B|364:276|371:343|371:343|308:352,2,200,8|8|8,0:0|0:0|0:0,0:0:0:0:
496,152,100253,2,0,P|469:111|424:88,1,99.9999999999999,8|12,0:0|0:0,0:0:0:0:
227,83,101453,6,0,P|131:104|63:175,1,200,6|2,0:0|0:0,0:0:0:0:
68,276,102653,1,2,0:0:0:0:
160,316,103053,2,0,P|256:295|324:224,1,200,6|2,0:0|0:0,0:0:0:0:
388,148,104253,5,2,0:0:0:0:
428,56,104653,2,0,B|372:20|300:64|288:120|288:120|268:112,1,200,6|2,0:0|0:0,0:0:0:0:
136,264,106253,2,0,L|205:336,1,99.9999999999999,2|2,0:0|0:0,0:0:0:0:
308,336,107053,2,0,L|377:263,1,99.9999999999999,2|2,0:0|0:0,0:0:0:0:
343,167,107853,6,0,P|260:120|173:160,1,200,6|6,0:0|0:0,0:0:0:0:
254,218,109053,1,2,0:0:0:0:
168,268,109453,2,0,P|251:315|338:275,1,200,6|2,0:0|0:0,0:0:0:0:
356,76,111053,1,6,0:0:0:0:
156,76,111853,1,6,0:0:0:0:
256,192,112653,12,4,114253,0:0:0:0:
72,80,115453,5,12,0:0:0:0:
96,176,115853,2,0,L|181:227,1,99.9999999999999,8|8,0:0|0:0,0:0:0:0:
184,128,116653,2,0,L|277:164,1,99.9999999999999,8|8,0:0|0:0,0:0:0:0:
272,64,117453,2,0,L|370:83,1,99.9999999999999,8|8,0:0|0:0,0:0:0:0:
422,168,118253,1,8,0:0:0:0:
472,256,118653,5,8,0:0:0:0:
399,328,119053,2,0,P|305:356|210:329,1,200,8|8,0:0|0:0,0:0:0:0:
80,180,120653,2,0,L|38:89,2,99.9999999999999,8|8|8,0:0|0:0|0:0,0:0:0:0:
88,280,121853,5,8,0:0:0:0:
168,220,122253,2,0,B|188:116|320:88|320:88|320:173,1,300,8|8,0:0|0:0,0:0:0:0:
320,275,123853,2,0,B|320:341|320:341|408:344|433:286,1,200,8|8,0:0|0:0,0:0:0:0:
452,188,125053,5,8,0:0:0:0:
444,88,125453,2,0,B|444:44|268:88|268:32,1,200,8|8,0:0|0:0,0:0:0:0:
140,184,127053,1,8,0:0:0:0:
43,211,127453,2,0,P|67:255|110:279,1,99.9999999999999,8|8,0:0|0:0,0:0:0:0:
172,360,128253,5,8,0:0:0:0:
231,279,128653,2,0,P|265:190|359:172,2,200,8|8|8,0:0|0:0|0:0,0:0:0:0:
331,267,130653,2,0,P|380:276|421:250,1,99.9999999999999,8|8,0:0|0:0,0:0:0:0:
452,156,131453,5,8,0:0:0:0:
391,75,131853,2,0,P|299:41|204:65,1,200,8|8,0:0|0:0,0:0:0:0:
40,180,133453,2,0,L|57:278,2,99.9999999999999,8|8|8,0:0|0:0|0:0,0:0:0:0:
140,164,134653,5,8,0:0:0:0:
148,264,135053,2,0,P|230:216|231:121,1,200,8|8,0:0|0:0,0:0:0:0:
180,36,136253,1,8,0:0:0:0:
280,36,136653,2,0,P|362:83|363:178,1,200,8|8,0:0|0:0,0:0:0:0:
300,256,137853,1,8,0:0:0:0:
256,192,138253,12,4,140653,0:0:0:0:
256,192,141453,12,4,144253,0:0:0:0:
136,143,145053,6,0,P|191:64|287:58,1,200,2|2,0:0|0:0,0:0:0:0:
375,240,146653,2,0,P|320:319|224:325,1,200,2|2,0:0|0:0,0:0:0:0:
136,143,148253,2,0,P|191:64|287:58,1,200,2|2,0:0|0:0,0:0:0:0:
375,240,149853,2,0,P|357:285|318:316,2,99.9999999999999,6|2|6,0:0|0:0|0:0,0:0:0:0:
464,192,151053,5,2,0:0:0:0:
375,143,151453,2,0,P|320:64|224:58,1,200,2|2,0:0|0:0,0:0:0:0:
188,152,152653,1,2,0:0:0:0:
136,240,153053,2,0,P|191:319|287:325,1,200,2|2,0:0|0:0,0:0:0:0:
236,240,154253,5,2,0:0:0:0:
188,152,154653,1,2,0:0:0:0:
91,120,155053,2,0,P|114:76|158:53,1,99.9999999999999,2|2,0:0|0:0,0:0:0:0:
260,48,155853,2,0,P|354:78|424:148,1,200,2|2,0:0|0:0,0:0:0:0:
456,244,157053,1,2,0:0:0:0:
359,271,157453,2,0,P|265:241|195:171,2,200,2|2|2,0:0|0:0|0:0,0:0:0:0:
76,158,160653,6,0,P|129:79|225:80,1,200,0|0,0:0|0:0,0:0:0:0:
176,168,161853,1,0,0:0:0:0:
275,176,162253,2,0,P|221:256|125:255,2,200
456,256,164653,5,0,0:0:0:0:
428,160,165053,1,0,0:0:0:0:
343,104,165453,2,0,P|379:69|427:58,2,99.9999999999999,0|0|0,0:0|0:0|0:0,0:0:0:0:
264,164,166653,5,0,0:0:0:0:
312,252,167053,2,0,B|232:288|180:220|180:220|134:244,1,200,0|0,0:0|0:0,0:0:0:0:
292,120,168653,2,0,B|352:44|424:76|424:76|424:124,1,200,0|0,0:0|0:0,0:0:0:0:
424,224,169853,5,0,0:0:0:0:
408,324,170253,2,0,B|320:292|328:212|328:212|278:212,1,200,0|0,0:0|0:0,0:0:0:0:
180,212,171453,5,0,0:0:0:0:
91,263,171853,2,0,P|83:168|159:109,1,200,0|0,0:0|0:0,0:0:0:0:
256,88,173053,1,0,0:0:0:0:
320,164,173453,2,0,P|328:259|252:318,1,200,0|0,0:0|0:0,0:0:0:0:
139,151,175053,6,0,P|170:132|207:125,3,75,4|0|4|0,0:0|0:0|0:0|0:0,0:0:0:0:
281,141,176253,1,4,0:0:0:0:
344,220,176653,6,0,P|309:310|218:344,1,200,12|8,0:0|0:0,0:0:0:0:
120,344,177853,1,8,0:0:0:0:
44,280,178253,1,8,0:0:0:0:
19,183,178653,2,0,P|25:134|53:94,1,100,8|8,0:0|0:0,0:0:0:0:
128,28,179453,5,8,0:0:0:0:
227,27,179853,2,0,P|325:24|413:69,1,200,8|8,0:0|0:0,0:0:0:0:
275,211,181453,2,0,P|177:208|89:254,1,200,8|8,0:0|0:0,0:0:0:0:
16,324,182653,5,8,0:0:0:0:
116,340,183053,2,0,P|214:343|302:297,1,200,8|8,0:0|0:0,0:0:0:0:
467,184,184653,2,0,P|463:109|423:47,2,150,8|0|8,0:0|0:0|0:0,0:0:0:0:
371,147,186253,6,0,P|293:88|195:86,2,200,8|8|8,0:0|0:0|0:0,0:0:0:0:
272,168,188253,2,0,P|309:200|327:246,1,99.9999999999999,8|8,0:0|0:0,0:0:0:0:
228,260,189053,1,8,0:0:0:0:
167,179,189453,6,0,P|135:142|89:124,2,99.9999999999999,8|8|8,0:0|0:0|0:0,0:0:0:0:
76,224,190653,1,8,0:0:0:0:
20,308,191053,2,0,B|66:350|140:309|140:309|200:348,1,200,8|8,0:0|0:0,0:0:0:0:
300,340,192253,5,8,0:0:0:0:
356,256,192653,2,0,B|304:212|235:254|235:254|176:216,2,200,8|8|8,0:0|0:0|0:0,0:0:0:0:
452,279,194653,2,0,P|415:189|326:148,1,200,8|8,0:0|0:0,0:0:0:0:
244,92,195853,6,0,P|225:46|186:15,1,99.9999999999999,8|8,0:0|0:0,0:0:0:0:
148,108,196653,2,0,P|102:88|53:94,1,99.9999999999999,8|8,0:0|0:0,0:0:0:0:
88,187,197453,2,0,P|42:206|11:244,2,99.9999999999999,8|8|8,0:0|0:0|0:0,0:0:0:0:
104,288,198653,1,8,0:0:0:0:
256,192,199053,12,4,201453,0:0:0:0:
306,142,202253,6,0,L|340:105,2,50,8|0|8,0:0|0:0|0:0,0:0:0:0:
206,142,203053,2,0,L|171:105,2,50,8|0|8,0:0|0:0|0:0,0:0:0:0:
206,242,203853,2,0,L|171:278,2,50,8|0|8,0:0|0:0|0:0,0:0:0:0:
306,242,204653,2,0,L|340:278,2,50,8|0|8,0:0|0:0|0:0,0:0:0:0:
206,242,205453,6,0,B|128:212|112:140|168:80|168:80|256:118|256:118|344:80|344:80|400:140|384:212|306:242,1,600,8|4,0:0|0:0,0:0:0:0:
256,328,208253,6,0,L|256:378,1,50,8|0,0:0|0:0,0:0:0:0:
256,192,208853,12,4,211853,0:0:0:0:
