osu file format v5

[General]
AudioFilename: 02 last moment.mp3
AudioLeadIn: 2000
PreviewTime: 40071
Countdown: 0
SampleSet: Normal
StackLeniency: 0.7
Mode: 0
LetterboxInBreaks: 0
EditorBookmarks: 5413,5724,40522,50490,59190
EditorDistanceSpacing: 0.800000011920929

[Metadata]
Title:Last Moment
Artist:Yousei Teikoku
Creator:Mafiamaster
Version:Normal
Source:My HiME
Tags:

[Difficulty]
HPDrainRate:3
CircleSize:4
OverallDifficulty:5
SliderMultiplier:1
SliderTickRate:1

[Events]
//Background and Video events
0,0,"BG.png"
//Break Periods
2,30789,39026
//Storyboard Layer 0 (Background)
//Storyboard Layer 1 (Fail)
//Storyboard Layer 2 (Pass)
//Storyboard Layer 3 (Foreground)
//Storyboard Sound Samples
//Background Colour Transformations
3,100,0,0,0

[TimingPoints]
745,310.880829015544,4,1,0,60,1,0
40542,-100,4,2,0,60,0,1
40693,-100,4,2,0,60,0,0
59040,-100,4,2,0,40,0,0
59273,-100,4,2,0,50,0,0
59428,-100,4,2,0,60,0,0
59584,-100,4,2,0,70,0,0
59739,-100,4,2,0,80,0,0
59895,-100,4,2,0,90,0,0
60050,-100,4,2,0,100,0,0
60205,-100,4,1,0,40,0,0
60278,-100,4,1,0,60,0,0
70231,-100,4,2,0,60,0,0
70387,-100,4,2,0,60,0,1
70542,-100,4,2,0,60,0,0
88884,-100,4,1,0,60,0,0

[Colours]
Combo1 : 60,60,255
Combo2 : 255,255,0
Combo3 : 255,0,0

[HitObjects]
112,96,745,1,0
112,96,1366,1,0
112,176,1988,1,0
112,176,2610,1,0
192,176,3232,2,0,L|400:176,3,200
400,96,5408,5,4
400,96,5719,5,0
400,96,6340,1,0
400,176,6962,1,0
400,176,7584,1,0
320,176,8206,2,0,L|112:176,3,200
40,176,10382,5,4
80,104,10693,2,6,L|192:104,1,100
256,104,11314,1,0
336,104,11625,1,0
416,104,11936,2,6,L|416:216,1,100
416,280,12558,1,0
456,344,12869,1,0
376,344,13180,6,2,L|256:344,1,100
320,272,13801,2,2,L|208:272,1,100
264,200,14423,2,0,L|152:200,1,100
80,200,15045,1,2
32,352,15667,6,2,L|80:352|80:296,1,100
160,304,16289,2,0,L|160:352|216:352,1,100
288,352,16910,2,2,L|336:352|336:296,1,100
416,304,17532,2,0,L|416:352|472:352,1,100
488,272,18154,1,2
488,192,18465,1,0
408,192,18776,1,2
408,112,19086,1,0
488,112,19397,2,2,L|488:12,2,100
488,192,20330,1,0
408,192,20641,5,2
408,112,20952,2,0,B|408:56,2,50,2|0|0
336,152,21574,1,0
336,232,21884,2,2,L|240:304,1,100
240,208,22506,2,0,L|144:136,1,100
96,96,23128,5,2
96,176,23439,2,0,B|96:232,2,50,2|0|0
168,136,24061,1,2
240,176,24371,1,0
240,256,24682,1,2
168,288,24993,1,2
488,176,25615,6,0,L|488:64,1,100,4|0
416,120,26237,2,2,L|384:24,1,100,2|2
328,88,26858,2,0,L|248:16,1,100,0|0
224,96,27480,2,2,L|112:80,1,100,2|2
152,160,28102,2,0,L|56:192,1,100,0|0
127,247,28724,2,0,L|56:336,1,100,0|0
144,344,29346,1,0
224,336,29656,1,2
296,304,29967,1,2
344,240,30278,2,0,B|368:184,2,50,0|0|4
136,280,40226,5,4
216,280,40537,1,4
296,280,40848,1,8
376,280,41159,1,0
256,192,41781,6,2,L|256:128,3,50
64,192,43024,2,0,L|48:176|64:160|48:144|64:128|48:112|64:96|48:80|64:64|48:48,1,200,8|0
208,48,44268,2,0,L|224:64|208:80|224:96|208:112|224:128|208:144|224:160|208:176|224:192,1,200,8|0
304,192,45200,1,4
304,112,45511,6,0,L|416:112,1,100,0|8
480,112,46133,2,0,L|480:216,1,100,0|8
480,288,46755,2,2,L|480:352,3,50,2|2|2|2
336,192,47998,6,0,L|320:208|304:192|288:208|272:192|256:208|240:192|224:208,2,150,8|0|0
376,120,49242,2,0,L|224:120,2,150,8|0|0
456,120,50485,6,0,L|480:168|440:208,1,100,0|8
368,200,51107,2,0,L|344:248|384:288,1,100,0|8
424,344,51729,2,0,L|464:384,3,50,0|0|8|0
344,344,52662,1,8
264,344,52972,6,0,L|264:224,2,100,0|8|0
184,344,53905,1,8
104,344,54216,2,0,L|104:224,2,100,0|8|0
24,344,55149,1,8
24,264,55460,5,4
24,184,55771,1,8
24,104,56081,2,4,L|136:104,1,100,0|8
200,104,56704,2,0,L|264:104,3,50,0|0|8|0
368,104,57636,1,8
368,184,57947,5,0
312,240,58257,1,8
392,264,58568,1,0
336,320,58879,1,8
256,320,59190,2,0,L|152:320,3,100,2|2|2|2
104,256,60434,5,0
104,256,61055,1,0
104,176,61677,1,0
104,176,62299,1,0
184,176,62921,2,0,L|392:176,3,200
392,256,65097,1,0
392,256,65408,5,0
392,256,66029,1,0
392,176,66651,1,0
392,176,67273,1,0
312,176,67895,2,0,L|104:176,3,200
72,240,70071,1,4
152,240,70382,6,4,L|152:296|208:296,1,100,4|8
272,296,71004,2,0,L|296:280|320:296|344:280|368:264,1,100,0|8
416,224,71625,2,0,L|456:192,3,50,0|0|8|0
288,80,72869,6,2,L|248:128|208:80|144:144,3,200
104,192,75045,1,4
176,224,75356,6,0,L|288:224,1,100,0|8
352,224,75978,1,0
392,288,76289,1,8
312,288,76599,2,0,L|336:344,3,50,0|0|8|0
216,288,77532,5,8
136,288,77843,2,0,L|48:288|48:352,2,150,2|2|2
136,208,79086,2,2,L|296:208,2,150
56,208,80330,5,4
56,128,80641,1,0
136,128,80952,1,8
136,48,81263,1,0
216,48,81574,2,0,L|216:120,4,50,0|0|0|0|8
376,48,82817,6,0,L|376:160,1,100
304,104,83439,2,0,L|304:216,1,100,8|0
232,160,84061,2,0,L|232:364,1,200,0|8
312,360,84993,1,0
392,360,85304,6,0,L|456:360|440:320,1,100,4|0
368,287,85926,2,0,L|355:254|419:254,1,100,8|0
496,256,86548,2,0,L|472:192,4,50,0|0|0|0|8
472,96,87791,6,8,B|456:176|376:160|352:120,2,150,0|0|0
504,24,89035,5,0
424,24,89346,1,0
344,24,89656,1,4
224,24,90278,5,0
224,24,90589,1,0
144,24,90900,1,0
64,24,91211,1,0
64,104,91522,2,0,B|272:104,1,200,2|0
120,176,92765,2,0,B|328:176,2,200,2|0|2
72,240,94320,1,0
144,280,94631,1,2
72,320,94941,1,0
144,360,95252,6,0,B|352:360,1,200,6|0
424,360,96185,1,0
464,288,96496,2,0,B|256:288,1,200,2|0
408,216,97739,2,0,B|200:216,1,200,2|0
128,216,98672,5,0
48,216,98983,1,2
48,136,99294,1,0
48,56,99605,2,0,B|152:80,1,100,2|0
224,96,100226,5,6
304,112,100537,1,0
384,128,100848,1,0
464,144,101159,1,0
416,208,101470,2,0,B|208:168,2,200,2|0|2
376,272,103024,1,0
296,256,103335,1,0
216,240,103646,1,0
232,319,103957,2,0,B|429:357,1,200,2|0
256,192,105200,5,2
256,112,105511,1,0
184,152,105822,1,0
184,232,106133,1,0
256,272,106444,1,2
328,232,106755,1,0
328,152,107066,1,0
256,112,107377,1,0
256,192,107688,12,4,112662
