osu file format v12

[General]
AudioFilename: Kyouki Chinden.mp3
AudioLeadIn: 0
PreviewTime: 66780
Countdown: 0
SampleSet: Soft
StackLeniency: 0.7
Mode: 0
LetterboxInBreaks: 0
WidescreenStoryboard: 0

[Editor]
DistanceSpacing: 1
BeatDivisor: 2
GridSize: 4

[Metadata]
Title:Kyouki Chinden (TV Size)
TitleUnicode:狂気沈殿 (TV Size)
Artist:Yousei Teikoku
ArtistUnicode:妖精帝國
Creator:Saten
Version:Normal
Source:Mirai Nikki
Tags:Saten-san alternative opening satona kurousagi OnosakiHito
BeatmapID:179225
BeatmapSetID:59025

[Difficulty]
HPDrainRate:3
CircleSize:3
OverallDifficulty:3
ApproachRate:4
SliderMultiplier:0.6
SliderTickRate:1

[Events]
//Background and Video events
Video,1346,"sexy.avi"
0,0,"Nikki.png",0,0
//Break Periods
//Storyboard Layer 0 (Background)
//Storyboard Layer 1 (Fail)
//Storyboard Layer 2 (Pass)
//Storyboard Layer 3 (Foreground)
//Storyboard Sound Samples
//Background Colour Transformations
3,100,0,0,0

[TimingPoints]
2066,214.285714285714,4,2,1,80,1,0
10637,-100,4,2,1,70,0,0
10851,-100,4,2,1,30,0,0
12351,-100,4,2,1,80,0,0
67208,-100,4,2,1,80,0,1
79208,-100,4,2,1,80,0,0
80923,-100,4,2,1,80,0,1
93780,-100,4,2,1,80,0,0
94208,-100,4,2,1,5,0,0

[Colours]
Combo1 : 255,255,45
Combo2 : 255,159,64
Combo3 : 83,169,255
Combo4 : 255,83,255

[HitObjects]
256,192,2066,2,0,B|304:156|368:160,1,120
368,280,2923,2,0,B|320:316|256:312,1,120
160,240,3780,2,0,B|160:120,1,120
40,136,4637,2,0,B|40:256,2,120,0|0|4,0:0|0:0|0:0,0:0:0:0:
120,48,5923,5,0,0:0:0:0:
240,48,6351,1,0,0:0:0:0:
324,136,6780,1,0,0:0:0:0:
216,192,7208,5,0,0:0:0:0:
296,280,7637,1,0,0:0:0:0:
196,348,8065,2,0,B|132:328|119:263,1,120
160,152,8923,6,0,B|188:96|256:64|324:96|352:152,2,240,4|0|0,0:0|0:0|0:0,0:0:0:0:
256,192,10851,12,4,12351,0:0:0:0:
256,380,13208,6,0,P|193:286|256:192,2,240
356,312,15351,1,0,0:0:0:0:
464,256,15780,6,0,B|464:156|420:148|376:140|376:40,3,240,4|0|0|12,0:0|0:0|0:0|0:0,0:0:0:0:
256,20,18780,1,12,0:0:0:0:
135,42,19208,6,0,B|135:142|91:150|47:158|48:256,3,240,4|0|0|0,0:0|0:0|0:0|0:0,0:0:0:0:
156,312,22208,1,0,0:0:0:0:
144,192,22637,6,0,B|200:152|256:188|256:188|312:152|368:192,3,240,4|0|0|12,0:0|0:0|0:0|0:0,0:0:0:0:
416,304,25637,1,8,0:0:0:0:
312,364,26065,6,0,P|230:338|200:256,2,180,4|8|0,0:0|0:0|0:0,0:0:0:0:
316,244,27780,2,0,P|398:218|428:136,2,180,0|8|0,0:0|0:0|0:0,0:0:0:0:
200,192,29494,6,0,B|152:155|152:115|152:75|104:39,2,180,0|8|0,0:0|0:0|0:0,0:0:0:0:
312,192,31208,2,0,B|359:155|359:115|359:75|407:39,2,180,0|8|12,0:0|0:0|0:0,0:0:0:0:
256,296,32923,6,0,B|196:296|196:296|144:268|144:268|84:268,2,180,4|8|0,0:0|0:0|0:0,0:0:0:0:
256,176,34637,2,0,B|316:176|316:176|368:148|368:148|428:148,2,180,0|8|0,0:0|0:0|0:0,0:0:0:0:
144,132,36351,6,0,B|155:76|214:36|285:57,2,180,0|8|0,0:0|0:0|0:0,0:0:0:0:
144,252,38065,2,0,B|155:307|214:347|285:326,2,180,0|8|0,0:0|0:0|0:0,0:0:0:0:
256,192,39780,6,0,B|308:160|308:160|368:160,1,120,4|0,0:0|0:0,0:0:0:0:
464,228,40637,2,0,B|412:260|412:260|352:260,1,120
256,332,41494,1,0,0:0:0:0:
148,280,41923,1,0,0:0:0:0:
256,228,42351,2,0,B|232:168|164:160,1,120
56,112,43208,6,0,B|80:52|148:44,1,120,0|0,0:0|0:0,0:0:0:0:
256,100,44065,1,0,0:0:0:0:
364,44,44494,2,0,B|432:52|456:112,2,120
256,100,45780,2,0,B|256:220,2,120,0|12|4,0:0|0:0|0:0,0:0:0:0:
140,76,47065,5,0,0:0:0:0:
56,164,47494,2,0,B|56:224,1,60,0|8,0:0|0:0,0:0:0:0:
92,272,47923,2,0,B|152:300|208:276,1,120
256,164,48780,1,0,0:0:0:0:
376,148,49208,6,0,B|416:200|392:260,2,120
256,164,50494,1,0,0:0:0:0:
136,180,50923,2,0,B|96:128|120:68,2,120
192,288,52208,1,0,0:0:0:0:
104,368,52637,2,0,B|60:324|60:324|48:268,1,120,0|12,0:0|0:0,0:0:0:0:
92,156,53494,6,0,B|144:120,2,60,0|12|0,0:0|0:0|0:0,0:0:0:0:
152,260,54351,1,0,0:0:0:0:
272,252,54780,1,0,0:0:0:0:
340,152,55208,6,0,B|316:88|256:64|188:68|144:120,2,240,4|0|0,0:0|0:0|0:0,0:0:0:0:
332,212,57137,6,0,B|284:252|284:252|228:260,1,120,12|8,0:0|0:0,0:0:0:0:
184,220,57780,2,0,B|132:192|132:192|68:192,1,120
32,304,58637,6,0,B|100:360|144:328|188:296|256:352,2,240,4|8|0,0:0|0:0|0:0,0:0:0:0:
48,248,60565,6,0,B|104:216,1,60,12|0,0:0|0:0,0:0:0:0:
216,192,61208,1,0,0:0:0:0:
256,304,61637,1,0,0:0:0:0:
376,320,62065,6,0,B|440:292|468:228|440:164|376:136,2,240,4|0|0,0:0|0:0|0:0,0:0:0:0:
316,304,63994,6,0,B|276:256|276:256|268:200,1,120,12|8,0:0|0:0,0:0:0:0:
240,144,64637,2,0,B|180:132|180:132|128:156,1,120
68,260,65494,6,0,B|140:316,1,90,4|4,0:0|0:0,0:0:0:0:
200,252,66137,2,0,B|272:308,1,90,4|4,0:0|0:0,0:0:0:0:
352,268,66780,2,0,B|392:224,1,60,8|8,0:0|0:0,0:0:0:0:
408,164,67208,6,0,B|396:100|340:64|272:84,2,180,4|8|0,0:0|0:0|0:0,0:0:0:0:
352,268,68923,2,0,B|272:308,2,90,0|0|8,0:0|0:0|0:0,0:0:0:0:
384,216,69780,1,0,0:0:0:0:
368,96,70208,2,0,B|312:72,1,60,0|8,0:0|0:0,0:0:0:0:
276,120,70637,6,0,B|256:180|184:184|184:184|148:240|80:228,1,240
0,136,71923,1,0,0:0:0:0:
80,228,72351,6,0,B|120:284|185:270|185:270|239:318|295:290,1,240
364,192,73637,1,0,0:0:0:0:
336,76,74065,6,0,B|256:36|256:36|165:36,2,180,4|8|0,0:0|0:0|0:0,0:0:0:0:
380,188,75780,1,0,0:0:0:0:
292,268,76209,1,0,0:0:0:0:
172,256,76637,1,0,0:0:0:0:
88,168,77066,1,0,0:0:0:0:
152,68,77494,6,0,P|265:70|300:176,1,240
256,288,78780,2,0,B|204:320,1,60,0|8,0:0|0:0,0:0:0:0:
152,288,79208,6,0,B|120:252|120:252|108:212,2,90,4|4|4,0:0|0:0|0:0,0:0:0:0:
204,256,80065,2,0,B|204:164,2,90,4|4|4,0:0|0:0|0:0,0:0:0:0:
256,288,80923,1,4,0:0:0:0:
256,192,81137,12,8,83494,0:0:0:0:
256,192,84351,12,8,86923,0:0:0:0:
224,300,87780,6,0,P|197:247|145:217,1,120,12|8,0:0|0:0,0:0:0:0:
52,140,88637,2,0,B|55:73|109:41,1,120,8|8,0:0|0:0,0:0:0:0:
228,16,89494,2,0,B|254:73|321:82,1,120,8|8,0:0|0:0,0:0:0:0:
372,192,90351,2,0,B|464:192,2,90,8|0|8,0:0|0:0|0:0,0:0:0:0:
328,232,91208,6,0,B|280:276|300:344,1,120,12|8,0:0|0:0,0:0:0:0:
180,364,92065,1,8,0:0:0:0:
96,280,92494,1,8,0:0:0:0:
88,160,92923,2,0,B|184:88,1,120,12|12,0:0|0:0,0:0:0:0:
256,184,93780,6,0,B|256:272,1,90,8|8,0:0|0:0,0:0:0:0:
