osu file format v12

[General]
AudioFilename: Kyouki Chinden.mp3
AudioLeadIn: 0
PreviewTime: 66780
Countdown: 0
SampleSet: Soft
StackLeniency: 0.7
Mode: 0
LetterboxInBreaks: 0
WidescreenStoryboard: 0

[Editor]
DistanceSpacing: 1
BeatDivisor: 4
GridSize: 4

[Metadata]
Title:Kyouki Chinden (TV Size)
TitleUnicode:狂気沈殿 (TV Size)
Artist:Yousei Teikoku
ArtistUnicode:妖精帝國
Creator:Saten
Version:Madness Precipitation
Source:Mirai Nikki
Tags:Saten-san alternative opening satona kurousagi OnosakiHito
BeatmapID:177162
BeatmapSetID:59025

[Difficulty]
HPDrainRate:6
CircleSize:4
OverallDifficulty:8
ApproachRate:10
SliderMultiplier:2
SliderTickRate:2

[Events]
//Background and Video events
Video,1346,"sexy.avi"
0,0,"Nikki.png",0,0
//Break Periods
//Storyboard Layer 0 (Background)
//Storyboard Layer 1 (Fail)
//Storyboard Layer 2 (Pass)
//Storyboard Layer 3 (Foreground)
//Storyboard Sound Samples
//Background Colour Transformations
3,100,0,0,0

[TimingPoints]
2066,214.285714285714,4,2,1,80,1,0
10637,-100,4,2,1,60,0,0
12351,-100,4,2,1,80,0,0
67208,-100,4,2,1,80,0,1
79208,-100,4,2,1,80,0,0
80923,-100,4,2,1,80,0,1
93780,-100,4,2,1,80,0,0
94208,-100,4,2,1,5,0,0

[Colours]
Combo1 : 255,255,45
Combo2 : 255,159,64
Combo3 : 83,169,255
Combo4 : 255,83,255

[HitObjects]
196,192,2066,2,0,B|256:112,1,100
316,192,2280,2,0,B|256:272,1,100
185,179,2494,6,0,B|258:111,1,100
326,204,2708,2,0,B|253:272,1,100
174,162,2923,6,0,B|258:107,1,100
337,221,3137,2,0,B|253:276,1,100
166,140,3351,6,0,B|258:100,1,100
345,243,3565,2,0,B|253:283,1,100
160,112,3780,6,0,B|258:89,1,100
351,271,3994,2,0,B|253:294,1,100
160,77,4208,6,0,B|259:71,1,100
351,306,4422,2,0,B|251:311,1,100
256,192,4637,5,0,0:0:0:0:
256,192,4744,2,0,B|296:152|352:148|408:164|432:204,1,200,12|0,0:0|0:0,0:0:0:0:
256,192,5065,2,0,B|216:232|160:236|104:220|80:180,1,200,0|8,0:0|0:0,0:0:0:0:
256,24,5494,5,4,0:0:0:0:
348,62,5601,1,0,0:0:0:0:
386,154,5708,1,8,0:0:0:0:
348,247,5816,1,0,0:0:0:0:
255,285,5923,1,0,0:0:0:0:
163,247,6030,1,0,0:0:0:0:
125,154,6137,1,8,0:0:0:0:
163,62,6244,1,0,0:0:0:0:
256,24,6351,6,0,B|256:124,1,100
348,247,6565,2,0,B|388:152,1,100,8|0,0:0|0:0,0:0:0:0:
480,192,6780,2,0,B|440:287,1,100
256,360,6994,2,0,B|256:260,1,100,8|0,0:0|0:0,0:0:0:0:
32,192,7208,6,0,B|70:284,1,100
164,247,7423,2,0,B|125:154,1,100,8|0,0:0|0:0,0:0:0:0:
163,62,7637,1,0,0:0:0:0:
256,24,7744,1,0,0:0:0:0:
348,62,7851,1,8,0:0:0:0:
386,154,7958,1,0,0:0:0:0:
348,247,8065,6,0,B|256:208,1,100
296,112,8280,2,0,B|388:155,1,100,8|0,0:0|0:0,0:0:0:0:
256,208,8494,2,0,B|164:247,1,100
125,154,8709,2,0,B|216:112,1,100,8|0,0:0|0:0,0:0:0:0:
256,208,8923,5,4,0:0:0:0:
228,304,9030,1,0,0:0:0:0:
132,332,9137,1,8,0:0:0:0:
40,296,9244,1,0,0:0:0:0:
32,196,9351,6,0,B|68:104,1,100
200,100,9565,2,0,B|164:192,1,100,8|0,0:0|0:0,0:0:0:0:
480,196,9780,6,0,B|444:104,1,100
312,100,9994,2,0,B|348:192,1,100,8|0,0:0|0:0,0:0:0:0:
32,196,10208,6,0,B|68:104,1,100
200,100,10422,2,0,B|164:192,1,100,8|0,0:0|0:0,0:0:0:0:
256,272,10637,6,6,B|256:296,63,25,0|0|0|0|0|0|0|0|8|0|0|0|0|0|0|0|0|0|0|0|0|0|0|0|8|0|0|0|0|0|0|0|0|0|0|0|0|12|0|0|0|0|0|0|0|0|0|0|8|0|0|0|8|0|0|0|8|0|0|0|8|0|0|0,0:0|0:0|0:0|0:0|0:0|0:0|0:0|0:0|0:0|0:0|0:0|0:0|0:0|0:0|0:0|0:0|0:0|0:0|0:0|0:0|0:0|0:0|0:0|0:0|0:0|0:0|0:0|0:0|0:0|0:0|0:0|0:0|0:0|0:0|0:0|0:0|0:0|0:0|0:0|0:0|0:0|0:0|0:0|0:0|0:0|0:0|0:0|0:0|0:0|0:0|0:0|0:0|0:0|0:0|0:0|0:0|0:0|0:0|0:0|0:0|0:0|0:0|0:0|0:0,0:0:0:0:
256,297,12351,6,0,B|304:312|352:284,1,100,4|0,0:0|0:0,0:0:0:0:
388,192,12565,2,0,B|348:164|348:104,1,100,8|0,0:0|0:0,0:0:0:0:
256,64,12780,2,0,B|204:76|184:128,1,100,0|0,0:0|0:0,0:0:0:0:
108,192,12994,2,0,B|56:180|32:132,1,100,8|0,0:0|0:0,0:0:0:0:
72,40,13208,5,0,0:0:0:0:
168,16,13315,1,0,0:0:0:0:
256,64,13423,1,8,0:0:0:0:
204,168,13530,5,0,0:0:0:0:
292,216,13637,1,0,0:0:0:0:
388,192,13744,1,0,0:0:0:0:
440,88,13851,5,8,0:0:0:0:
352,40,13958,1,0,0:0:0:0:
256,64,14065,2,0,B|256:164,1,100
108,192,14280,2,0,B|108:92,1,100,8|0,0:0|0:0,0:0:0:0:
256,220,14494,2,0,B|256:320,1,100
404,292,14709,2,0,B|404:192,1,100,8|0,0:0|0:0,0:0:0:0:
388,82,14923,6,0,B|255:64,1,133.333333333333
237,107,15137,2,0,B|369:124,1,133.333333333333,8|0,0:0|0:0,0:0:0:0:
352,167,15351,2,0,B|219:149,1,133.333333333333
202,192,15565,2,0,B|334:209,1,133.333333333333,8|0,0:0|0:0,0:0:0:0:
328,256,15780,6,0,B|292:296|244:304,1,100,4|0,0:0|0:0,0:0:0:0:
148,276,15994,2,0,B|116:236|60:236,1,100,8|0,0:0|0:0,0:0:0:0:
20,140,16208,2,0,B|28:88|80:64,1,100
172,108,16423,2,0,B|204:152|256:156,1,100,8|0,0:0|0:0,0:0:0:0:
356,144,16637,5,0,0:0:0:0:
444,192,16744,1,0,0:0:0:0:
460,292,16851,1,8,0:0:0:0:
392,364,16958,2,0,B|296:340|296:340|232:260,1,200
204,164,17280,2,0,B|300:188|300:188|364:268,1,200,8|0,0:0|0:0,0:0:0:0:
460,292,17601,5,0,0:0:0:0:
444,192,17708,1,8,0:0:0:0:
356,144,17815,2,0,B|156:144,1,200
68,192,18137,1,8,0:0:0:0:
52,292,18244,1,0,0:0:0:0:
136,344,18351,6,0,B|263:308,1,133.333333333333,12|0,0:0|0:0,0:0:0:0:
263,262,18565,2,0,B|135:226,1,133.333333333333,12|0,0:0|0:0,0:0:0:0:
136,180,18780,2,0,B|263:144,1,133.333333333333,12|0,0:0|0:0,0:0:0:0:
263,99,18994,2,0,B|135:63,1,133.333333333333,12|0,0:0|0:0,0:0:0:0:
88,64,19208,6,0,B|24:140,1,100,4|0,0:0|0:0,0:0:0:0:
72,256,19423,2,0,B|136:180,1,100,8|0,0:0|0:0,0:0:0:0:
424,64,19637,2,0,B|488:140,1,100
440,256,19851,2,0,B|376:180,1,100,8|0,0:0|0:0,0:0:0:0:
284,148,20065,5,0,0:0:0:0:
192,192,20173,1,0,0:0:0:0:
284,236,20280,1,8,0:0:0:0:
192,280,20387,2,0,B|104:236|104:236|64:144,1,200
284,324,20708,2,0,B|372:280|372:280|412:188,1,200,8|0,0:0|0:0,0:0:0:0:
380,92,21030,5,0,0:0:0:0:
300,32,21137,1,8,0:0:0:0:
204,60,21244,2,0,B|164:100|164:156|188:204|244:220,1,200
340,196,21565,2,0,B|312:100,1,100,8|0,0:0|0:0,0:0:0:0:
216,140,21780,6,0,B|167:183|167:183|146:247,1,133.333333333333
192,280,21994,2,0,B|232:227|232:227|293:203,1,133.333333333333,8|0,0:0|0:0,0:0:0:0:
340,196,22208,2,0,B|388:152|388:152|409:87,1,133.333333333333
368,64,22422,2,0,B|327:117|327:117|266:141,1,133.333333333333,8|0,0:0|0:0,0:0:0:0:
216,140,22637,6,0,B|128:96,1,100,4|0,0:0|0:0,0:0:0:0:
68,176,22851,2,0,B|156:220,1,100,8|0,0:0|0:0,0:0:0:0:
296,140,23065,2,0,B|384:96,1,100
444,176,23280,2,0,B|356:220,1,100,8|0,0:0|0:0,0:0:0:0:
256,192,23494,5,0,0:0:0:0:
157,163,23601,1,0,0:0:0:0:
68,208,23708,1,8,0:0:0:0:
60,308,23815,2,0,B|87:354|148:365|202:338|214:285,1,200
452,308,24137,2,0,B|424:354|363:365|309:338|297:285,1,200,8|0,0:0|0:0,0:0:0:0:
256,192,24458,5,0,0:0:0:0:
280,96,24565,1,8,0:0:0:0:
368,48,24673,2,0,B|424:132|424:132|408:228,1,200
144,48,24994,2,0,B|88:132|88:132|104:228,1,200,8|12,0:0|0:0,0:0:0:0:
188,284,25315,5,0,0:0:0:0:
288,264,25423,1,0,0:0:0:0:
288,264,25494,1,0,0:0:0:0:
288,264,25565,1,0,0:0:0:0:
288,264,25637,2,0,B|313:210|285:159|234:131|180:156,2,200,12|8|4,0:0|0:0|0:0,0:0:0:0:
188,284,26173,5,0,0:0:0:0:
100,236,26280,1,8,0:0:0:0:
100,136,26387,2,0,B|124:76|180:84|236:92|256:28,1,200
412,136,26708,2,0,B|388:76|332:84|276:92|256:28,1,200,8|0,0:0|0:0,0:0:0:0:
256,132,27030,5,0,0:0:0:0:
296,224,27137,1,8,0:0:0:0:
392,244,27244,1,0,0:0:0:0:
480,192,27351,2,0,P|488:136|472:96,1,100
255,354,27565,2,0,P|208:372|160:368,1,100,8|0,0:0|0:0,0:0:0:0:
32,192,27780,6,0,B|84:104,1,100
256,32,27994,2,0,B|256:132,1,100,8|0,0:0|0:0,0:0:0:0:
480,192,28208,2,0,B|429:105,1,100
341,157,28423,6,0,B|392:244,1,100,8|0,0:0|0:0,0:0:0:0:
120,244,28637,2,0,B|170:157,1,100
82,105,28851,2,0,B|32:192,1,100,8|0,0:0|0:0,0:0:0:0:
36,292,29065,1,0,0:0:0:0:
476,92,29280,1,8,0:0:0:0:
256,192,29494,6,0,B|200:180|164:140|160:88|196:40,1,200,0|8,0:0|0:0,0:0:0:0:
256,192,29815,2,0,B|312:180|348:140|352:88|316:40,1,200
256,192,30137,6,0,B|200:204|164:244|160:296|196:344,1,200,8|0,0:0|0:0,0:0:0:0:
256,192,30458,2,0,B|312:204|348:244|352:296|316:344,1,200,8|0,0:0|0:0,0:0:0:0:
256,272,30780,1,0,0:0:0:0:
460,44,30994,1,8,0:0:0:0:
52,44,31208,6,0,B|8:132,1,100
152,224,31423,2,0,B|196:136,1,100,8|0,0:0|0:0,0:0:0:0:
460,44,31637,2,0,B|504:132,1,100
360,224,31852,6,0,B|316:136,1,100,8|0,0:0|0:0,0:0:0:0:
152,224,32065,2,0,B|196:134,1,100
256,216,32280,1,12,0:0:0:0:
256,224,32494,1,12,0:0:0:0:
256,232,32708,2,0,P|228:280|192:304,1,100,8|0,0:0|0:0,0:0:0:0:
76,280,32923,6,0,B|112:188|112:188|200:136,1,200,4|8,0:0|0:0,0:0:0:0:
348,256,33244,2,0,B|256:296|256:296|164:256,1,200
312,136,33565,2,0,B|400:188|400:188|436:280,1,200,8|0,0:0|0:0,0:0:0:0:
376,360,33887,5,0,0:0:0:0:
276,352,33994,1,8,0:0:0:0:
216,272,34101,1,0,0:0:0:0:
256,180,34208,1,0,0:0:0:0:
476,80,34423,1,8,0:0:0:0:
36,80,34637,6,0,B|64:176|64:176|148:232,1,200,0|8,0:0|0:0,0:0:0:0:
348,144,34958,2,0,B|256:104|256:104|164:144,1,200
364,232,35280,2,0,B|448:176|448:176|476:80,1,200,8|0,0:0|0:0,0:0:0:0:
384,40,35601,5,0,0:0:0:0:
284,40,35708,1,8,0:0:0:0:
200,96,35815,1,0,0:0:0:0:
168,192,35923,1,0,0:0:0:0:
408,304,36137,1,8,0:0:0:0:
384,40,36351,6,0,B|464:100|464:100|500:192,1,200,0|8,0:0|0:0,0:0:0:0:
416,248,36673,2,0,B|379:154|379:154|299:94,1,200
216,148,36994,2,0,B|296:207|296:207|332:301,1,200,8|0,0:0|0:0,0:0:0:0:
256,368,37315,5,0,0:0:0:0:
156,356,37423,1,8,0:0:0:0:
108,268,37530,1,0,0:0:0:0:
144,176,37637,1,0,0:0:0:0:
408,304,37851,1,8,0:0:0:0:
388,12,38065,6,0,B|288:28|288:28|216:96,1,200,0|8,0:0|0:0,0:0:0:0:
256,188,38387,2,0,B|328:120|328:120|428:104,1,200
468,196,38708,2,0,B|368:212|368:212|296:280,1,200,8|4,0:0|0:0,0:0:0:0:
216,340,39030,5,0,0:0:0:0:
116,328,39137,1,12,0:0:0:0:
60,244,39244,1,0,0:0:0:0:
92,148,39351,2,0,B|180:96,1,100,4|0,0:0|0:0,0:0:0:0:
420,148,39565,2,0,B|332:96,1,100,8|0,0:0|0:0,0:0:0:0:
256,160,39780,6,0,B|256:260|256:260|324:332,1,200,4|0,0:0|0:0,0:0:0:0:
420,364,40101,1,0,0:0:0:0:
488,292,40208,1,0,0:0:0:0:
468,196,40315,1,0,0:0:0:0:
376,152,40423,2,0,B|284:192,1,100,8|0,0:0|0:0,0:0:0:0:
312,288,40637,2,0,B|404:248,1,100
376,152,40851,5,8,0:0:0:0:
300,88,40958,1,0,0:0:0:0:
200,92,41065,2,0,B|112:140,1,100
168,224,41280,2,0,B|256:176,1,100,8|0,0:0|0:0,0:0:0:0:
304,264,41494,6,0,B|292:316|244:348|184:348|144:312,1,200,0|8,0:0|0:0,0:0:0:0:
80,236,41815,1,0,0:0:0:0:
112,140,41923,2,0,B|200:92,1,100
400,140,42137,2,0,B|312:92,1,100,8|0,0:0|0:0,0:0:0:0:
96,132,42351,2,0,B|184:84,1,100
416,132,42565,2,0,B|328:84,1,100,8|0,0:0|0:0,0:0:0:0:
76,120,42780,2,0,B|164:72,1,100
436,120,42994,2,0,B|348:72,1,100,8|0,0:0|0:0,0:0:0:0:
256,112,43208,6,0,B|256:312,1,200,0|8,0:0|0:0,0:0:0:0:
344,360,43530,1,0,0:0:0:0:
436,320,43637,2,0,B|476:228,1,100
392,176,43851,2,0,B|352:268,1,100,8|0,0:0|0:0,0:0:0:0:
76,320,44065,2,0,B|36:228,1,100
120,176,44279,2,0,B|160:268,1,100,8|0,0:0|0:0,0:0:0:0:
256,300,44494,5,0,0:0:0:0:
352,267,44601,1,0,0:0:0:0:
392,176,44708,2,0,B|416:124|400:72|360:32|300:32,1,200,8|0,0:0|0:0,0:0:0:0:
256,120,45030,1,0,0:0:0:0:
120,176,45137,2,0,B|96:124|112:72|152:32|212:32,1,200,8|0,0:0|0:0,0:0:0:0:
256,120,45458,1,0,0:0:0:0:
220,212,45565,1,8,0:0:0:0:
128,252,45673,1,0,0:0:0:0:
40,208,45780,6,0,B|0:116,1,100,0|4,0:0|0:0,0:0:0:0:
88,68,45994,2,0,B|176:116,1,100,0|0,0:0|0:0,0:0:0:0:
472,208,46208,2,0,B|512:116,1,100,4|0,0:0|0:0,0:0:0:0:
424,68,46422,2,0,B|336:116,1,100,8|0,0:0|0:0,0:0:0:0:
256,192,46637,6,0,B|239:248|264:296|312:322|369:305,1,200,4|8,0:0|0:0,0:0:0:0:
424,220,46958,1,0,0:0:0:0:
372,136,47065,2,0,B|284:84|284:84|188:84,1,200,0|8,0:0|0:0,0:0:0:0:
172,184,47387,1,0,0:0:0:0:
116,264,47494,2,0,B|59:280|11:255|-14:207|2:150,1,200,0|8,0:0|0:0,0:0:0:0:
52,64,47815,1,0,0:0:0:0:
152,56,47923,6,0,B|244:96,1,100
364,148,48137,2,0,B|272:188,1,100,8|0,0:0|0:0,0:0:0:0:
152,240,48351,2,0,B|244:280,1,100
364,332,48565,2,0,B|272:372,1,100,8|0,0:0|0:0,0:0:0:0:
152,320,48780,6,0,B|84:248,1,100
364,264,48994,2,0,B|432:192,1,100,8|0,0:0|0:0,0:0:0:0:
152,240,49208,2,0,B|84:168,1,100
364,184,49422,2,0,B|432:112,1,100,8|0,0:0|0:0,0:0:0:0:
152,160,49637,2,0,B|84:88,1,100
364,104,49851,2,0,B|432:32,1,100,8|0,0:0|0:0,0:0:0:0:
500,108,50065,6,0,B|520:204|520:204|472:292,1,200,0|8,0:0|0:0,0:0:0:0:
372,316,50387,1,0,0:0:0:0:
276,292,50494,1,0,0:0:0:0:
256,192,50601,1,0,0:0:0:0:
236,92,50708,1,8,0:0:0:0:
140,68,50815,1,0,0:0:0:0:
40,90,50923,2,0,B|-8:180|-8:180|12:276,1,200,0|8,0:0|0:0,0:0:0:0:
92,336,51244,1,0,0:0:0:0:
192,348,51351,6,0,B|276:292,1,100
320,36,51565,2,0,B|236:92,1,100,8|0,0:0|0:0,0:0:0:0:
165,334,51780,6,0,B|258:293,1,100
346,49,51994,2,0,B|253:90,1,100,8|0,0:0|0:0,0:0:0:0:
142,316,52208,6,0,B|240:292,1,100
369,67,52422,2,0,B|271:91,1,100,8|0,0:0|0:0,0:0:0:0:
256,192,52637,1,0,0:0:0:0:
344,240,52744,6,0,B|436:284,2,100,4|0|0,0:0|0:0|0:0,0:0:0:0:
168,240,53065,2,0,B|76:284,2,100,4|0|0,0:0|0:0|0:0,0:0:0:0:
256,192,53387,1,0,0:0:0:0:
256,92,53494,6,0,B|232:44|176:24|112:32|84:72,1,200,0|12,0:0|0:0,0:0:0:0:
52,164,53815,1,0,0:0:0:0:
80,260,53923,2,0,B|160:320,1,100
256,292,54137,2,0,B|256:192,1,100,8|0,0:0|0:0,0:0:0:0:
352,64,54351,6,0,B|432:124,1,100
256,192,54565,2,0,B|256:92,1,100,8|0,0:0|0:0,0:0:0:0:
160,64,54780,2,0,B|160:264,1,200,0|8,0:0|0:0,0:0:0:0:
256,292,55101,1,0,0:0:0:0:
352,264,55208,6,0,B|352:64,1,200,4|8,0:0|0:0,0:0:0:0:
452,64,55530,1,0,0:0:0:0:
500,152,55637,2,0,B|468:248,1,100
384,300,55851,2,0,B|352:204,1,100,8|0,0:0|0:0,0:0:0:0:
256,184,56065,2,0,B|224:280,1,100
140,332,56279,2,0,B|108:236,1,100,8|0,0:0|0:0,0:0:0:0:
96,136,56494,5,8,0:0:0:0:
156,56,56601,1,0,0:0:0:0:
256,44,56708,2,0,B|256:244,2,200,8|0|4,0:0|0:0|0:0,0:0:0:0:
356,56,57244,5,0,0:0:0:0:
416,136,57351,1,0,0:0:0:0:
403,237,57458,1,0,0:0:0:0:
320,288,57565,2,0,B|252:288|252:288|200:248|200:248|132:248,1,200,8|0,0:0|0:0,0:0:0:0:
48,192,57887,1,0,0:0:0:0:
133,136,57994,2,0,B|200:136|200:136|252:96|252:96|320:96,1,200,8|0,0:0|0:0,0:0:0:0:
408,140,58315,1,0,0:0:0:0:
396,240,58423,6,0,B|348:264|288:244|252:204|256:148,2,200,0|4|8,0:0|0:0|0:0,0:0:0:0:
416,140,58958,1,0,0:0:0:0:
368,52,59065,1,0,0:0:0:0:
268,32,59173,1,0,0:0:0:0:
172,56,59280,1,8,0:0:0:0:
132,148,59387,1,0,0:0:0:0:
160,244,59494,6,0,B|256:216,1,100,8|0,0:0|0:0,0:0:0:0:
352,176,59708,2,0,B|256:148,1,100,8|0,0:0|0:0,0:0:0:0:
160,108,59923,2,0,B|256:80,1,100,8|0,0:0|0:0,0:0:0:0:
352,40,60137,2,0,B|256:12,1,100,10|0,0:0|0:0,0:0:0:0:
256,112,60351,6,0,B|256:312,1,200,0|12,0:0|0:0,0:0:0:0:
344,356,60673,1,0,0:0:0:0:
436,320,60780,2,0,B|408:224|408:224|332:160,1,200,0|8,0:0|0:0,0:0:0:0:
76,320,61101,2,0,B|104:224|104:224|180:160,1,200
256,228,61423,6,0,B|296:268|352:268|404:244|420:192,1,200,8|0,0:0|0:0,0:0:0:0:
436,92,61744,1,0,0:0:0:0:
356,32,61851,1,8,0:0:0:0:
256,24,61958,1,0,0:0:0:0:
256,124,62065,2,0,B|256:324,1,200,4|8,0:0|0:0,0:0:0:0:
156,316,62387,1,0,0:0:0:0:
76,256,62494,6,0,B|76:156,1,100
176,92,62708,2,0,B|176:192,1,100,8|0,0:0|0:0,0:0:0:0:
436,256,62923,2,0,B|436:156,1,100
336,92,63137,2,0,B|336:192,1,100,8|0,0:0|0:0,0:0:0:0:
256,284,63351,6,0,B|172:228|172:228|128:140,1,200,8|8,0:0|0:0,0:0:0:0:
256,160,63673,1,0,0:0:0:0:
256,284,63780,2,0,B|340:228|340:228|384:140,2,200,0|12|0,0:0|0:0|0:0,0:0:0:0:
256,184,64315,1,0,0:0:0:0:
296,92,64423,1,8,0:0:0:0:
388,56,64530,1,0,0:0:0:0:
480,96,64637,6,0,B|392:276,1,200,0|8,0:0|0:0,0:0:0:0:
164,200,64958,2,0,B|256:160|256:160|348:200,1,200
120,276,65280,2,0,B|32:96,1,200,8|4,0:0|0:0,0:0:0:0:
479,287,65815,5,4,0:0:0:0:
124,56,66137,5,4,0:0:0:0:
388,328,66458,5,4,0:0:0:0:
256,32,66780,5,8,0:0:0:0:
160,60,66887,1,0,0:0:0:0:
100,140,66994,2,0,B|128:236|128:236|208:296,2,200,8|4|8,0:0|0:0|0:0,0:0:0:0:
164,64,67530,5,0,0:0:0:0:
260,36,67637,1,0,0:0:0:0:
352,72,67744,1,0,0:0:0:0:
396,160,67851,2,0,B|348:248,1,100,8|0,0:0|0:0,0:0:0:0:
256,212,68065,2,0,B|304:124,1,100
432,160,68280,2,0,B|384:248,1,100,8|0,0:0|0:0,0:0:0:0:
216,208,68494,2,0,B|264:120,1,100
472,160,68708,2,0,B|424:248,1,100,8|0,0:0|0:0,0:0:0:0:
180,204,68923,6,0,B|228:116|228:116|320:76,1,200,0|8,0:0|0:0,0:0:0:0:
420,76,69244,1,0,0:0:0:0:
472,160,69351,1,0,0:0:0:0:
436,252,69458,1,0,0:0:0:0:
340,284,69565,1,8,0:0:0:0:
256,228,69673,1,0,0:0:0:0:
256,128,69780,6,0,B|216:96|160:96,1,100
87,172,69994,2,0,B|140:172|180:204,1,100,8|0,0:0|0:0,0:0:0:0:
220,296,70208,1,0,0:0:0:0:
136,348,70315,1,0,0:0:0:0:
40,316,70423,1,8,0:0:0:0:
8,220,70530,1,0,0:0:0:0:
64,136,70637,6,0,B|112:104|160:132|208:160|256:128,2,200,0|8|0,0:0|0:0|0:0,0:0:0:0:
16,224,71173,1,0,0:0:0:0:
52,316,71280,1,8,0:0:0:0:
148,336,71387,1,0,0:0:0:0:
228,276,71494,2,0,B|280:192|280:192|376:160,1,200,0|8,0:0|0:0,0:0:0:0:
472,192,71815,5,0,0:0:0:0:
488,292,71923,1,0,0:0:0:0:
404,344,72030,1,0,0:0:0:0:
312,300,72137,2,0,B|312:100,2,200,8|0|8,0:0|0:0|0:0,0:0:0:0:
212,300,72673,5,0,0:0:0:0:
132,240,72780,1,0,0:0:0:0:
132,140,72887,1,0,0:0:0:0:
212,80,72994,1,8,0:0:0:0:
312,100,73101,2,0,B|312:200|312:200|372:280,1,200
444,208,73423,2,0,B|444:108|444:108|384:28,2,200,8|0|8,0:0|0:0|0:0,0:0:0:0:
372,280,73958,1,0,0:0:0:0:
276,252,74065,6,0,B|216:212|180:240|140:268|84:236,1,200,4|8,0:0|0:0,0:0:0:0:
0,180,74387,1,0,0:0:0:0:
32,84,74494,1,0,0:0:0:0:
120,40,74601,1,0,0:0:0:0:
212,80,74708,2,0,B|212:160|260:160|308:160|308:240,1,200,8|0,0:0|0:0,0:0:0:0:
256,328,75030,5,0,0:0:0:0:
204,240,75137,2,0,B|204:160|252:160|300:160|300:80,1,200,8|0,0:0|0:0,0:0:0:0:
388,28,75458,1,0,0:0:0:0:
480,68,75565,1,8,0:0:0:0:
484,168,75673,1,0,0:0:0:0:
400,220,75780,6,0,B|348:240|292:228|256:184|256:132,1,200,0|8,0:0|0:0,0:0:0:0:
200,48,76101,1,0,0:0:0:0:
100,68,76208,2,0,B|100:268,2,200,0|8|0,0:0|0:0|0:0,0:0:0:0:
200,48,76744,1,0,0:0:0:0:
256,132,76851,2,0,B|256:232,1,100,8|0,0:0|0:0,0:0:0:0:
348,192,77065,2,0,B|348:92,1,100
164,92,77280,2,0,B|164:192,1,100,8|0,0:0|0:0,0:0:0:0:
132,284,77494,5,0,0:0:0:0:
40,244,77601,1,0,0:0:0:0:
36,144,77708,2,0,B|104:68|104:68|200:48,1,200,8|0,0:0|0:0,0:0:0:0:
256,132,78030,1,0,0:0:0:0:
312,216,78137,2,0,B|400:164,1,100,8|0,0:0|0:0,0:0:0:0:
460,244,78351,2,0,B|372:296,1,100
276,320,78565,1,8,0:0:0:0:
180,288,78673,1,0,0:0:0:0:
148,192,78780,6,0,B|188:100,1,100
364,192,78994,2,0,B|324:284,1,100,8|0,0:0|0:0,0:0:0:0:
256,192,79208,6,0,B|268:136|296:100|352:76|408:84|456:108|484:156,2,300,4|4|4,0:0|0:0|0:0,0:0:0:0:
224,288,79958,1,0,0:0:0:0:
124,288,80065,6,0,B|68:276|32:248|8:192|16:136|40:88|88:60,2,300,4|4|4,0:0|0:0|0:0,0:0:0:0:
224,288,80815,1,0,0:0:0:0:
312,240,80923,6,0,B|380:164,1,100,12|0,0:0|0:0,0:0:0:0:
200,144,81137,2,0,B|132:220,1,100,8|0,0:0|0:0,0:0:0:0:
325,233,81351,6,0,B|378:148,1,100,8|0,0:0|0:0,0:0:0:0:
186,150,81565,2,0,B|133:235,1,100,8|0,0:0|0:0,0:0:0:0:
339,223,81780,6,0,B|376:130,1,100,8|0,0:0|0:0,0:0:0:0:
172,160,81994,2,0,B|135:253,1,100,8|0,0:0|0:0,0:0:0:0:
361,211,82208,6,0,B|381:113,1,100,8|0,0:0|0:0,0:0:0:0:
150,172,82423,2,0,B|130:270,1,100,8|0,0:0|0:0,0:0:0:0:
373,193,82637,6,0,B|377:83,1,100,8|0,0:0|0:0,0:0:0:0:
138,190,82851,2,0,B|135:290,1,100,8|0,0:0|0:0,0:0:0:0:
383,170,83065,6,0,B|369:71,1,100,8|0,0:0|0:0,0:0:0:0:
128,213,83280,2,0,B|142:312,1,100,8|0,0:0|0:0,0:0:0:0:
390,144,83494,6,0,B|359:49,1,100,8|0,0:0|0:0,0:0:0:0:
121,239,83708,2,0,B|152:334,1,100,8|0,0:0|0:0,0:0:0:0:
252,360,83923,5,0,0:0:0:0:
344,320,84030,1,0,0:0:0:0:
388,228,84137,1,8,0:0:0:0:
352,136,84244,1,0,0:0:0:0:
256,104,84351,6,0,B|204:188,1,100,12|0,0:0|0:0,0:0:0:0:
256,280,84565,2,0,B|308:196,1,100,8|0,0:0|0:0,0:0:0:0:
239,96,84780,6,0,B|202:189,1,100,8|0,0:0|0:0,0:0:0:0:
272,287,84994,2,0,B|309:194,1,100,8|0,0:0|0:0,0:0:0:0:
219,91,85208,6,0,B|199:189,1,100,8|0,0:0|0:0,0:0:0:0:
292,292,85423,2,0,B|312:194,1,100,8|0,0:0|0:0,0:0:0:0:
197,90,85637,6,0,B|194:190,1,100,8|0,0:0|0:0,0:0:0:0:
314,293,85851,2,0,B|317:193,1,100,8|0,0:0|0:0,0:0:0:0:
173,93,86065,6,0,B|187:192,1,100,8|0,0:0|0:0,0:0:0:0:
338,290,86280,2,0,B|324:191,1,100,8|0,0:0|0:0,0:0:0:0:
147,100,86494,6,0,B|178:195,1,100,8|0,0:0|0:0,0:0:0:0:
364,283,86708,2,0,B|333:188,1,100,8|0,0:0|0:0,0:0:0:0:
120,114,86923,6,0,B|168:202,1,100,8|0,0:0|0:0,0:0:0:0:
391,269,87137,2,0,B|343:181,1,100,8|0,0:0|0:0,0:0:0:0:
94,133,87351,6,0,B|156:211,1,100,8|0,0:0|0:0,0:0:0:0:
417,250,87565,2,0,B|354:171,1,100,8|0,0:0|0:0,0:0:0:0:
256,132,87780,6,0,B|256:332,1,200,4|8,0:0|0:0,0:0:0:0:
160,360,88101,1,0,0:0:0:0:
72,316,88208,2,0,B|48:276|52:220,1,100,8|0,0:0|0:0,0:0:0:0:
152,232,88423,2,0,B|176:192|172:136,1,100,8|0,0:0|0:0,0:0:0:0:
160,36,88637,5,8,0:0:0:0:
60,48,88744,1,0,0:0:0:0:
8,132,88851,1,8,0:0:0:0:
52,220,88958,1,0,0:0:0:0:
152,232,89065,2,0,B|244:192,1,100,8|0,0:0|0:0,0:0:0:0:
328,248,89280,2,0,B|236:288,1,100,8|0,0:0|0:0,0:0:0:0:
288,372,89494,5,8,0:0:0:0:
388,372,89601,1,0,0:0:0:0:
440,288,89708,1,8,0:0:0:0:
400,196,89815,1,0,0:0:0:0:
300,188,89923,2,0,B|244:272,1,100,8|0,0:0|0:0,0:0:0:0:
152,232,90137,2,0,B|208:148,1,100,8|0,0:0|0:0,0:0:0:0:
120,100,90351,6,0,B|40:164|40:164|12:256,1,200,8|8,0:0|0:0,0:0:0:0:
76,336,90673,1,0,0:0:0:0:
176,332,90780,2,0,B|228:248,1,100,8|0,0:0|0:0,0:0:0:0:
164,172,90994,2,0,B|112:256,1,100,8|0,0:0|0:0,0:0:0:0:
12,256,91208,5,12,0:0:0:0:
36,160,91315,1,0,0:0:0:0:
120,100,91423,1,8,0:0:0:0:
216,120,91530,1,0,0:0:0:0:
256,212,91637,2,0,B|256:312,1,100,8|0,0:0|0:0,0:0:0:0:
352,292,91851,2,0,B|352:192,1,100,8|0,0:0|0:0,0:0:0:0:
308,104,92065,5,8,0:0:0:0:
224,52,92173,1,0,0:0:0:0:
128,76,92280,1,8,0:0:0:0:
80,164,92387,1,0,0:0:0:0:
108,260,92494,2,0,B|192:312,1,100,8|0,0:0|0:0,0:0:0:0:
404,260,92708,2,0,B|320:312,1,100,8|0,0:0|0:0,0:0:0:0:
256,236,92923,5,12,0:0:0:0:
280,140,93030,1,0,0:0:0:0:
376,108,93137,1,12,0:0:0:0:
452,172,93244,1,0,0:0:0:0:
404,260,93351,2,0,B|320:312,1,100,12|0,0:0|0:0,0:0:0:0:
108,260,93565,2,0,B|192:312,1,100,8|0,0:0|0:0,0:0:0:0:
256,236,93780,6,0,B|256:36,1,200,8|0,0:0|0:0,0:0:0:0:
256,36,94101,5,8,0:0:0:0:
