osu file format v12

[General]
AudioFilename: Kyouki Chinden.mp3
AudioLeadIn: 0
PreviewTime: 66780
Countdown: 0
SampleSet: Soft
StackLeniency: 0.7
Mode: 0
LetterboxInBreaks: 0
WidescreenStoryboard: 0

[Editor]
DistanceSpacing: 0.7
BeatDivisor: 2
GridSize: 4

[Metadata]
Title:Kyouki Chinden (TV Size)
TitleUnicode:狂気沈殿 (TV Size)
Artist:Yousei Teikoku
ArtistUnicode:妖精帝國
Creator:Saten
Version:Insanity
Source:Mirai Nikki
Tags:Saten-san alternative opening satona kurousagi OnosakiHito
BeatmapID:178505
BeatmapSetID:59025

[Difficulty]
HPDrainRate:7
CircleSize:4
OverallDifficulty:7
ApproachRate:9
SliderMultiplier:1.5
SliderTickRate:2

[Events]
//Background and Video events
Video,1346,"sexy.avi"
0,0,"Nikki.png",0,0
//Break Periods
//Storyboard Layer 0 (Background)
//Storyboard Layer 1 (Fail)
//Storyboard Layer 2 (Pass)
//Storyboard Layer 3 (Foreground)
//Storyboard Sound Samples
//Background Colour Transformations
3,100,0,0,0

[TimingPoints]
2066,214.285714285714,4,2,1,80,1,0
10637,-100,4,2,1,70,0,0
12351,-100,4,2,1,80,0,0
67208,-100,4,2,1,80,0,1
79208,-100,4,2,1,80,0,0
80923,-100,4,2,1,80,0,1
93780,-100,4,2,1,80,0,0
94208,-100,4,2,1,5,0,0

[Colours]
Combo1 : 255,255,45
Combo2 : 255,159,64
Combo3 : 83,169,255
Combo4 : 255,83,255

[HitObjects]
255,49,2066,1,0,0:0:0:0:
299,39,2173,1,0,0:0:0:0:
342,52,2280,1,0,0:0:0:0:
375,83,2387,1,0,0:0:0:0:
391,125,2494,1,0,0:0:0:0:
375,167,2601,1,0,0:0:0:0:
341,198,2708,1,0,0:0:0:0:
297,208,2815,1,0,0:0:0:0:
256,192,2923,5,0,0:0:0:0:
215,176,3030,1,0,0:0:0:0:
171,186,3137,1,0,0:0:0:0:
137,217,3244,1,0,0:0:0:0:
121,259,3351,1,0,0:0:0:0:
137,301,3458,1,0,0:0:0:0:
170,332,3565,1,0,0:0:0:0:
213,345,3672,1,0,0:0:0:0:
257,334,3780,5,0,0:0:0:0:
256,296,3887,1,0,0:0:0:0:
256,261,3994,1,0,0:0:0:0:
256,226,4101,1,0,0:0:0:0:
256,191,4208,1,0,0:0:0:0:
256,156,4315,1,0,0:0:0:0:
256,121,4423,1,0,0:0:0:0:
256,86,4530,1,0,0:0:0:0:
256,51,4637,5,0,0:0:0:0:
224,36,4744,2,0,B|169:26|120:56|104:105,1,150,12|0,0:0|0:0,0:0:0:0:
148,120,5065,2,0,B|131:168|83:198|28:189,1,150,0|8,0:0|0:0,0:0:0:0:
60,44,5494,5,4,0:0:0:0:
104,28,5601,1,0,0:0:0:0:
148,36,5708,1,8,0:0:0:0:
184,60,5815,1,0,0:0:0:0:
200,104,5923,1,0,0:0:0:0:
192,148,6030,1,0,0:0:0:0:
164,184,6137,1,8,0:0:0:0:
144,224,6244,1,0,0:0:0:0:
152,268,6351,5,0,0:0:0:0:
184,300,6458,1,0,0:0:0:0:
228,312,6565,1,8,0:0:0:0:
272,300,6673,1,0,0:0:0:0:
300,264,6780,1,0,0:0:0:0:
308,220,6887,1,0,0:0:0:0:
304,176,6994,1,8,0:0:0:0:
320,132,7101,1,0,0:0:0:0:
360,112,7208,5,0,0:0:0:0:
404,112,7315,1,0,0:0:0:0:
440,140,7423,1,8,0:0:0:0:
456,180,7530,1,0,0:0:0:0:
448,224,7637,1,0,0:0:0:0:
416,256,7744,1,0,0:0:0:0:
372,256,7851,1,8,0:0:0:0:
328,240,7958,1,0,0:0:0:0:
284,240,8065,5,0,0:0:0:0:
244,260,8173,1,0,0:0:0:0:
216,296,8280,1,8,0:0:0:0:
172,312,8387,1,0,0:0:0:0:
128,304,8494,1,0,0:0:0:0:
92,280,8601,1,0,0:0:0:0:
72,240,8708,1,8,0:0:0:0:
72,196,8815,1,0,0:0:0:0:
100,160,8923,5,4,0:0:0:0:
140,140,9030,1,0,0:0:0:0:
184,152,9137,1,8,0:0:0:0:
216,184,9244,1,0,0:0:0:0:
256,200,9351,1,0,0:0:0:0:
300,192,9458,1,0,0:0:0:0:
324,156,9565,1,8,0:0:0:0:
324,112,9673,1,0,0:0:0:0:
300,72,9780,5,0,0:0:0:0:
256,60,9887,1,0,0:0:0:0:
212,72,9994,1,8,0:0:0:0:
184,108,10101,1,0,0:0:0:0:
184,152,10208,1,0,0:0:0:0:
168,192,10315,1,0,0:0:0:0:
128,212,10423,1,8,0:0:0:0:
84,204,10530,1,0,0:0:0:0:
52,172,10637,6,6,B|28:72|108:8|208:8|328:52|428:96|472:264|432:380|256:424|80:380|40:264|84:96|184:52|304:8|404:8|484:72|460:172,1,1200,0|4,0:0|0:0,0:0:0:0:
412,256,12458,6,0,B|336:244,1,75,0|8,0:0|0:0,0:0:0:0:
180,180,12673,2,0,B|256:192,1,75
296,176,12887,1,0,0:0:0:0:
328,144,12994,2,0,B|408:172|412:256,1,150,8|0,0:0|0:0,0:0:0:0:
332,312,13315,6,0,B|260:292,1,75,0|8,0:0|0:0,0:0:0:0:
100,232,13530,2,0,B|172:252,1,75
212,228,13744,1,0,0:0:0:0:
240,192,13851,2,0,B|228:108|144:92,1,150,8|0,0:0|0:0,0:0:0:0:
56,140,14173,6,0,B|28:208,1,75,0|8,0:0|0:0,0:0:0:0:
95,301,14387,2,0,B|124:232,1,75
168,216,14601,1,0,0:0:0:0:
212,228,14708,2,0,B|296:236|340:164,1,150,8|0,0:0|0:0,0:0:0:0:
256,40,15137,5,8,0:0:0:0:
173,165,15351,1,0,0:0:0:0:
256,40,15565,1,8,0:0:0:0:
338,165,15780,6,0,B|338:239,2,75,4|0|8,0:0|0:0|0:0,0:0:0:0:
400,92,16101,1,0,0:0:0:0:
484,140,16208,2,0,B|516:208,1,75
424,244,16423,6,0,B|360:108,1,150,8|0,0:0|0:0,0:0:0:0:
264,84,16744,1,0,0:0:0:0:
176,128,16851,2,0,B|160:200,2,75,8|0|0,0:0|0:0|0:0,0:0:0:0:
108,56,17173,1,0,0:0:0:0:
40,124,17280,6,0,B|24:196|24:196|44:272,1,150,8|0,0:0|0:0,0:0:0:0:
124,320,17601,1,0,0:0:0:0:
220,308,17708,2,0,B|260:244,2,75,8|0|0,0:0|0:0|0:0,0:0:0:0:
120,312,18030,1,0,0:0:0:0:
40,256,18137,6,0,B|52:176|132:148,1,150,8|12,0:0|0:0,0:0:0:0:
324,192,18565,1,12,0:0:0:0:
132,236,18780,1,12,0:0:0:0:
324,276,18994,1,12,0:0:0:0:
132,320,19208,2,0,B|44:304|28:224,1,150,4|8,0:0|0:0,0:0:0:0:
92,148,19530,6,0,B|168:148,1,75
208,236,19744,2,0,B|132:236,1,75,0|8,0:0|0:0,0:0:0:0:
100,264,19958,1,0,0:0:0:0:
80,304,20065,2,0,B|132:368|212:360,1,150,0|8,0:0|0:0,0:0:0:0:
300,316,20387,6,0,B|336:252,1,75
436,248,20601,2,0,B|400:312,1,75,0|8,0:0|0:0,0:0:0:0:
420,356,20815,1,0,0:0:0:0:
464,372,20923,2,0,B|536:320|516:240,1,150,0|8,0:0|0:0,0:0:0:0:
452,168,21244,6,0,B|384:132,1,75
308,192,21458,2,0,B|376:228,1,75,0|8,0:0|0:0,0:0:0:0:
396,268,21673,1,0,0:0:0:0:
376,308,21780,6,0,B|304:348|232:308,1,150,0|8,0:0|0:0,0:0:0:0:
76,192,22208,2,0,B|148:232|220:192,1,150,0|8,0:0|0:0,0:0:0:0:
376,76,22637,6,0,B|304:116|232:76,1,150,4|8,0:0|0:0,0:0:0:0:
136,64,22958,1,0,0:0:0:0:
48,104,23065,2,0,B|12:168,1,75
88,232,23280,2,0,B|156:204,1,75,8|0,0:0|0:0,0:0:0:0:
256,192,23494,6,0,B|256:340,1,150,0|8,0:0|0:0,0:0:0:0:
348,368,23815,1,0,0:0:0:0:
428,312,23923,2,0,B|452:240,1,75
392,164,24137,2,0,B|340:216,1,75,8|0,0:0|0:0,0:0:0:0:
256,268,24351,6,0,B|180:256|180:256|128:200,1,150,0|8,0:0|0:0,0:0:0:0:
152,108,24673,1,0,0:0:0:0:
248,112,24780,2,0,B|308:156,1,75
388,100,24994,2,0,B|328:56,1,75,8|0,0:0|0:0,0:0:0:0:
232,36,25208,6,0,B|84:36,2,150,12|0|12,0:0|0:0|0:0,0:0:0:0:
444,132,25851,1,8,0:0:0:0:
256,268,26065,6,0,B|172:264|140:188,1,150,4|8,0:0|0:0,0:0:0:0:
192,104,26387,2,0,B|316:192,1,150
372,272,26708,2,0,B|339:348|255:352,1,150,8|0,0:0|0:0,0:0:0:0:
160,344,27030,6,0,B|104:296,1,75,0|8,0:0|0:0,0:0:0:0:
76,104,27351,1,0,0:0:0:0:
256,32,27565,1,8,0:0:0:0:
436,104,27780,6,0,B|464:172|464:172|448:248,1,150,0|8,0:0|0:0,0:0:0:0:
352,256,28101,2,0,B|367:181|367:181|339:113,1,150
256,64,28423,5,8,0:0:0:0:
256,260,28637,1,0,0:0:0:0:
256,64,28851,1,8,0:0:0:0:
256,260,29065,2,0,B|180:296|116:240,1,150,0|8,0:0|0:0,0:0:0:0:
112,44,29494,6,0,B|36:48|0:132,1,150,0|8,0:0|0:0,0:0:0:0:
92,168,29815,2,0,B|240:136,1,150
332,168,30137,2,0,B|296:252|220:256,1,150,8|0,0:0|0:0,0:0:0:0:
124,260,30458,6,0,B|64:308,1,75,0|8,0:0|0:0,0:0:0:0:
256,356,30780,1,0,0:0:0:0:
446,306,30994,1,8,0:0:0:0:
256,356,31208,6,0,B|256:204,1,150,0|8,0:0|0:0,0:0:0:0:
168,168,31530,2,0,B|168:320,1,150
80,276,31851,2,0,B|80:124,1,150,8|0,0:0|0:0,0:0:0:0:
256,40,32280,5,12,0:0:0:0:
432,126,32494,1,4,0:0:0:0:
256,40,32708,1,8,0:0:0:0:
80,126,32923,6,0,B|80:276,1,150,4|8,0:0|0:0,0:0:0:0:
136,356,33244,2,0,B|208:376|208:376|280:352,1,150
300,256,33565,2,0,B|356:208|356:208|432:208,1,150,8|0,0:0|0:0,0:0:0:0:
480,296,33887,6,0,B|440:360,1,75,0|8,0:0|0:0,0:0:0:0:
256,296,34208,1,0,0:0:0:0:
72,228,34423,1,8,0:0:0:0:
256,168,34637,6,0,B|320:112|296:32,1,150,0|8,0:0|0:0,0:0:0:0:
208,76,34958,2,0,B|168:149|83:143,1,150
8,84,35280,5,8,0:0:0:0:
152,216,35494,1,0,0:0:0:0:
296,88,35708,1,8,0:0:0:0:
444,220,35923,1,0,0:0:0:0:
296,88,36137,1,8,0:0:0:0:
152,216,36351,6,0,B|178:291|255:316,1,150,0|8,0:0|0:0,0:0:0:0:
256,216,36673,2,0,B|280:139|356:112,1,150
432,176,36994,2,0,B|440:324,1,150,8|0,0:0|0:0,0:0:0:0:
344,332,37315,6,0,B|280:292,1,75,0|8,0:0|0:0,0:0:0:0:
256,96,37637,1,0,0:0:0:0:
432,176,37851,1,8,0:0:0:0:
280,292,38065,6,0,B|204:292|204:292|140:256,1,150,0|8,0:0|0:0,0:0:0:0:
216,192,38387,2,0,B|292:192|292:192|356:156,1,150
280,96,38708,2,0,B|204:96|204:96|140:60,1,150,8|12,0:0|0:0,0:0:0:0:
0,192,39137,1,12,0:0:0:0:
139,324,39351,1,12,0:0:0:0:
0,192,39565,1,8,0:0:0:0:
140,60,39780,6,0,B|204:96|204:96|280:96,1,150,4|8,0:0|0:0,0:0:0:0:
324,108,40101,1,0,0:0:0:0:
356,136,40208,1,0,0:0:0:0:
364,180,40315,1,0,0:0:0:0:
348,220,40423,1,8,0:0:0:0:
312,248,40530,1,0,0:0:0:0:
268,252,40637,2,0,B|120:252,1,150,0|8,0:0|0:0,0:0:0:0:
76,60,41065,2,0,B|224:60,1,150,0|8,0:0|0:0,0:0:0:0:
268,252,41494,5,0,0:0:0:0:
224,60,41708,1,8,0:0:0:0:
268,252,41923,1,0,0:0:0:0:
224,60,42137,1,8,0:0:0:0:
264,44,42244,1,0,0:0:0:0:
308,40,42351,1,0,0:0:0:0:
352,56,42458,1,0,0:0:0:0:
384,88,42565,2,0,B|384:236,1,150,8|0,0:0|0:0,0:0:0:0:
220,344,42994,5,8,0:0:0:0:
220,344,43101,1,0,0:0:0:0:
220,344,43208,2,0,B|144:336|144:336|80:296,1,150,0|8,0:0|0:0,0:0:0:0:
256,192,43637,2,0,B|332:184|332:184|396:144,1,150,0|8,0:0|0:0,0:0:0:0:
320,84,43958,2,0,B|168:84,1,150
92,140,44280,1,8,0:0:0:0:
256,248,44494,1,0,0:0:0:0:
420,140,44708,1,8,0:0:0:0:
256,248,44923,6,0,B|192:208|192:208|156:144,1,150,0|8,0:0|0:0,0:0:0:0:
356,143,45351,2,0,B|320:208|320:208|256:248,1,150,0|8,0:0|0:0,0:0:0:0:
256,204,45673,1,0,0:0:0:0:
256,160,45780,1,0,0:0:0:0:
256,116,45887,2,0,B|300:56|300:56|372:40,1,150,12|0,0:0|0:0,0:0:0:0:
256,116,46208,2,0,B|212:56|212:56|140:40,1,150,12|0,0:0|0:0,0:0:0:0:
16,192,46637,5,4,0:0:0:0:
138,344,46851,1,8,0:0:0:0:
256,192,47065,1,0,0:0:0:0:
288,160,47173,1,0,0:0:0:0:
332,148,47280,1,8,0:0:0:0:
376,152,47387,1,0,0:0:0:0:
416,172,47494,2,0,B|431:246|431:246|407:317,1,150,0|8,0:0|0:0,0:0:0:0:
256,192,47923,2,0,B|214:127|214:127|146:95,1,150,0|8,0:0|0:0,0:0:0:0:
16,236,48351,5,0,0:0:0:0:
192,156,48565,1,8,0:0:0:0:
8,156,48780,1,0,0:0:0:0:
184,236,48994,1,8,0:0:0:0:
184,236,49101,1,0,0:0:0:0:
184,236,49208,2,0,B|260:256|328:208,1,150,0|8,0:0|0:0,0:0:0:0:
256,28,49637,1,0,0:0:0:0:
112,160,49851,5,8,0:0:0:0:
112,160,49958,1,0,0:0:0:0:
112,160,50065,2,0,B|92:232|92:232|112:304,1,150,0|8,0:0|0:0,0:0:0:0:
304,348,50494,1,0,0:0:0:0:
228,168,50708,1,8,0:0:0:0:
228,168,50815,1,0,0:0:0:0:
228,168,50923,2,0,B|276:112|276:112|348:88,1,150,0|8,0:0|0:0,0:0:0:0:
424,268,51351,2,0,B|376:324|376:324|304:348,1,150,0|8,0:0|0:0,0:0:0:0:
228,168,51780,5,0,0:0:0:0:
112,324,51994,1,8,0:0:0:0:
32,144,52208,1,0,0:0:0:0:
228,168,52423,1,8,0:0:0:0:
228,168,52530,1,0,0:0:0:0:
228,168,52637,1,0,0:0:0:0:
228,168,52744,2,0,B|284:220|284:220|300:292,1,150,12|0,0:0|0:0,0:0:0:0:
204,268,53065,2,0,B|148:216|148:216|132:144,1,150,12|0,0:0|0:0,0:0:0:0:
296,40,53494,1,0,0:0:0:0:
120,156,53708,6,0,B|136:228|136:228|192:280,1,150,12|0,0:0|0:0,0:0:0:0:
396,272,54137,1,8,0:0:0:0:
396,272,54244,2,0,B|444:208|416:128,1,150
320,120,54565,2,0,B|348:200|300:264,1,150,8|0,0:0|0:0,0:0:0:0:
120,340,54994,1,8,0:0:0:0:
116,144,55208,5,4,0:0:0:0:
148,112,55315,1,0,0:0:0:0:
192,96,55423,1,8,0:0:0:0:
236,92,55530,1,0,0:0:0:0:
280,100,55637,1,0,0:0:0:0:
320,120,55744,1,0,0:0:0:0:
348,152,55851,1,8,0:0:0:0:
360,196,55958,1,0,0:0:0:0:
352,240,56065,6,0,B|304:296,1,75
220,244,56280,2,0,B|268:188,1,75,8|0,0:0|0:0,0:0:0:0:
184,140,56494,2,0,B|85:254,2,150,0|8|0,0:0|0:0|0:0,0:0:0:0:
352,240,57137,6,0,B|420:204|420:204|444:136,1,150,12|0,0:0|0:0,0:0:0:0:
276,40,57565,2,0,B|200:40|200:40|136:76,1,150,8|0,0:0|0:0,0:0:0:0:
60,256,57994,1,8,0:0:0:0:
244,192,58208,5,0,0:0:0:0:
244,192,58315,1,0,0:0:0:0:
244,192,58423,2,0,B|316:156|388:192,2,150,8|4|8,0:0|0:0|0:0,0:0:0:0:
360,348,59065,1,0,0:0:0:0:
480,192,59280,1,8,0:0:0:0:
340,56,59494,5,8,0:0:0:0:
296,40,59601,1,0,0:0:0:0:
252,40,59708,1,8,0:0:0:0:
208,52,59815,1,0,0:0:0:0:
176,84,59923,2,0,B|160:156,1,75
68,184,60137,2,0,B|100:38,2,150,12|0|12,0:0|0:0|0:0,0:0:0:0:
112,272,60673,5,0,0:0:0:0:
112,272,60780,2,0,B|180:304|180:304|256:304,1,150,0|8,0:0|0:0,0:0:0:0:
268,208,61101,2,0,B|193:208|193:208|125:176,1,150,0|0,0:0|0:0,0:0:0:0:
208,124,61423,2,0,B|282:124|282:124|350:156,1,150,8|0,0:0|0:0,0:0:0:0:
256,328,61851,1,8,0:0:0:0:
124,176,62065,5,4,0:0:0:0:
112,132,62173,1,0,0:0:0:0:
116,88,62280,1,8,0:0:0:0:
144,52,62387,1,0,0:0:0:0:
184,36,62494,1,0,0:0:0:0:
228,40,62601,1,0,0:0:0:0:
264,64,62708,1,8,0:0:0:0:
280,108,62815,1,0,0:0:0:0:
272,152,62923,6,0,B|208:192,1,75
256,276,63137,2,0,B|320:236,1,75,8|0,0:0|0:0,0:0:0:0:
360,324,63351,2,0,B|296:364|296:364|220:364,2,150,8|8|0,0:0|0:0|0:0,0:0:0:0:
448,148,63994,1,12,0:0:0:0:
264,64,64208,5,0,0:0:0:0:
264,64,64315,1,0,0:0:0:0:
264,64,64423,2,0,B|192:84|192:84|144:144,1,150,8|0,0:0|0:0,0:0:0:0:
256,304,64851,1,8,0:0:0:0:
367,142,65065,1,0,0:0:0:0:
256,304,65280,1,8,0:0:0:0:
144,142,65494,5,4,0:0:0:0:
480,240,65815,1,4,0:0:0:0:
32,144,66137,1,4,0:0:0:0:
448,67,66458,1,4,0:0:0:0:
256,192,66780,1,8,0:0:0:0:
256,192,66887,1,0,0:0:0:0:
256,192,66994,1,8,0:0:0:0:
64,316,67208,6,0,B|36:236|100:180,1,150,4|8,0:0|0:0,0:0:0:0:
256,300,67637,1,0,0:0:0:0:
256,300,67744,1,0,0:0:0:0:
256,300,67851,2,0,B|340:320|388:252,1,150,8|0,0:0|0:0,0:0:0:0:
396,56,68280,1,8,0:0:0:0:
256,192,68494,1,0,0:0:0:0:
116,56,68708,1,8,0:0:0:0:
256,192,68923,6,0,B|320:232|320:232|352:300,1,150,0|8,0:0|0:0,0:0:0:0:
256,300,69244,2,0,B|192:260|192:260|160:192,1,150
184,100,69565,2,0,B|254:74|254:74|328:91,1,150,8|0,0:0|0:0,0:0:0:0:
440,252,69994,1,8,0:0:0:0:
256,192,70208,5,0,0:0:0:0:
72,252,70423,1,8,0:0:0:0:
108,60,70637,2,0,B|256:32,1,150,0|8,0:0|0:0,0:0:0:0:
432,112,71065,1,0,0:0:0:0:
432,112,71173,1,0,0:0:0:0:
432,112,71280,2,0,B|484:180|440:252,1,150,8|0,0:0|0:0,0:0:0:0:
256,320,71708,1,8,0:0:0:0:
256,124,71923,5,0,0:0:0:0:
256,124,72030,1,0,0:0:0:0:
256,124,72137,2,0,B|184:76|116:124,1,150,8|0,0:0|0:0,0:0:0:0:
60,312,72565,1,8,0:0:0:0:
256,320,72780,5,0,0:0:0:0:
256,320,72887,1,0,0:0:0:0:
256,320,72994,1,8,0:0:0:0:
256,320,73101,2,0,B|328:300|328:300|377:243,1,150
284,216,73423,2,0,B|212:196|212:196|162:139,1,150,8|0,0:0|0:0,0:0:0:0:
328,36,73851,1,8,0:0:0:0:
162,139,74065,6,0,B|105:188|105:188|85:260,1,150,4|8,0:0|0:0,0:0:0:0:
256,356,74494,1,0,0:0:0:0:
426,260,74708,1,8,0:0:0:0:
426,260,74815,1,0,0:0:0:0:
426,260,74923,2,0,B|406:188|406:188|349:139,1,150,0|8,0:0|0:0,0:0:0:0:
256,312,75351,1,0,0:0:0:0:
256,116,75565,1,8,0:0:0:0:
256,312,75780,6,0,B|196:268|196:268|168:196,1,150,0|8,0:0|0:0,0:0:0:0:
256,240,76101,2,0,B|316:196|316:196|344:124,1,150
256,168,76423,2,0,B|196:124|196:124|168:52,1,150,8|0,0:0|0:0,0:0:0:0:
364,36,76851,5,8,0:0:0:0:
480,192,77065,1,0,0:0:0:0:
376,356,77280,1,8,0:0:0:0:
188,300,77494,2,0,B|136:232|160:160,1,150,0|8,0:0|0:0,0:0:0:0:
352,192,77923,1,0,0:0:0:0:
352,192,78030,1,0,0:0:0:0:
352,192,78137,2,0,B|376:119|324:51,1,150,8|0,0:0|0:0,0:0:0:0:
128,56,78565,5,8,0:0:0:0:
312,124,78780,1,0,0:0:0:0:
128,192,78994,1,8,0:0:0:0:
308,268,79208,5,4,0:0:0:0:
16,284,79530,1,4,0:0:0:0:
308,268,79851,1,4,0:0:0:0:
128,192,80065,5,4,0:0:0:0:
420,208,80387,1,4,0:0:0:0:
128,192,80708,1,4,0:0:0:0:
284,72,80923,5,12,0:0:0:0:
324,56,81030,1,0,0:0:0:0:
368,52,81137,1,8,0:0:0:0:
412,60,81244,1,0,0:0:0:0:
452,80,81351,1,8,0:0:0:0:
476,116,81458,1,0,0:0:0:0:
480,160,81565,1,8,0:0:0:0:
464,204,81673,1,0,0:0:0:0:
428,232,81780,5,8,0:0:0:0:
384,240,81887,1,0,0:0:0:0:
340,232,81994,1,8,0:0:0:0:
304,208,82101,1,0,0:0:0:0:
268,180,82208,1,8,0:0:0:0:
224,172,82315,1,0,0:0:0:0:
180,180,82423,1,8,0:0:0:0:
144,208,82530,1,0,0:0:0:0:
128,252,82637,5,8,0:0:0:0:
132,296,82744,1,0,0:0:0:0:
156,332,82851,1,8,0:0:0:0:
196,356,82958,1,0,0:0:0:0:
240,356,83065,1,8,0:0:0:0:
276,332,83173,1,0,0:0:0:0:
292,292,83280,1,8,0:0:0:0:
284,248,83387,1,0,0:0:0:0:
248,220,83494,6,0,B|176:200,1,75,8|0,0:0|0:0,0:0:0:0:
252,140,83708,2,0,B|324:160,1,75,8|0,0:0|0:0,0:0:0:0:
400,100,83923,2,0,B|328:80,1,75,0|0,0:0|0:0,0:0:0:0:
404,20,84137,2,0,B|476:40,1,75,8|0,0:0|0:0,0:0:0:0:
500,136,84351,5,12,0:0:0:0:
496,180,84458,1,0,0:0:0:0:
472,220,84565,1,8,0:0:0:0:
432,244,84673,1,0,0:0:0:0:
388,252,84780,1,8,0:0:0:0:
344,236,84887,1,0,0:0:0:0:
308,208,84994,1,8,0:0:0:0:
288,168,85101,1,0,0:0:0:0:
252,140,85208,5,8,0:0:0:0:
208,140,85315,1,0,0:0:0:0:
168,160,85423,1,8,0:0:0:0:
140,196,85530,1,0,0:0:0:0:
132,240,85637,1,8,0:0:0:0:
148,284,85744,1,0,0:0:0:0:
184,312,85851,1,8,0:0:0:0:
228,324,85958,1,0,0:0:0:0:
272,312,86065,5,8,0:0:0:0:
292,272,86173,1,0,0:0:0:0:
316,236,86280,1,8,0:0:0:0:
356,212,86387,1,0,0:0:0:0:
400,212,86494,1,8,0:0:0:0:
440,232,86601,1,0,0:0:0:0:
460,272,86708,1,8,0:0:0:0:
460,316,86815,1,0,0:0:0:0:
440,356,86923,6,0,B|368:372,1,75,8|0,0:0|0:0,0:0:0:0:
324,284,87137,2,0,B|396:268,1,75,8|0,0:0|0:0,0:0:0:0:
352,180,87351,2,0,B|280:196,1,75,8|0,0:0|0:0,0:0:0:0:
232,112,87565,2,0,B|304:96,1,75,8|0,0:0|0:0,0:0:0:0:
404,96,87780,6,0,B|468:156|440:232,1,150,12|8,0:0|0:0,0:0:0:0:
392,316,88101,1,0,0:0:0:0:
296,292,88208,2,0,B|256:228,1,75,8|0,0:0|0:0,0:0:0:0:
160,240,88423,2,0,B|200:304,1,75,8|0,0:0|0:0,0:0:0:0:
104,320,88637,6,0,B|24:192,1,150,8|8,0:0|0:0,0:0:0:0:
64,104,88958,1,0,0:0:0:0:
160,92,89065,2,0,B|232:112,1,75,8|0,0:0|0:0,0:0:0:0:
208,208,89280,2,0,B|136:188,1,75,8|0,0:0|0:0,0:0:0:0:
112,284,89494,6,0,B|254:323,1,150,8|8,0:0|0:0,0:0:0:0:
352,300,89815,1,0,0:0:0:0:
388,208,89923,2,0,B|372:136,1,75,8|0,0:0|0:0,0:0:0:0:
276,120,90137,2,0,B|292:192,1,75,8|0,0:0|0:0,0:0:0:0:
196,184,90351,6,0,B|163:37,1,150,8|8,0:0|0:0,0:0:0:0:
80,92,90673,2,0,B|112:238,1,150
180,308,90994,2,0,B|256:308|256:308|316:268,1,150,8|12,0:0|0:0,0:0:0:0:
404,92,91423,6,0,B|476:116,1,75,8|0,0:0|0:0,0:0:0:0:
420,196,91637,2,0,B|348:172,1,75,8|0,0:0|0:0,0:0:0:0:
292,252,91851,2,0,B|364:276,1,75,8|0,0:0|0:0,0:0:0:0:
448,328,92065,5,8,0:0:0:0:
256,364,92280,1,8,0:0:0:0:
64,328,92494,1,8,0:0:0:0:
256,364,92708,1,8,0:0:0:0:
448,328,92923,6,0,B|476:256,1,75,12|0,0:0|0:0,0:0:0:0:
380,252,93137,2,0,B|352:180,1,75,12|0,0:0|0:0,0:0:0:0:
448,172,93351,2,0,B|476:100,1,75,12|0,0:0|0:0,0:0:0:0:
376,100,93565,2,0,B|348:28,1,75,8|0,0:0|0:0,0:0:0:0:
256,64,93780,6,0,B|256:216,1,150,8|0,0:0|0:0,0:0:0:0:
256,214,94101,5,8,0:0:0:0:
