osu file format v12

[General]
AudioFilename: Kyouki Chinden.mp3
AudioLeadIn: 0
PreviewTime: 66780
Countdown: 0
SampleSet: Normal
StackLeniency: 0.7
Mode: 1
LetterboxInBreaks: 0
SkinPreference:taiko
WidescreenStoryboard: 1

[Editor]
Bookmarks: 2066,12351,26065,39780,53708,67208,80923,94208
DistanceSpacing: 1.8
BeatDivisor: 4
GridSize: 4

[Metadata]
Title:Kyouki Chinden (TV Size)
TitleUnicode:狂気沈殿 (TV Size)
Artist:Yousei Teikoku
ArtistUnicode:妖精帝國
Creator:Saten
Version:Taikosaki
Source:Mirai Nikki
Tags:Saten-san alternative opening satona kurousagi OnosakiHito
BeatmapID:187015
BeatmapSetID:59025

[Difficulty]
HPDrainRate:6
CircleSize:4
OverallDifficulty:6
ApproachRate:5
SliderMultiplier:1.4
SliderTickRate:1

[Events]
//Background and Video events
Video,1346,"sexy.avi"
0,0,"Taiko_BG.png",0,0
//Break Periods
//Storyboard Layer 0 (Background)
//Storyboard Layer 1 (Fail)
//Storyboard Layer 2 (Pass)
//Storyboard Layer 3 (Foreground)
//Storyboard Sound Samples
//Background Colour Transformations
3,100,0,0,0

[TimingPoints]
2066,214.285714285714,4,1,0,80,1,0
26065,-66.6666666666667,4,1,0,80,0,1
39780,-100,4,1,0,80,0,0
67208,-100,4,1,0,80,0,1
80923,-83.3333333333333,4,1,0,80,0,1
87458,-100,4,1,0,80,0,1
94208,-100,4,1,0,80,0,0

[HitObjects]
256,192,2066,1,0,0:0:0:0:
256,192,2173,5,8,0:0:0:0:
256,192,2280,5,0,0:0:0:0:
256,192,2387,5,8,0:0:0:0:
256,192,2494,5,0,0:0:0:0:
256,192,2601,1,0,0:0:0:0:
256,192,2708,5,8,0:0:0:0:
256,192,2815,1,8,0:0:0:0:
256,192,2923,5,0,0:0:0:0:
256,192,3030,5,8,0:0:0:0:
256,192,3137,5,0,0:0:0:0:
256,192,3244,5,8,0:0:0:0:
256,192,3351,5,0,0:0:0:0:
256,192,3458,1,0,0:0:0:0:
256,192,3565,5,8,0:0:0:0:
256,192,3673,1,8,0:0:0:0:
256,192,3780,1,0,0:0:0:0:
256,192,3887,5,8,0:0:0:0:
256,192,3994,5,0,0:0:0:0:
256,192,4101,5,8,0:0:0:0:
256,192,4208,5,0,0:0:0:0:
256,192,4315,1,0,0:0:0:0:
256,192,4422,5,8,0:0:0:0:
256,192,4529,1,8,0:0:0:0:
256,192,4637,5,0,0:0:0:0:
256,192,4744,5,12,0:0:0:0:
256,192,5065,5,0,0:0:0:0:
256,192,5280,5,12,0:0:0:0:
256,192,5494,5,0,0:0:0:0:
256,192,5601,5,8,0:0:0:0:
256,192,5655,1,8,0:0:0:0:
256,192,5708,5,0,0:0:0:0:
256,192,5815,5,8,0:0:0:0:
256,192,5923,5,0,0:0:0:0:
256,192,5976,1,0,0:0:0:0:
256,192,6030,5,8,0:0:0:0:
256,192,6083,1,8,0:0:0:0:
256,192,6137,5,0,0:0:0:0:
256,192,6244,5,8,0:0:0:0:
256,192,6351,5,0,0:0:0:0:
256,192,6458,5,8,0:0:0:0:
256,192,6512,1,8,0:0:0:0:
256,192,6565,5,0,0:0:0:0:
256,192,6673,5,8,0:0:0:0:
256,192,6780,5,0,0:0:0:0:
256,192,6833,5,8,0:0:0:0:
256,192,6940,1,8,0:0:0:0:
256,192,6994,5,0,0:0:0:0:
256,192,7101,5,8,0:0:0:0:
256,192,7208,5,0,0:0:0:0:
256,192,7315,5,8,0:0:0:0:
256,192,7369,1,8,0:0:0:0:
256,192,7423,5,0,0:0:0:0:
256,192,7530,5,8,0:0:0:0:
256,192,7637,5,0,0:0:0:0:
256,192,7690,1,0,0:0:0:0:
256,192,7744,5,8,0:0:0:0:
256,192,7798,1,8,0:0:0:0:
256,192,7851,5,0,0:0:0:0:
256,192,7905,1,0,0:0:0:0:
256,192,7958,5,8,0:0:0:0:
256,192,8065,5,0,0:0:0:0:
256,192,8173,5,8,0:0:0:0:
256,192,8226,1,8,0:0:0:0:
256,192,8280,5,0,0:0:0:0:
256,192,8387,5,8,0:0:0:0:
256,192,8494,5,0,0:0:0:0:
256,192,8548,5,8,0:0:0:0:
256,192,8601,5,0,0:0:0:0:
256,192,8655,5,8,0:0:0:0:
256,192,8708,5,0,0:0:0:0:
256,192,8815,5,8,0:0:0:0:
256,192,8923,5,0,0:0:0:0:
256,192,9030,5,8,0:0:0:0:
256,192,9083,1,8,0:0:0:0:
256,192,9137,5,0,0:0:0:0:
256,192,9244,5,8,0:0:0:0:
256,192,9351,5,0,0:0:0:0:
256,192,9405,1,0,0:0:0:0:
256,192,9458,5,8,0:0:0:0:
256,192,9512,1,8,0:0:0:0:
256,192,9565,5,0,0:0:0:0:
256,192,9673,5,8,0:0:0:0:
256,192,9780,5,0,0:0:0:0:
256,192,9887,5,8,0:0:0:0:
256,192,9940,1,8,0:0:0:0:
256,192,9994,5,0,0:0:0:0:
256,192,10101,5,8,0:0:0:0:
256,192,10208,5,0,0:0:0:0:
256,192,10262,5,8,0:0:0:0:
256,192,10369,1,8,0:0:0:0:
256,192,10423,5,0,0:0:0:0:
256,192,10530,5,8,0:0:0:0:
256,192,10637,5,0,0:0:0:0:
256,192,10690,1,0,0:0:0:0:
256,192,10744,1,0,0:0:0:0:
256,192,10798,1,0,0:0:0:0:
256,192,10851,5,8,0:0:0:0:
256,192,10905,1,8,0:0:0:0:
256,192,10958,1,8,0:0:0:0:
256,192,11012,1,8,0:0:0:0:
256,192,11065,5,0,0:0:0:0:
256,192,11173,1,0,0:0:0:0:
256,192,11280,5,8,0:0:0:0:
256,192,11333,1,8,0:0:0:0:
256,192,11387,1,8,0:0:0:0:
256,192,11440,1,8,0:0:0:0:
256,192,11494,1,8,0:0:0:0:
256,192,11601,5,4,0:0:0:0:
256,192,11923,1,4,0:0:0:0:
256,192,12030,5,8,0:0:0:0:
256,192,12137,1,8,0:0:0:0:
256,192,12244,1,8,0:0:0:0:
256,192,12351,5,0,0:0:0:0:
256,192,12458,5,8,0:0:0:0:
256,192,12565,1,8,0:0:0:0:
256,192,12673,5,0,0:0:0:0:
256,192,12726,1,0,0:0:0:0:
256,192,12780,1,0,0:0:0:0:
256,192,12833,1,0,0:0:0:0:
256,192,12887,1,0,0:0:0:0:
256,192,12994,5,8,0:0:0:0:
256,192,13101,1,8,0:0:0:0:
256,192,13208,5,0,0:0:0:0:
256,192,13315,5,8,0:0:0:0:
256,192,13423,5,0,0:0:0:0:
256,192,13530,5,8,0:0:0:0:
256,192,13583,1,8,0:0:0:0:
256,192,13637,1,8,0:0:0:0:
256,192,13690,1,8,0:0:0:0:
256,192,13744,1,8,0:0:0:0:
256,192,13851,5,0,0:0:0:0:
256,192,13958,5,8,0:0:0:0:
256,192,14065,5,0,0:0:0:0:
256,192,14173,1,0,0:0:0:0:
256,192,14280,5,8,0:0:0:0:
256,192,14387,5,0,0:0:0:0:
256,192,14440,1,0,0:0:0:0:
256,192,14494,1,0,0:0:0:0:
256,192,14548,1,0,0:0:0:0:
256,192,14601,1,0,0:0:0:0:
256,192,14708,5,8,0:0:0:0:
256,192,14815,5,0,0:0:0:0:
256,192,14923,5,12,0:0:0:0:
256,192,15137,1,12,0:0:0:0:
256,192,15351,5,4,0:0:0:0:
256,192,15565,1,4,0:0:0:0:
256,192,15780,5,8,0:0:0:0:
256,192,15887,5,0,0:0:0:0:
256,192,15994,5,8,0:0:0:0:
256,192,16101,5,0,0:0:0:0:
256,192,16155,1,0,0:0:0:0:
256,192,16208,1,0,0:0:0:0:
256,192,16262,1,0,0:0:0:0:
256,192,16315,5,8,0:0:0:0:
256,192,16423,5,0,0:0:0:0:
256,192,16530,1,0,0:0:0:0:
256,192,16637,5,8,0:0:0:0:
256,192,16744,1,8,0:0:0:0:
256,192,16851,5,0,0:0:0:0:
256,192,16958,5,8,0:0:0:0:
256,192,17012,1,8,0:0:0:0:
256,192,17065,1,8,0:0:0:0:
256,192,17119,1,8,0:0:0:0:
256,192,17173,5,0,0:0:0:0:
256,192,17280,5,8,0:0:0:0:
256,192,17387,1,8,0:0:0:0:
256,192,17494,5,0,0:0:0:0:
256,192,17601,1,0,0:0:0:0:
256,192,17708,5,8,0:0:0:0:
256,192,17815,5,0,0:0:0:0:
256,192,17869,1,0,0:0:0:0:
256,192,17923,1,0,0:0:0:0:
256,192,17976,1,0,0:0:0:0:
256,192,18030,5,8,0:0:0:0:
256,192,18137,1,8,0:0:0:0:
256,192,18244,5,0,0:0:0:0:
256,192,18351,5,12,0:0:0:0:
256,192,18565,5,4,0:0:0:0:
256,192,18780,5,12,0:0:0:0:
256,192,18994,1,12,0:0:0:0:
256,192,19208,5,0,0:0:0:0:
256,192,19262,1,0,0:0:0:0:
256,192,19315,5,8,0:0:0:0:
256,192,19369,1,8,0:0:0:0:
256,192,19423,5,0,0:0:0:0:
256,192,19530,5,8,0:0:0:0:
256,192,19637,5,0,0:0:0:0:
256,192,19690,1,0,0:0:0:0:
256,192,19744,1,0,0:0:0:0:
256,192,19851,5,8,0:0:0:0:
256,192,19958,5,0,0:0:0:0:
256,192,20065,5,8,0:0:0:0:
256,192,20119,1,8,0:0:0:0:
256,192,20173,5,0,0:0:0:0:
256,192,20226,1,0,0:0:0:0:
256,192,20280,5,8,0:0:0:0:
256,192,20387,5,0,0:0:0:0:
256,192,20494,5,8,0:0:0:0:
256,192,20548,1,8,0:0:0:0:
256,192,20601,1,8,0:0:0:0:
256,192,20708,5,0,0:0:0:0:
256,192,20815,5,8,0:0:0:0:
256,192,20923,5,0,0:0:0:0:
256,192,20976,1,0,0:0:0:0:
256,192,21030,5,8,0:0:0:0:
256,192,21083,1,8,0:0:0:0:
256,192,21137,5,0,0:0:0:0:
256,192,21244,5,8,0:0:0:0:
256,192,21351,5,0,0:0:0:0:
256,192,21405,1,0,0:0:0:0:
256,192,21458,1,0,0:0:0:0:
256,192,21512,1,0,0:0:0:0:
256,192,21565,5,8,0:0:0:0:
256,192,21673,1,8,0:0:0:0:
256,192,21780,5,4,0:0:0:0:
256,192,21994,1,4,0:0:0:0:
256,192,22208,5,12,0:0:0:0:
256,192,22423,1,12,0:0:0:0:
256,192,22637,5,0,0:0:0:0:
256,192,22744,5,8,0:0:0:0:
256,192,22798,1,8,0:0:0:0:
256,192,22851,5,0,0:0:0:0:
256,192,22958,5,8,0:0:0:0:
256,192,23065,5,0,0:0:0:0:
256,192,23119,1,0,0:0:0:0:
256,192,23173,1,0,0:0:0:0:
256,192,23280,5,8,0:0:0:0:
256,192,23387,5,0,0:0:0:0:
256,192,23494,5,8,0:0:0:0:
256,192,23601,5,0,0:0:0:0:
256,192,23655,1,0,0:0:0:0:
256,192,23708,5,8,0:0:0:0:
256,192,23815,5,0,0:0:0:0:
256,192,23923,5,8,0:0:0:0:
256,192,23976,1,8,0:0:0:0:
256,192,24030,1,8,0:0:0:0:
256,192,24137,5,0,0:0:0:0:
256,192,24244,5,8,0:0:0:0:
256,192,24351,5,0,0:0:0:0:
256,192,24458,5,8,0:0:0:0:
256,192,24512,1,8,0:0:0:0:
256,192,24565,5,0,0:0:0:0:
256,192,24673,1,0,0:0:0:0:
256,192,24726,1,0,0:0:0:0:
256,192,24780,5,8,0:0:0:0:
256,192,24833,1,8,0:0:0:0:
256,192,24887,5,0,0:0:0:0:
256,192,24994,1,0,0:0:0:0:
256,192,25101,5,8,0:0:0:0:
256,192,25208,5,4,0:0:0:0:
256,192,25423,1,0,0:0:0:0:
256,192,25530,1,0,0:0:0:0:
256,192,25583,1,0,0:0:0:0:
256,192,25637,5,8,0:0:0:0:
256,192,25744,5,0,0:0:0:0:
256,192,25851,5,8,0:0:0:0:
256,192,26065,5,4,0:0:0:0:
256,192,26387,1,4,0:0:0:0:
256,192,26708,5,12,0:0:0:0:
256,192,27030,1,12,0:0:0:0:
256,192,27351,5,4,0:0:0:0:
256,192,27565,1,12,0:0:0:0:
256,192,27780,5,4,0:0:0:0:
256,192,28101,1,4,0:0:0:0:
256,192,28423,5,12,0:0:0:0:
256,192,28744,1,12,0:0:0:0:
256,192,29065,5,4,0:0:0:0:
256,192,29494,5,12,0:0:0:0:
256,192,29815,1,12,0:0:0:0:
256,192,30137,5,4,0:0:0:0:
256,192,30458,1,4,0:0:0:0:
256,192,30780,5,12,0:0:0:0:
256,192,30994,5,4,0:0:0:0:
256,192,31208,5,12,0:0:0:0:
256,192,31530,5,12,0:0:0:0:
256,192,31851,5,4,0:0:0:0:
256,192,32173,1,4,0:0:0:0:
256,192,32494,5,12,0:0:0:0:
256,192,32923,5,4,0:0:0:0:
256,192,33244,1,4,0:0:0:0:
256,192,33565,5,12,0:0:0:0:
256,192,33887,5,4,0:0:0:0:
256,192,34208,5,12,0:0:0:0:
256,192,34423,1,12,0:0:0:0:
256,192,34637,5,4,0:0:0:0:
256,192,34958,5,12,0:0:0:0:
256,192,35280,5,4,0:0:0:0:
256,192,35601,5,12,0:0:0:0:
256,192,35923,5,4,0:0:0:0:
256,192,36351,5,12,0:0:0:0:
256,192,36673,1,12,0:0:0:0:
256,192,36994,5,4,0:0:0:0:
256,192,37315,5,12,0:0:0:0:
256,192,37637,5,4,0:0:0:0:
256,192,37851,1,4,0:0:0:0:
256,192,38065,5,12,0:0:0:0:
256,192,38387,5,12,0:0:0:0:
256,192,38708,5,4,0:0:0:0:
256,192,39030,5,12,0:0:0:0:
256,192,39351,1,12,0:0:0:0:
256,192,39780,5,4,0:0:0:0:
256,192,39994,5,8,0:0:0:0:
256,192,40048,1,8,0:0:0:0:
256,192,40101,1,8,0:0:0:0:
256,192,40155,1,8,0:0:0:0:
256,192,40208,5,0,0:0:0:0:
256,192,40315,5,8,0:0:0:0:
256,192,40423,5,0,0:0:0:0:
256,192,40530,5,8,0:0:0:0:
256,192,40583,1,8,0:0:0:0:
256,192,40637,1,8,0:0:0:0:
256,192,40744,5,0,0:0:0:0:
256,192,40851,1,0,0:0:0:0:
256,192,41065,5,8,0:0:0:0:
256,192,41119,1,8,0:0:0:0:
256,192,41173,1,8,0:0:0:0:
256,192,41226,1,8,0:0:0:0:
256,192,41280,5,0,0:0:0:0:
256,192,41387,5,8,0:0:0:0:
256,192,41494,5,0,0:0:0:0:
256,192,41548,1,0,0:0:0:0:
256,192,41601,1,0,0:0:0:0:
256,192,41708,5,8,0:0:0:0:
256,192,41815,1,8,0:0:0:0:
256,192,41923,5,0,0:0:0:0:
256,192,42030,1,0,0:0:0:0:
256,192,42137,5,8,0:0:0:0:
256,192,42244,5,0,0:0:0:0:
256,192,42298,1,0,0:0:0:0:
256,192,42351,1,0,0:0:0:0:
256,192,42405,1,0,0:0:0:0:
256,192,42458,1,0,0:0:0:0:
256,192,42565,5,8,0:0:0:0:
256,192,42673,5,0,0:0:0:0:
256,192,42780,1,0,0:0:0:0:
256,192,42887,5,8,0:0:0:0:
256,192,42994,1,8,0:0:0:0:
256,192,43101,1,8,0:0:0:0:
256,192,43208,5,4,0:0:0:0:
256,192,43423,5,8,0:0:0:0:
256,192,43476,1,8,0:0:0:0:
256,192,43530,1,8,0:0:0:0:
256,192,43583,1,8,0:0:0:0:
256,192,43637,5,0,0:0:0:0:
256,192,43744,5,8,0:0:0:0:
256,192,43851,5,0,0:0:0:0:
256,192,43958,1,0,0:0:0:0:
256,192,44173,1,0,0:0:0:0:
256,192,44280,5,8,0:0:0:0:
256,192,44387,1,8,0:0:0:0:
256,192,44494,5,0,0:0:0:0:
256,192,44548,1,0,0:0:0:0:
256,192,44601,5,8,0:0:0:0:
256,192,44655,1,8,0:0:0:0:
256,192,44708,5,0,0:0:0:0:
256,192,44815,5,8,0:0:0:0:
256,192,44923,5,0,0:0:0:0:
256,192,45030,5,8,0:0:0:0:
256,192,45137,5,0,0:0:0:0:
256,192,45244,1,0,0:0:0:0:
256,192,45351,5,8,0:0:0:0:
256,192,45458,5,0,0:0:0:0:
256,192,45565,5,8,0:0:0:0:
256,192,45673,5,0,0:0:0:0:
256,192,45887,1,4,0:0:0:0:
256,192,46208,1,4,0:0:0:0:
256,192,46423,5,8,0:0:0:0:
256,192,46476,1,8,0:0:0:0:
256,192,46530,1,8,0:0:0:0:
256,192,46583,1,8,0:0:0:0:
256,192,46637,5,0,0:0:0:0:
256,192,46744,1,0,0:0:0:0:
256,192,46851,5,8,0:0:0:0:
256,192,46958,5,0,0:0:0:0:
256,192,47065,5,8,0:0:0:0:
256,192,47119,1,8,0:0:0:0:
256,192,47173,1,8,0:0:0:0:
256,192,47280,5,0,0:0:0:0:
256,192,47387,1,0,0:0:0:0:
256,192,47601,1,0,0:0:0:0:
256,192,47708,5,8,0:0:0:0:
256,192,47762,1,8,0:0:0:0:
256,192,47815,5,0,0:0:0:0:
256,192,47923,5,8,0:0:0:0:
256,192,48030,5,0,0:0:0:0:
256,192,48083,1,0,0:0:0:0:
256,192,48137,5,8,0:0:0:0:
256,192,48244,1,8,0:0:0:0:
256,192,48351,5,0,0:0:0:0:
256,192,48405,1,0,0:0:0:0:
256,192,48458,1,0,0:0:0:0:
256,192,48512,1,0,0:0:0:0:
256,192,48565,5,8,0:0:0:0:
256,192,48673,1,8,0:0:0:0:
256,192,48780,5,0,0:0:0:0:
256,192,48833,1,0,0:0:0:0:
256,192,48887,1,0,0:0:0:0:
256,192,48994,5,8,0:0:0:0:
256,192,49101,5,0,0:0:0:0:
256,192,49155,1,0,0:0:0:0:
256,192,49208,1,0,0:0:0:0:
256,192,49262,1,0,0:0:0:0:
256,192,49315,1,0,0:0:0:0:
256,192,49423,5,8,0:0:0:0:
256,192,49530,5,0,0:0:0:0:
256,192,49637,5,8,0:0:0:0:
256,192,49744,1,8,0:0:0:0:
256,192,49851,1,8,0:0:0:0:
256,192,49905,5,0,0:0:0:0:
256,192,49958,5,8,0:0:0:0:
256,192,50065,5,4,0:0:0:0:
256,192,50280,1,0,0:0:0:0:
256,192,50387,5,8,0:0:0:0:
256,192,50494,5,0,0:0:0:0:
256,192,50548,1,0,0:0:0:0:
256,192,50601,1,0,0:0:0:0:
256,192,50655,1,0,0:0:0:0:
256,192,50708,5,8,0:0:0:0:
256,192,50815,1,8,0:0:0:0:
256,192,51030,5,0,0:0:0:0:
256,192,51137,5,8,0:0:0:0:
256,192,51190,1,8,0:0:0:0:
256,192,51244,1,8,0:0:0:0:
256,192,51351,5,0,0:0:0:0:
256,192,51458,1,0,0:0:0:0:
256,192,51565,5,8,0:0:0:0:
256,192,51619,1,8,0:0:0:0:
256,192,51673,1,8,0:0:0:0:
256,192,51726,1,8,0:0:0:0:
256,192,51780,5,0,0:0:0:0:
256,192,51887,1,0,0:0:0:0:
256,192,51994,5,8,0:0:0:0:
256,192,52208,5,0,0:0:0:0:
256,192,52262,1,0,0:0:0:0:
256,192,52315,1,0,0:0:0:0:
256,192,52369,1,0,0:0:0:0:
256,192,52423,5,8,0:0:0:0:
256,192,52530,5,0,0:0:0:0:
256,192,52744,5,12,0:0:0:0:
256,192,53065,5,0,0:0:0:0:
256,192,53173,1,0,0:0:0:0:
256,192,53280,5,8,0:0:0:0:
256,192,53387,1,8,0:0:0:0:
256,192,53708,5,4,0:0:0:0:
256,192,53923,5,8,0:0:0:0:
256,192,53976,1,8,0:0:0:0:
256,192,54030,1,8,0:0:0:0:
256,192,54083,1,8,0:0:0:0:
256,192,54137,5,0,0:0:0:0:
256,192,54244,5,8,0:0:0:0:
256,192,54458,1,8,0:0:0:0:
256,192,54565,5,0,0:0:0:0:
256,192,54780,1,0,0:0:0:0:
256,192,54887,5,8,0:0:0:0:
256,192,54994,5,0,0:0:0:0:
256,192,55208,1,0,0:0:0:0:
256,192,55262,1,0,0:0:0:0:
256,192,55315,1,0,0:0:0:0:
256,192,55423,5,8,0:0:0:0:
256,192,55530,1,8,0:0:0:0:
256,192,55637,5,0,0:0:0:0:
256,192,55744,1,0,0:0:0:0:
256,192,55851,5,8,0:0:0:0:
256,192,55958,1,8,0:0:0:0:
256,192,56065,5,0,0:0:0:0:
256,192,56173,1,0,0:0:0:0:
256,192,56280,5,8,0:0:0:0:
256,192,56387,1,8,0:0:0:0:
256,192,56494,5,4,0:0:0:0:
256,192,56708,1,4,0:0:0:0:
256,192,56923,1,0,0:0:0:0:
256,192,56976,1,0,0:0:0:0:
256,192,57030,1,0,0:0:0:0:
256,192,57083,1,0,0:0:0:0:
256,192,57137,5,8,0:0:0:0:
256,192,57351,5,0,0:0:0:0:
256,192,57458,1,0,0:0:0:0:
256,192,57565,5,8,0:0:0:0:
256,192,57673,1,8,0:0:0:0:
256,192,57780,5,0,0:0:0:0:
256,192,57833,1,0,0:0:0:0:
256,192,57887,1,0,0:0:0:0:
256,192,57994,5,8,0:0:0:0:
256,192,58101,5,0,0:0:0:0:
256,192,58155,1,0,0:0:0:0:
256,192,58208,1,0,0:0:0:0:
256,192,58315,5,8,0:0:0:0:
256,192,58423,1,8,0:0:0:0:
256,192,58637,5,0,0:0:0:0:
256,192,58690,1,0,0:0:0:0:
256,192,58744,1,0,0:0:0:0:
256,192,58798,1,0,0:0:0:0:
256,192,58851,5,8,0:0:0:0:
256,192,58958,5,0,0:0:0:0:
256,192,59065,5,8,0:0:0:0:
256,192,59173,5,0,0:0:0:0:
256,192,59280,5,8,0:0:0:0:
256,192,59387,1,8,0:0:0:0:
256,192,59494,5,0,0:0:0:0:
256,192,59601,5,8,0:0:0:0:
256,192,59708,5,0,0:0:0:0:
256,192,59815,5,8,0:0:0:0:
256,192,59923,5,0,0:0:0:0:
256,192,60030,5,8,0:0:0:0:
256,192,60137,5,0,0:0:0:0:
256,192,60565,5,8,0:0:0:0:
256,192,60780,5,0,0:0:0:0:
256,192,60833,1,0,0:0:0:0:
256,192,60887,1,0,0:0:0:0:
256,192,60940,1,0,0:0:0:0:
256,192,60994,5,8,0:0:0:0:
256,192,61101,1,8,0:0:0:0:
256,192,61315,1,8,0:0:0:0:
256,192,61423,5,0,0:0:0:0:
256,192,61530,1,0,0:0:0:0:
256,192,61637,5,8,0:0:0:0:
256,192,61690,1,8,0:0:0:0:
256,192,61744,5,0,0:0:0:0:
256,192,61798,1,0,0:0:0:0:
256,192,61851,5,8,0:0:0:0:
256,192,61958,1,8,0:0:0:0:
256,192,62065,5,0,0:0:0:0:
256,192,62173,1,0,0:0:0:0:
256,192,62226,1,0,0:0:0:0:
256,192,62280,5,8,0:0:0:0:
256,192,62387,5,0,0:0:0:0:
256,192,62494,5,8,0:0:0:0:
256,192,62601,5,0,0:0:0:0:
256,192,62655,1,0,0:0:0:0:
256,192,62708,5,8,0:0:0:0:
256,192,62815,5,0,0:0:0:0:
256,192,62923,5,8,0:0:0:0:
256,192,63030,5,0,0:0:0:0:
256,192,63137,5,8,0:0:0:0:
256,192,63244,5,0,0:0:0:0:
256,192,63351,5,8,0:0:0:0:
256,192,63405,1,8,0:0:0:0:
256,192,63458,5,0,0:0:0:0:
256,192,63512,1,0,0:0:0:0:
256,192,63565,5,8,0:0:0:0:
256,192,63673,1,8,0:0:0:0:
256,192,63780,5,0,0:0:0:0:
256,192,63994,5,12,0:0:0:0:
256,192,64208,5,0,0:0:0:0:
256,192,64315,1,0,0:0:0:0:
256,192,64423,5,8,0:0:0:0:
256,192,64530,5,0,0:0:0:0:
256,192,64637,5,8,0:0:0:0:
256,192,64690,1,8,0:0:0:0:
256,192,64744,1,8,0:0:0:0:
256,192,64798,1,8,0:0:0:0:
256,192,64851,5,0,0:0:0:0:
256,192,64958,5,8,0:0:0:0:
256,192,65012,1,8,0:0:0:0:
256,192,65065,1,8,0:0:0:0:
256,192,65173,5,0,0:0:0:0:
256,192,65280,5,8,0:0:0:0:
256,192,65387,1,8,0:0:0:0:
256,192,65494,5,4,0:0:0:0:
256,192,65815,1,4,0:0:0:0:
256,192,66137,1,4,0:0:0:0:
256,192,66458,1,4,0:0:0:0:
256,192,66780,1,4,0:0:0:0:
256,192,66994,1,4,0:0:0:0:
256,192,67208,1,0,0:0:0:0:
256,192,67262,1,0,0:0:0:0:
256,192,67315,1,0,0:0:0:0:
256,192,67423,5,8,0:0:0:0:
256,192,67476,1,8,0:0:0:0:
256,192,67530,1,8,0:0:0:0:
256,192,67637,5,0,0:0:0:0:
256,192,67744,1,0,0:0:0:0:
256,192,67851,5,8,0:0:0:0:
256,192,67905,1,8,0:0:0:0:
256,192,67958,1,8,0:0:0:0:
256,192,68012,1,8,0:0:0:0:
256,192,68065,5,0,0:0:0:0:
256,192,68173,1,0,0:0:0:0:
256,192,68280,5,8,0:0:0:0:
256,192,68387,5,0,0:0:0:0:
256,192,68601,1,0,0:0:0:0:
256,192,68708,5,8,0:0:0:0:
256,192,68762,5,0,0:0:0:0:
256,192,68815,5,8,0:0:0:0:
256,192,68923,5,0,0:0:0:0:
256,192,69137,5,8,0:0:0:0:
256,192,69244,5,0,0:0:0:0:
256,192,69458,1,0,0:0:0:0:
256,192,69565,5,8,0:0:0:0:
256,192,69619,1,8,0:0:0:0:
256,192,69673,1,8,0:0:0:0:
256,192,69726,1,8,0:0:0:0:
256,192,69780,5,0,0:0:0:0:
256,192,69887,1,0,0:0:0:0:
256,192,69994,5,8,0:0:0:0:
256,192,70101,5,0,0:0:0:0:
256,192,70208,5,8,0:0:0:0:
256,192,70262,1,8,0:0:0:0:
256,192,70315,1,8,0:0:0:0:
256,192,70423,5,0,0:0:0:0:
256,192,70530,5,8,0:0:0:0:
256,192,70637,5,0,0:0:0:0:
256,192,70690,1,0,0:0:0:0:
256,192,70744,1,0,0:0:0:0:
256,192,70851,5,8,0:0:0:0:
256,192,70958,1,8,0:0:0:0:
256,192,71065,5,0,0:0:0:0:
256,192,71119,1,0,0:0:0:0:
256,192,71173,1,0,0:0:0:0:
256,192,71280,5,8,0:0:0:0:
256,192,71387,1,8,0:0:0:0:
256,192,71494,5,0,0:0:0:0:
256,192,71601,5,8,0:0:0:0:
256,192,71655,1,8,0:0:0:0:
256,192,71708,5,0,0:0:0:0:
256,192,71815,5,8,0:0:0:0:
256,192,71923,5,0,0:0:0:0:
256,192,71976,1,0,0:0:0:0:
256,192,72030,1,0,0:0:0:0:
256,192,72083,1,0,0:0:0:0:
256,192,72137,5,8,0:0:0:0:
256,192,72244,1,8,0:0:0:0:
256,192,72351,5,0,0:0:0:0:
256,192,72565,5,8,0:0:0:0:
256,192,72673,1,8,0:0:0:0:
256,192,72780,5,0,0:0:0:0:
256,192,72887,1,0,0:0:0:0:
256,192,72994,5,8,0:0:0:0:
256,192,73101,5,0,0:0:0:0:
256,192,73315,1,0,0:0:0:0:
256,192,73369,1,0,0:0:0:0:
256,192,73423,5,8,0:0:0:0:
256,192,73530,1,8,0:0:0:0:
256,192,73637,5,0,0:0:0:0:
256,192,73690,1,0,0:0:0:0:
256,192,73744,1,0,0:0:0:0:
256,192,73798,1,0,0:0:0:0:
256,192,73851,5,8,0:0:0:0:
256,192,73905,1,8,0:0:0:0:
256,192,73958,1,8,0:0:0:0:
256,192,74012,1,8,0:0:0:0:
256,192,74065,5,0,0:0:0:0:
256,192,74280,5,8,0:0:0:0:
256,192,74387,1,8,0:0:0:0:
256,192,74494,5,0,0:0:0:0:
256,192,74708,5,8,0:0:0:0:
256,192,74815,5,0,0:0:0:0:
256,192,75030,1,0,0:0:0:0:
256,192,75137,5,8,0:0:0:0:
256,192,75244,5,0,0:0:0:0:
256,192,75351,5,8,0:0:0:0:
256,192,75405,5,0,0:0:0:0:
256,192,75458,5,8,0:0:0:0:
256,192,75565,5,0,0:0:0:0:
256,192,75673,1,0,0:0:0:0:
256,192,75780,5,8,0:0:0:0:
256,192,75833,1,8,0:0:0:0:
256,192,75887,1,8,0:0:0:0:
256,192,75940,1,8,0:0:0:0:
256,192,75994,5,0,0:0:0:0:
256,192,76101,1,0,0:0:0:0:
256,192,76315,1,0,0:0:0:0:
256,192,76423,1,0,0:0:0:0:
256,192,76530,1,0,0:0:0:0:
256,192,76637,5,8,0:0:0:0:
256,192,76690,1,8,0:0:0:0:
256,192,76744,1,8,0:0:0:0:
256,192,76851,5,0,0:0:0:0:
256,192,76958,5,8,0:0:0:0:
256,192,77012,1,8,0:0:0:0:
256,192,77065,1,8,0:0:0:0:
256,192,77119,1,8,0:0:0:0:
256,192,77173,5,0,0:0:0:0:
256,192,77280,5,8,0:0:0:0:
256,192,77494,5,0,0:0:0:0:
256,192,77601,1,0,0:0:0:0:
256,192,77708,5,8,0:0:0:0:
256,192,77815,1,8,0:0:0:0:
256,192,77923,5,0,0:0:0:0:
256,192,78030,1,0,0:0:0:0:
256,192,78137,5,8,0:0:0:0:
256,192,78244,1,8,0:0:0:0:
256,192,78351,5,0,0:0:0:0:
256,192,78405,1,0,0:0:0:0:
256,192,78458,1,0,0:0:0:0:
256,192,78512,1,0,0:0:0:0:
256,192,78565,5,8,0:0:0:0:
256,192,78619,1,8,0:0:0:0:
256,192,78673,1,8,0:0:0:0:
256,192,78726,1,8,0:0:0:0:
256,192,78780,5,0,0:0:0:0:
256,192,78887,1,0,0:0:0:0:
256,192,78994,1,0,0:0:0:0:
256,192,79208,5,12,0:0:0:0:
256,192,79530,5,4,0:0:0:0:
256,192,79851,1,4,0:0:0:0:
256,192,80065,5,12,0:0:0:0:
256,192,80387,1,12,0:0:0:0:
256,192,80708,1,12,0:0:0:0:
256,192,80923,5,0,0:0:0:0:
256,192,81030,5,8,0:0:0:0:
256,192,81137,5,0,0:0:0:0:
256,192,81244,5,8,0:0:0:0:
256,192,81351,5,0,0:0:0:0:
256,192,81458,5,8,0:0:0:0:
256,192,81565,5,0,0:0:0:0:
256,192,81673,5,8,0:0:0:0:
256,192,81780,5,0,0:0:0:0:
256,192,81887,5,8,0:0:0:0:
256,192,81994,5,0,0:0:0:0:
256,192,82101,5,8,0:0:0:0:
256,192,82208,5,0,0:0:0:0:
256,192,82315,5,8,0:0:0:0:
256,192,82422,5,0,0:0:0:0:
256,192,82530,5,8,0:0:0:0:
256,192,82637,5,0,0:0:0:0:
256,192,82744,5,8,0:0:0:0:
256,192,82798,1,8,0:0:0:0:
256,192,82851,5,0,0:0:0:0:
256,192,82958,5,8,0:0:0:0:
256,192,83065,5,0,0:0:0:0:
256,192,83119,1,0,0:0:0:0:
256,192,83172,5,8,0:0:0:0:
256,192,83279,5,0,0:0:0:0:
256,192,83387,5,8,0:0:0:0:
256,192,83494,5,0,0:0:0:0:
256,192,83548,1,0,0:0:0:0:
256,192,83601,5,8,0:0:0:0:
256,192,83655,1,8,0:0:0:0:
256,192,83708,5,0,0:0:0:0:
256,192,83815,5,8,0:0:0:0:
256,192,83923,1,8,0:0:0:0:
256,192,84030,1,8,0:0:0:0:
256,192,84137,1,8,0:0:0:0:
256,192,84351,5,0,0:0:0:0:
256,192,84458,5,8,0:0:0:0:
256,192,84565,5,0,0:0:0:0:
256,192,84672,5,8,0:0:0:0:
256,192,84779,5,0,0:0:0:0:
256,192,84886,5,8,0:0:0:0:
256,192,84993,5,0,0:0:0:0:
256,192,85101,5,8,0:0:0:0:
256,192,85208,5,0,0:0:0:0:
256,192,85315,5,8,0:0:0:0:
256,192,85422,5,0,0:0:0:0:
256,192,85529,5,8,0:0:0:0:
256,192,85636,5,0,0:0:0:0:
256,192,85743,5,8,0:0:0:0:
256,192,85850,5,0,0:0:0:0:
256,192,85958,5,8,0:0:0:0:
256,192,86065,5,0,0:0:0:0:
256,192,86173,5,8,0:0:0:0:
256,192,86226,1,8,0:0:0:0:
256,192,86280,5,0,0:0:0:0:
256,192,86387,5,8,0:0:0:0:
256,192,86494,5,0,0:0:0:0:
256,192,86548,5,8,0:0:0:0:
256,192,86655,1,8,0:0:0:0:
256,192,86708,5,0,0:0:0:0:
256,192,86815,5,8,0:0:0:0:
256,192,86923,5,0,0:0:0:0:
256,192,86976,1,0,0:0:0:0:
256,192,87030,1,0,0:0:0:0:
256,192,87083,1,0,0:0:0:0:
256,192,87137,5,8,0:0:0:0:
256,192,87244,1,8,0:0:0:0:
256,192,87458,1,8,0:0:0:0:
256,192,87565,1,8,0:0:0:0:
256,192,87673,1,8,0:0:0:0:
256,192,87780,5,0,0:0:0:0:
256,192,87887,5,8,0:0:0:0:
256,192,87940,1,8,0:0:0:0:
256,192,87994,5,0,0:0:0:0:
256,192,88101,5,8,0:0:0:0:
256,192,88208,5,0,0:0:0:0:
256,192,88315,5,8,0:0:0:0:
256,192,88369,1,8,0:0:0:0:
256,192,88423,5,0,0:0:0:0:
256,192,88476,1,0,0:0:0:0:
256,192,88530,5,8,0:0:0:0:
256,192,88637,5,0,0:0:0:0:
256,192,88744,5,8,0:0:0:0:
256,192,88798,1,8,0:0:0:0:
256,192,88851,5,0,0:0:0:0:
256,192,88958,5,8,0:0:0:0:
256,192,89065,5,0,0:0:0:0:
256,192,89119,1,0,0:0:0:0:
256,192,89173,5,8,0:0:0:0:
256,192,89226,1,8,0:0:0:0:
256,192,89280,5,0,0:0:0:0:
256,192,89387,5,8,0:0:0:0:
256,192,89494,5,0,0:0:0:0:
256,192,89601,5,8,0:0:0:0:
256,192,89655,1,8,0:0:0:0:
256,192,89708,5,0,0:0:0:0:
256,192,89815,5,8,0:0:0:0:
256,192,89923,5,0,0:0:0:0:
256,192,89976,1,0,0:0:0:0:
256,192,90030,5,8,0:0:0:0:
256,192,90137,5,0,0:0:0:0:
256,192,90244,5,8,0:0:0:0:
256,192,90298,1,8,0:0:0:0:
256,192,90351,5,0,0:0:0:0:
256,192,90565,1,0,0:0:0:0:
256,192,90673,5,8,0:0:0:0:
256,192,90887,1,8,0:0:0:0:
256,192,90994,1,8,0:0:0:0:
256,192,91101,1,8,0:0:0:0:
256,192,91208,5,0,0:0:0:0:
256,192,91262,1,0,0:0:0:0:
256,192,91315,1,0,0:0:0:0:
256,192,91423,5,8,0:0:0:0:
256,192,91530,5,0,0:0:0:0:
256,192,91583,1,0,0:0:0:0:
256,192,91637,1,0,0:0:0:0:
256,192,91690,1,0,0:0:0:0:
256,192,91744,5,8,0:0:0:0:
256,192,91851,1,8,0:0:0:0:
256,192,91958,1,8,0:0:0:0:
256,192,92065,5,0,0:0:0:0:
256,192,92119,1,0,0:0:0:0:
256,192,92173,1,0,0:0:0:0:
256,192,92280,5,8,0:0:0:0:
256,192,92387,5,0,0:0:0:0:
256,192,92440,1,0,0:0:0:0:
256,192,92494,5,8,0:0:0:0:
256,192,92601,1,8,0:0:0:0:
256,192,92708,5,0,0:0:0:0:
256,192,92815,5,8,0:0:0:0:
256,192,92923,5,0,0:0:0:0:
256,192,92976,1,0,0:0:0:0:
256,192,93030,1,0,0:0:0:0:
256,192,93137,5,8,0:0:0:0:
256,192,93244,5,0,0:0:0:0:
256,192,93298,1,0,0:0:0:0:
256,192,93351,1,0,0:0:0:0:
256,192,93405,1,0,0:0:0:0:
256,192,93458,5,8,0:0:0:0:
256,192,93565,1,8,0:0:0:0:
256,192,93673,1,8,0:0:0:0:
256,192,93780,5,4,0:0:0:0:
256,192,94101,5,12,0:0:0:0:
