osu file format v12

[General]
AudioFilename: Kyouki Chinden.mp3
AudioLeadIn: 0
PreviewTime: 66780
Countdown: 0
SampleSet: Soft
StackLeniency: 0.7
Mode: 0
LetterboxInBreaks: 0
WidescreenStoryboard: 0

[Editor]
DistanceSpacing: 0.7
BeatDivisor: 2
GridSize: 4

[Metadata]
Title:Kyouki Chinden (TV Size)
TitleUnicode:狂気沈殿 (TV Size)
Artist:Yousei Teikoku
ArtistUnicode:妖精帝國
Creator:Saten
Version:Lunaticy
Source:Mirai Nikki
Tags:Saten-san alternative opening satona kurousagi OnosakiHito
BeatmapID:178506
BeatmapSetID:59025

[Difficulty]
HPDrainRate:5
CircleSize:4
OverallDifficulty:8
ApproachRate:9
SliderMultiplier:1.8
SliderTickRate:2

[Events]
//Background and Video events
Video,1346,"sexy.avi"
0,0,"Nikki.png",0,0
//Break Periods
//Storyboard Layer 0 (Background)
//Storyboard Layer 1 (Fail)
//Storyboard Layer 2 (Pass)
//Storyboard Layer 3 (Foreground)
//Storyboard Sound Samples
//Background Colour Transformations
3,100,0,0,0

[TimingPoints]
2066,214.285714285714,4,2,1,80,1,0
10637,-100,4,2,1,60,0,0
12351,-100,4,2,1,80,0,0
67208,-100,4,2,1,80,0,1
79208,-100,4,2,1,80,0,0
80923,-100,4,2,1,80,0,1
93780,-100,4,2,1,80,0,0
94208,-100,4,2,1,5,0,0

[Colours]
Combo1 : 255,255,45
Combo2 : 255,159,64
Combo3 : 83,169,255
Combo4 : 255,83,255

[HitObjects]
208,148,2066,2,0,B|300:148,1,90
304,236,2280,2,0,B|212:236,1,90
204,144,2494,6,0,B|296:144,1,90
308,240,2708,2,0,B|216:240,1,90
200,140,2923,6,0,B|292:140,1,90
312,244,3137,2,0,B|220:244,1,90
196,136,3351,6,0,B|288:136,1,90
316,248,3565,2,0,B|224:248,1,90
192,132,3780,6,0,B|284:132,1,90
320,252,3994,2,0,B|228:252,1,90
188,128,4208,6,0,B|280:128,1,90
324,256,4423,2,0,B|232:256,1,90
148,232,4637,5,0,0:0:0:0:
92,160,4744,2,0,B|72:116|80:60|128:32|172:24,1,180,12|0,0:0|0:0,0:0:0:0:
420,160,5065,2,0,B|440:116|432:60|384:32|340:24,1,180,0|8,0:0|0:0,0:0:0:0:
256,352,5494,5,4,0:0:0:0:
336,316,5601,1,0,0:0:0:0:
364,232,5708,1,8,0:0:0:0:
336,148,5815,1,0,0:0:0:0:
256,104,5923,2,0,B|172:136,1,90
172,224,6137,2,0,B|256:192,1,90,8|0,0:0|0:0,0:0:0:0:
256,280,6351,5,0,0:0:0:0:
174,311,6458,1,0,0:0:0:0:
95,271,6565,1,8,0:0:0:0:
56,192,6672,1,0,0:0:0:0:
81,104,6780,2,0,B|163:67,1,90
431,104,6994,2,0,B|348:67,1,90,8|0,0:0|0:0,0:0:0:0:
256,104,7208,6,0,B|184:160,1,90
244,228,7423,2,0,B|316:172,1,90,8|0,0:0|0:0,0:0:0:0:
368,244,7637,2,0,B|296:300,1,90
356,364,7851,2,0,B|428:308,1,90,8|0,0:0|0:0,0:0:0:0:
452,220,8065,6,0,B|408:140,1,90
320,148,8280,2,0,B|296:236,1,90,8|0,0:0|0:0,0:0:0:0:
60,220,8494,2,0,B|104:140,1,90
192,148,8709,2,0,B|216:236,1,90,8|0,0:0|0:0,0:0:0:0:
256,316,8923,5,4,0:0:0:0:
344,320,9030,1,0,0:0:0:0:
404,252,9137,1,8,0:0:0:0:
396,164,9244,1,0,0:0:0:0:
320,116,9351,2,0,B|272:120|240:152,1,90
156,120,9565,2,0,B|155:74|187:37,1,90,8|0,0:0|0:0,0:0:0:0:
280,36,9780,5,0,0:0:0:0:
320,116,9887,1,0,0:0:0:0:
280,196,9994,1,8,0:0:0:0:
192,212,10101,1,0,0:0:0:0:
108,184,10208,2,0,B|68:152|64:108,1,90
156,120,10423,2,0,B|189:148|240:142,1,90,8|0,0:0|0:0,0:0:0:0:
256,232,10637,6,6,B|256:256,63,22.5,0|0|0|0|0|0|0|0|8|0|0|0|0|0|0|0|0|0|0|0|0|0|0|0|8|0|0|0|0|0|0|0|0|0|0|0|12|0|0|0|0|0|0|0|0|0|0|0|8|0|0|0|8|0|0|0|8|0|0|0|8|0|0|0,0:0|0:0|0:0|0:0|0:0|0:0|0:0|0:0|0:0|0:0|0:0|0:0|0:0|0:0|0:0|0:0|0:0|0:0|0:0|0:0|0:0|0:0|0:0|0:0|0:0|0:0|0:0|0:0|0:0|0:0|0:0|0:0|0:0|0:0|0:0|0:0|0:0|0:0|0:0|0:0|0:0|0:0|0:0|0:0|0:0|0:0|0:0|0:0|0:0|0:0|0:0|0:0|0:0|0:0|0:0|0:0|0:0|0:0|0:0|0:0|0:0|0:0|0:0|0:0,0:0:0:0:
256,254,12351,6,0,B|296:272|344:264,1,90,4|0,0:0|0:0,0:0:0:0:
340,176,12565,2,0,B|300:158|252:166,1,90,8|0,0:0|0:0,0:0:0:0:
176,220,12780,1,0,0:0:0:0:
184,308,12887,1,0,0:0:0:0:
264,348,12994,2,0,B|356:352|356:352|436:316,1,180,8|0,0:0|0:0,0:0:0:0:
496,248,13315,5,0,0:0:0:0:
484,160,13423,1,8,0:0:0:0:
404,116,13530,1,0,0:0:0:0:
316,132,13637,2,0,B|276:152|260:200,1,90
320,268,13851,2,0,B|360:248|376:200,1,90,8|0,0:0|0:0,0:0:0:0:
404,116,14065,5,0,0:0:0:0:
344,48,14173,1,0,0:0:0:0:
256,32,14280,2,0,B|168:32,1,90,8|0,0:0|0:0,0:0:0:0:
128,112,14494,2,0,B|216:112,1,90
256,192,14708,6,0,B|76:192,2,180,8|0|8,0:0|0:0|0:0,0:0:0:0:
312,260,15244,1,0,0:0:0:0:
288,348,15351,2,0,B|240:344|208:312,1,90
40,348,15565,2,0,B|88:344|120:312,1,90,8|0,0:0|0:0,0:0:0:0:
164,232,15780,6,0,B|124:200|76:196|28:216|8:256,1,180,4|8,0:0|0:0,0:0:0:0:
56,332,16101,1,0,0:0:0:0:
144,352,16208,2,0,B|220:304,1,90
368,352,16423,2,0,B|292:304,1,90,8|0,0:0|0:0,0:0:0:0:
256,220,16637,5,0,0:0:0:0:
288,136,16744,1,0,0:0:0:0:
376,116,16851,2,0,B|460:144,1,90,8|0,0:0|0:0,0:0:0:0:
432,228,17065,2,0,B|348:200,1,90
256,220,17280,1,8,0:0:0:0:
188,280,17387,1,0,0:0:0:0:
224,364,17494,6,0,B|312:348|312:348|380:288,1,180,0|8,0:0|0:0,0:0:0:0:
352,204,17815,1,0,0:0:0:0:
288,136,17923,2,0,B|200:120,1,90
168,204,18137,2,0,B|256:220,1,90,8|0,0:0|0:0,0:0:0:0:
224,304,18351,6,0,B|136:316|136:316|48:288,1,180,12|12,0:0|0:0,0:0:0:0:
280,192,18780,2,0,B|368:204|368:204|456:176,1,180,12|12,0:0|0:0,0:0:0:0:
224,80,19208,6,0,B|136:92|136:92|48:64,1,180,4|8,0:0|0:0,0:0:0:0:
8,144,19530,1,0,0:0:0:0:
60,216,19637,2,0,B|104:228|148:208,1,90
156,296,19851,2,0,B|112:316|68:304,1,90,8|0,0:0|0:0,0:0:0:0:
60,216,20065,6,0,B|116:144|116:144|200:120,1,180,0|8,0:0|0:0,0:0:0:0:
256,192,20387,1,0,0:0:0:0:
304,268,20494,2,0,B|348:284|392:272,1,90
376,360,20708,2,0,B|331:372|287:356,1,90,8|0,0:0|0:0,0:0:0:0:
304,268,20923,6,0,B|360:196|360:196|444:172,1,180,0|8,0:0|0:0,0:0:0:0:
496,244,21244,1,0,0:0:0:0:
460,324,21351,1,0,0:0:0:0:
376,360,21458,1,0,0:0:0:0:
288,348,21565,1,8,0:0:0:0:
216,296,21673,1,0,0:0:0:0:
196,208,21780,6,0,B|160:180|108:172|64:196|40:236,1,180,0|8,0:0|0:0,0:0:0:0:
316,160,22208,2,0,B|352:132|404:124|448:148|472:188,1,180,0|8,0:0|0:0,0:0:0:0:
196,112,22637,6,0,B|160:84|108:76|64:100|40:140,1,180,4|8,0:0|0:0,0:0:0:0:
24,228,22958,1,0,0:0:0:0:
88,292,23065,1,0,0:0:0:0:
180,300,23173,1,0,0:0:0:0:
256,252,23280,2,0,B|256:72,2,180,8|0|8,0:0|0:0|0:0,0:0:0:0:
332,300,23815,5,0,0:0:0:0:
424,292,23923,1,0,0:0:0:0:
488,228,24030,1,0,0:0:0:0:
472,140,24137,2,0,B|448:100|404:76|352:84|316:112,1,180,8|0,0:0|0:0,0:0:0:0:
256,180,24458,5,0,0:0:0:0:
176,220,24565,1,8,0:0:0:0:
88,196,24673,1,0,0:0:0:0:
32,128,24780,2,0,B|36:80|72:48,1,90
180,60,24994,2,0,B|145:90|141:138,1,90,8|0,0:0|0:0,0:0:0:0:
256,180,25208,6,0,B|256:92,1,90,12|0,0:0|0:0,0:0:0:0:
340,52,25423,1,0,0:0:0:0:
340,52,25494,1,0,0:0:0:0:
340,52,25565,1,0,0:0:0:0:
340,52,25637,2,0,B|396:124|396:124|396:216,1,180,12|8,0:0|0:0,0:0:0:0:
344,284,25958,1,0,0:0:0:0:
256,308,26065,6,0,B|196:308|176:272|156:236|96:236,1,180,4|8,0:0|0:0,0:0:0:0:
96,148,26387,2,0,B|156:148|176:112|196:76|256:76,1,180
324,132,26708,5,8,0:0:0:0:
320,220,26815,1,0,0:0:0:0:
248,276,26923,2,0,B|196:268|172:232,1,90
124,308,27137,2,0,B|148:344|200:352,1,90,8|0,0:0|0:0,0:0:0:0:
288,356,27351,5,0,0:0:0:0:
368,312,27458,1,0,0:0:0:0:
396,228,27565,2,0,B|396:168|396:168|364:116|364:116|364:56,1,180,8|0,0:0|0:0,0:0:0:0:
452,36,27887,5,0,0:0:0:0:
500,112,27994,1,8,0:0:0:0:
480,200,28101,1,0,0:0:0:0:
396,228,28208,2,0,B|312:192,1,90
116,228,28423,2,0,B|200:192,1,90,8|0,0:0|0:0,0:0:0:0:
412,220,28637,2,0,B|328:184,1,90
100,220,28851,2,0,B|184:184,1,90,8|0,0:0|0:0,0:0:0:0:
256,236,29065,5,0,0:0:0:0:
236,324,29173,1,0,0:0:0:0:
148,344,29280,2,0,B|96:352|52:332|28:292|32:244,2,180,8|0|8,0:0|0:0|0:0,0:0:0:0:
236,328,29815,5,0,0:0:0:0:
260,240,29923,2,0,B|260:152,1,90
172,124,30137,2,0,B|172:212,1,90,8|0,0:0|0:0,0:0:0:0:
84,192,30351,2,0,B|84:104,1,90
144,36,30565,5,8,0:0:0:0:
368,36,30780,1,0,0:0:0:0:
256,232,30994,1,8,0:0:0:0:
144,36,31208,6,0,B|84:104|84:104|84:192,1,180,0|8,0:0|0:0,0:0:0:0:
340,168,31530,2,0,B|256:136|256:136|172:168,1,180
428,193,31851,2,0,B|428:104|428:104|368:36,1,180,8|0,0:0|0:0,0:0:0:0:
280,48,32173,5,0,0:0:0:0:
256,136,32280,2,0,B|256:228,1,90,12|0,0:0|0:0,0:0:0:0:
340,258,32494,2,0,B|340:168,1,90,12|0,0:0|0:0,0:0:0:0:
172,168,32708,2,0,B|172:258,1,90,8|0,0:0|0:0,0:0:0:0:
256,288,32923,6,0,B|340:258|340:258|388:180,1,180,4|8,0:0|0:0,0:0:0:0:
256,232,33244,2,0,B|172:202|172:202|124:124,1,180
256,176,33565,2,0,B|340:146|340:146|388:68,1,180,8|0,0:0|0:0,0:0:0:0:
304,32,33887,5,0,0:0:0:0:
220,64,33994,2,0,B|192:148,1,90,8|0,0:0|0:0,0:0:0:0:
100,144,34208,2,0,B|128:60,1,90
36,60,34423,6,0,B|8:144|8:144|28:232,2,180,8|0|8,0:0|0:0|0:0,0:0:0:0:
128,60,34958,2,0,B|100:144|100:144|120:232,1,180
212,237,35280,2,0,B|192:148|192:148|220:64,1,180,8|0,0:0|0:0,0:0:0:0:
304,32,35601,5,0,0:0:0:0:
388,68,35708,1,8,0:0:0:0:
400,156,35815,1,0,0:0:0:0:
364,240,35923,2,0,B|316:232|296:184,1,90
148,240,36137,2,0,B|196:232|216:184,1,90,8|0,0:0|0:0,0:0:0:0:
256,268,36351,6,0,B|251:316|209:347|157:355|115:325,1,180,0|8,0:0|0:0,0:0:0:0:
88,101,36673,2,0,B|60:141|68:193|99:235|148:240,1,180
314,72,36994,2,0,B|274:44|222:52|180:83|176:132,1,180,8|0,0:0|0:0,0:0:0:0:
188,220,37315,5,0,0:0:0:0:
264,272,37423,1,8,0:0:0:0:
352,256,37530,1,0,0:0:0:0:
396,176,37637,1,0,0:0:0:0:
116,176,37851,1,8,0:0:0:0:
256,24,38065,6,0,B|324:84|324:84|344:172,1,180,0|8,0:0|0:0,0:0:0:0:
256,336,38387,2,0,B|256:156,1,180
256,24,38708,2,0,B|188:84|188:84|168:172,1,180,8|12,0:0|0:0,0:0:0:0:
343,212,39137,5,12,0:0:0:0:
142,117,39351,1,12,0:0:0:0:
369,266,39565,1,8,0:0:0:0:
256,192,39780,6,0,B|264:144|304:112|356:104|396:124,1,180,4|8,0:0|0:0,0:0:0:0:
440,204,40101,1,0,0:0:0:0:
424,292,40208,2,0,B|380:332|340:308|300:284|256:324,1,180,0|8,0:0|0:0,0:0:0:0:
256,232,40530,5,0,0:0:0:0:
256,144,40637,2,0,B|211:103|171:127|131:151|87:111,1,180,0|8,0:0|0:0,0:0:0:0:
112,24,40958,1,0,0:0:0:0:
200,12,41065,2,0,B|280:56,1,90
256,144,41280,6,0,B|98:57,1,180,8|0,0:0|0:0,0:0:0:0:
121,349,41708,1,8,0:0:0:0:
413,326,41923,1,0,0:0:0:0:
390,34,42137,1,8,0:0:0:0:
308,68,42244,1,0,0:0:0:0:
256,144,42351,6,0,B|165:160|165:160|80:127,1,180,0|8,0:0|0:0,0:0:0:0:
72,220,42673,2,0,B|153:252|153:252|244:235,1,180
324,192,42994,1,8,0:0:0:0:
400,240,43101,1,0,0:0:0:0:
413,326,43208,6,0,B|372:358|329:365|277:345|256:308,1,180,0|8,0:0|0:0,0:0:0:0:
256,216,43530,1,0,0:0:0:0:
99,326,43637,2,0,B|139:358|182:365|234:345|256:308,1,180,0|8,0:0|0:0,0:0:0:0:
256,216,43958,1,0,0:0:0:0:
232,128,44065,6,0,B|212:88|168:68,1,90
104,132,44280,2,0,B|148:152|168:192,1,90,8|0,0:0|0:0,0:0:0:0:
280,128,44494,2,0,B|300:88|344:68,1,90
408,132,44709,2,0,B|363:152|343:192,1,90,8|0,0:0|0:0,0:0:0:0:
340,280,44923,6,0,B|380:312|428:320|472:292|488:248,1,180,0|8,0:0|0:0,0:0:0:0:
496,156,45244,1,0,0:0:0:0:
408,132,45351,2,0,B|320:132,1,90
104,132,45565,2,0,B|192:132,1,90,8|0,0:0|0:0,0:0:0:0:
256,200,45780,1,0,0:0:0:0:
200,268,45887,6,0,B|116:300,2,90,12|0|0,0:0|0:0|0:0,0:0:0:0:
312,268,46208,2,0,B|396:300,2,90,12|0|0,0:0|0:0|0:0,0:0:0:0:
256,200,46530,1,0,0:0:0:0:
256,112,46637,6,0,B|268:64|308:36|360:28|400:48,1,180,4|8,0:0|0:0,0:0:0:0:
472,104,46958,1,0,0:0:0:0:
472,192,47065,2,0,B|388:228,1,90
320,168,47280,2,0,B|404:132,1,90,8|0,0:0|0:0,0:0:0:0:
472,192,47494,6,0,B|500:280|500:280|472:364,1,180,0|8,0:0|0:0,0:0:0:0:
384,368,47815,1,0,0:0:0:0:
300,332,47923,2,0,B|228:276|228:276|204:192,1,180,0|8,0:0|0:0,0:0:0:0:
256,116,48244,1,0,0:0:0:0:
308,190,48351,6,0,B|284:276|284:276|212:332,1,180,0|8,0:0|0:0,0:0:0:0:
120,336,48673,1,0,0:0:0:0:
64,264,48780,2,0,B|32:224|32:176|64:128|112:120,1,180,0|8,0:0|0:0,0:0:0:0:
164,196,49101,1,0,0:0:0:0:
239,242,49208,6,0,B|287:234|308:190,1,90
372,252,49423,2,0,B|358:298|311:314,1,90,8|0,0:0|0:0,0:0:0:0:
380,376,49637,2,0,B|464:328|474:231,1,180,0|8,0:0|0:0,0:0:0:0:
412,164,49958,1,0,0:0:0:0:
328,132,50065,6,0,B|280:132|244:164|244:164|208:196|164:196,1,180,0|8,0:0|0:0,0:0:0:0:
76,164,50387,1,0,0:0:0:0:
163,131,50494,6,0,B|208:132|244:164|244:164|280:196|328:196,1,180,0|8,0:0|0:0,0:0:0:0:
408,172,50815,1,0,0:0:0:0:
476,112,50923,6,0,B|488:68|452:28,1,90
376,72,51137,2,0,B|332:92|288:72,1,90,8|0,0:0|0:0,0:0:0:0:
200,52,51351,2,0,B|160:76|156:128,1,90
220,192,51565,2,0,B|196:240|148:244,1,90,8|0,0:0|0:0,0:0:0:0:
68,280,51780,6,0,B|80:332|120:356|168:360|212:332,1,180,0|8,0:0|0:0,0:0:0:0:
256,256,52101,1,0,0:0:0:0:
444,280,52208,2,0,B|432:332|392:356|344:360|300:332,1,180,0|8,0:0|0:0,0:0:0:0:
256,256,52530,1,0,0:0:0:0:
256,168,52637,1,0,0:0:0:0:
256,80,52744,6,0,B|277:39|323:17|376:21|409:53,1,180,12|0,0:0|0:0,0:0:0:0:
256,80,53065,2,0,B|234:39|188:17|135:21|102:53,1,180,12|0,0:0|0:0,0:0:0:0:
56,132,53387,1,0,0:0:0:0:
96,212,53494,1,0,0:0:0:0:
184,224,53601,1,0,0:0:0:0:
256,168,53708,6,0,B|336:128|336:128|428:128,1,180,12|0,0:0|0:0,0:0:0:0:
492,192,54030,1,0,0:0:0:0:
460,276,54137,1,8,0:0:0:0:
376,312,54244,2,0,B|196:312,1,180
184,224,54565,6,0,B|364:224,1,180,8|0,0:0|0:0,0:0:0:0:
420,152,54887,1,0,0:0:0:0:
380,72,54994,1,8,0:0:0:0:
300,36,55101,1,0,0:0:0:0:
212,56,55208,6,0,B|212:144,1,90,4|0,0:0|0:0,0:0:0:0:
128,176,55423,2,0,B|128:88,1,90,8|0,0:0|0:0,0:0:0:0:
296,108,55637,2,0,B|296:198,1,90
336,276,55851,1,8,0:0:0:0:
424,292,55958,2,0,B|496:236|496:236|512:148,1,180
432,104,56280,6,0,B|416:192|416:192|344:248,1,180,8|0,0:0|0:0,0:0:0:0:
256,228,56601,1,0,0:0:0:0:
216,148,56708,2,0,B|216:100|244:56|296:44|340:60,1,180,8|0,0:0|0:0,0:0:0:0:
216,236,57137,6,0,B|216:284|188:328|136:340|92:324,1,180,12|0,0:0|0:0,0:0:0:0:
16,276,57458,1,0,0:0:0:0:
52,192,57565,2,0,B|52:136|52:136|96:84|96:84|96:24,2,180,8|0|8,0:0|0:0|0:0,0:0:0:0:
128,244,58101,5,0,0:0:0:0:
216,236,58208,2,0,B|256:152,1,90
344,152,58423,2,0,B|304:236,1,90,8|0,0:0|0:0,0:0:0:0:
396,228,58637,6,0,B|436:144|436:144|416:60,1,180,4|8,0:0|0:0,0:0:0:0:
328,44,58958,1,0,0:0:0:0:
256,96,59065,2,0,B|256:276,1,180,0|8,0:0|0:0,0:0:0:0:
168,304,59387,1,0,0:0:0:0:
80,300,59494,6,0,B|24:228,1,90,8|0,0:0|0:0,0:0:0:0:
144,156,59708,2,0,B|200:228,1,90,8|0,0:0|0:0,0:0:0:0:
140,264,59923,2,0,B|84:192,1,90,8|0,0:0|0:0,0:0:0:0:
200,116,60137,6,0,B|256:188|256:188|256:276,2,180,10|0|12,0:0|0:0|0:0,0:0:0:0:
112,96,60673,1,0,0:0:0:0:
40,152,60780,2,0,B|14:193|18:241|52:279|109:283,1,180,0|8,0:0|0:0,0:0:0:0:
192,256,61101,1,0,0:0:0:0:
256,192,61208,6,0,B|256:104,1,90
340,140,61423,2,0,B|340:228,1,90,8|0,0:0|0:0,0:0:0:0:
424,256,61637,2,0,B|424:76,1,180,0|8,0:0|0:0,0:0:0:0:
192,76,62065,6,0,B|192:256,1,180,4|8,0:0|0:0,0:0:0:0:
256,320,62387,1,0,0:0:0:0:
344,296,62494,2,0,B|384:216,1,90
340,140,62708,2,0,B|300:220,1,90,8|0,0:0|0:0,0:0:0:0:
168,296,62923,2,0,B|128:216,1,90
172,140,63137,2,0,B|212:220,1,90,8|0,0:0|0:0,0:0:0:0:
256,300,63351,5,8,0:0:0:0:
256,84,63565,1,8,0:0:0:0:
256,320,63780,1,0,0:0:0:0:
256,84,63994,6,0,B|336:40|336:40|424:40,1,180,12|0,0:0|0:0,0:0:0:0:
484,104,64315,1,0,0:0:0:0:
464,192,64423,2,0,B|384:236,1,90,8|0,0:0|0:0,0:0:0:0:
312,184,64637,6,0,B|392:140,1,90
464,192,64851,1,8,0:0:0:0:
472,280,64958,1,0,0:0:0:0:
421,352,65065,2,0,B|329:348|329:348|256:300,1,180,0|8,0:0|0:0,0:0:0:0:
176,260,65387,1,0,0:0:0:0:
88,284,65494,5,4,0:0:0:0:
424,100,65815,5,4,0:0:0:0:
72,138,66137,5,4,0:0:0:0:
439,245,66458,5,4,0:0:0:0:
256,192,66780,5,8,0:0:0:0:
184,136,66887,1,0,0:0:0:0:
184,48,66994,2,0,B|96:40|96:40|12:80,2,180,8|4|8,0:0|0:0|0:0,0:0:0:0:
256,104,67530,5,0,0:0:0:0:
256,192,67637,2,0,B|188:252,1,90
268,292,67851,2,0,B|335:232|335:232|344:144,1,180,8|0,0:0|0:0,0:0:0:0:
420,92,68173,1,0,0:0:0:0:
420,180,68280,6,0,B|411:269|411:269|343:329,1,180,8|0,0:0|0:0,0:0:0:0:
256,356,68601,1,0,0:0:0:0:
168,329,68708,2,0,B|100:269|100:269|92:180,2,180,8|0|8,0:0|0:0|0:0,0:0:0:0:
256,304,69244,5,0,0:0:0:0:
256,216,69351,2,0,B|332:168|332:168|420:180,1,180,0|8,0:0|0:0,0:0:0:0:
492,236,69673,1,0,0:0:0:0:
468,324,69780,2,0,B|384:292|384:292|340:208,1,180,0|8,0:0|0:0,0:0:0:0:
284,144,70101,1,0,0:0:0:0:
196,156,70208,5,0,0:0:0:0:
84,300,70423,1,8,0:0:0:0:
16,132,70637,6,0,B|36:84|72:56|128:56|164:80,1,180,0|8,0:0|0:0,0:0:0:0:
236,132,70958,1,0,0:0:0:0:
228,220,71065,2,0,B|192:252|144:248,1,90
84,184,71280,2,0,B|120:152|168:156,1,90,8|0,0:0|0:0,0:0:0:0:
228,220,71494,5,0,0:0:0:0:
316,244,71601,1,0,0:0:0:0:
392,192,71708,1,8,0:0:0:0:
256,24,71923,1,0,0:0:0:0:
120,192,72137,1,8,0:0:0:0:
256,24,72351,6,0,B|316:92|316:92|316:180,1,180,0|8,0:0|0:0,0:0:0:0:
268,256,72673,1,0,0:0:0:0:
180,260,72780,1,0,0:0:0:0:
120,192,72887,1,0,0:0:0:0:
152,108,72994,1,8,0:0:0:0:
236,76,73101,6,0,B|284:60|332:84|356:132|340:176,1,180
256,208,73423,2,0,B|239:252|263:300|311:324|359:308,1,180,8|0,0:0|0:0,0:0:0:0:
444,276,73744,1,0,0:0:0:0:
480,192,73851,2,0,B|420:124|420:124|332:112,2,180,8|4|8,0:0|0:0|0:0,0:0:0:0:
440,272,74387,5,0,0:0:0:0:
352,288,74494,2,0,B|296:288|296:288|236:316|236:316|176:316,1,180,0|8,0:0|0:0,0:0:0:0:
104,264,74815,1,0,0:0:0:0:
88,176,74923,2,0,B|112:88,1,90
200,68,75137,6,0,B|176:156|176:156|204:240,1,180,8|0,0:0|0:0,0:0:0:0:
292,260,75458,1,0,0:0:0:0:
360,204,75565,2,0,B|388:116,1,90,8|0,0:0|0:0,0:0:0:0:
304,85,75780,6,0,B|276:173|276:173|292:260,1,180,0|8,0:0|0:0,0:0:0:0:
376,292,76101,1,0,0:0:0:0:
464,272,76208,1,0,0:0:0:0:
500,188,76315,1,0,0:0:0:0:
460,108,76423,2,0,B|388:56,1,90,8|0,0:0|0:0,0:0:0:0:
304,84,76637,6,0,B|376:136,1,90
404,220,76851,1,8,0:0:0:0:
360,296,76958,1,0,0:0:0:0:
272,320,77065,2,0,B|215:320|195:279|179:239|118:239,1,180,0|8,0:0|0:0,0:0:0:0:
40,192,77387,1,0,0:0:0:0:
118,144,77494,6,0,B|179:144|195:104|215:64|272:64,1,180,0|8,0:0|0:0,0:0:0:0:
352,104,77815,1,0,0:0:0:0:
364,192,77923,1,0,0:0:0:0:
308,264,78030,1,0,0:0:0:0:
220,280,78137,6,0,B|136:252,1,90,8|0,0:0|0:0,0:0:0:0:
180,176,78351,2,0,B|264:204,1,90
308,128,78565,2,0,B|224:100,1,90,8|0,0:0|0:0,0:0:0:0:
276,24,78780,2,0,B|360:52,1,90
432,108,78994,6,0,B|463:191|463:191|441:279,1,180,8|4,0:0|0:0,0:0:0:0:
70,104,79530,1,4,0:0:0:0:
441,279,79851,1,4,0:0:0:0:
256,48,80065,5,4,0:0:0:0:
256,336,80387,1,4,0:0:0:0:
256,48,80708,1,4,0:0:0:0:
256,192,80923,6,0,B|304:268,1,90,12|0,0:0|0:0,0:0:0:0:
376,212,81137,2,0,B|328:136,1,90,8|0,0:0|0:0,0:0:0:0:
256,200,81351,6,0,B|208:276,1,90,8|0,0:0|0:0,0:0:0:0:
136,220,81565,2,0,B|184:144,1,90,8|0,0:0|0:0,0:0:0:0:
256,208,81780,6,0,B|304:284,1,90,8|0,0:0|0:0,0:0:0:0:
376,228,81994,2,0,B|328:152,1,90,8|0,0:0|0:0,0:0:0:0:
256,216,82208,6,0,B|208:292,1,90,8|0,0:0|0:0,0:0:0:0:
136,236,82423,2,0,B|184:160,1,90,8|0,0:0|0:0,0:0:0:0:
256,224,82637,6,0,B|304:300,1,90,8|0,0:0|0:0,0:0:0:0:
376,244,82851,2,0,B|328:168,1,90,8|0,0:0|0:0,0:0:0:0:
256,232,83065,6,0,B|208:308,1,90,8|0,0:0|0:0,0:0:0:0:
136,252,83280,2,0,B|184:176,1,90,8|0,0:0|0:0,0:0:0:0:
256,240,83494,6,0,B|304:316,1,90,8|0,0:0|0:0,0:0:0:0:
376,260,83708,2,0,B|328:184,1,90,8|0,0:0|0:0,0:0:0:0:
256,132,83923,5,0,0:0:0:0:
168,132,84030,1,0,0:0:0:0:
100,188,84137,1,8,0:0:0:0:
80,276,84244,1,0,0:0:0:0:
132,352,84351,6,0,B|220:352,1,90,12|0,0:0|0:0,0:0:0:0:
380,352,84565,2,0,B|292:352,1,90,8|0,0:0|0:0,0:0:0:0:
128,320,84780,6,0,B|218:320,1,90,8|0,0:0|0:0,0:0:0:0:
384,320,84994,2,0,B|294:320,1,90,8|0,0:0|0:0,0:0:0:0:
124,288,85208,6,0,B|214:288,1,90,8|0,0:0|0:0,0:0:0:0:
388,288,85423,2,0,B|298:288,1,90,8|0,0:0|0:0,0:0:0:0:
120,256,85637,6,0,B|210:256,1,90,8|0,0:0|0:0,0:0:0:0:
392,256,85851,2,0,B|302:256,1,90,8|0,0:0|0:0,0:0:0:0:
116,224,86065,6,0,B|206:224,1,90,8|0,0:0|0:0,0:0:0:0:
396,224,86280,2,0,B|306:224,1,90,8|0,0:0|0:0,0:0:0:0:
112,192,86494,6,0,B|202:192,1,90,8|0,0:0|0:0,0:0:0:0:
400,192,86708,2,0,B|310:192,1,90,8|0,0:0|0:0,0:0:0:0:
108,160,86923,6,0,B|198:160,1,90,8|0,0:0|0:0,0:0:0:0:
404,160,87137,2,0,B|314:160,1,90,8|0,0:0|0:0,0:0:0:0:
104,128,87351,6,0,B|194:128,1,90,8|0,0:0|0:0,0:0:0:0:
408,128,87565,2,0,B|318:128,1,90,8|0,0:0|0:0,0:0:0:0:
256,192,87780,6,0,B|256:284|256:284|312:352,1,180,12|8,0:0|0:0,0:0:0:0:
400,344,88101,1,0,0:0:0:0:
464,280,88208,2,0,B|480:192,1,90,8|0,0:0|0:0,0:0:0:0:
388,188,88423,2,0,B|372:276,1,90,8|0,0:0|0:0,0:0:0:0:
288,304,88637,6,0,B|204:332|204:332|116:312,1,180,8|8,0:0|0:0,0:0:0:0:
64,236,88958,1,0,0:0:0:0:
88,148,89065,2,0,B|140:72,1,90,8|0,0:0|0:0,0:0:0:0:
220,116,89280,2,0,B|168:192,1,90,8|0,0:0|0:0,0:0:0:0:
204,272,89494,5,8,0:0:0:0:
288,304,89601,1,0,0:0:0:0:
372,276,89708,1,8,0:0:0:0:
388,188,89815,1,0,0:0:0:0:
336,116,89923,2,0,B|256:72,1,90,8|0,0:0|0:0,0:0:0:0:
212,152,90137,2,0,B|292:196,1,90,8|0,0:0|0:0,0:0:0:0:
256,280,90351,6,0,B|216:308|164:308|124:268|124:220,1,180,8|8,0:0|0:0,0:0:0:0:
256,280,90673,2,0,B|296:308|348:308|388:268|388:220,1,180
400,132,90994,1,8,0:0:0:0:
328,80,91101,1,0,0:0:0:0:
240,88,91208,6,0,B|196:168,1,90,12|0,0:0|0:0,0:0:0:0:
108,164,91423,2,0,B|152:84,1,90,8|0,0:0|0:0,0:0:0:0:
64,72,91637,2,0,B|20:152|20:152|20:240,1,180,8|8,0:0|0:0,0:0:0:0:
60,320,91958,1,0,0:0:0:0:
144,348,92065,6,0,B|216:296,1,90,8|0,0:0|0:0,0:0:0:0:
368,348,92280,2,0,B|296:296,1,90,8|0,0:0|0:0,0:0:0:0:
144,304,92494,2,0,B|216:252,1,90,8|0,0:0|0:0,0:0:0:0:
368,304,92709,2,0,B|296:252,1,90,8|0,0:0|0:0,0:0:0:0:
256,172,92923,6,0,B|320:108|320:108|408:88,1,180,12|12,0:0|0:0,0:0:0:0:
476,148,93244,1,0,0:0:0:0:
400,196,93351,2,0,B|324:244,1,90,12|0,0:0|0:0,0:0:0:0:
112,196,93565,2,0,B|188:244,1,90,8|0,0:0|0:0,0:0:0:0:
256,304,93780,6,0,B|256:124,1,180,8|0,0:0|0:0,0:0:0:0:
256,124,94101,5,8,0:0:0:0:
