osu file format v12

[General]
AudioFilename: Kyouki Chinden.mp3
AudioLeadIn: 0
PreviewTime: 66780
Countdown: 0
SampleSet: Soft
StackLeniency: 0.7
Mode: 0
LetterboxInBreaks: 0
WidescreenStoryboard: 0

[Editor]
DistanceSpacing: 0.7
BeatDivisor: 2
GridSize: 4

[Metadata]
Title:Kyouki Chinden (TV Size)
TitleUnicode:狂気沈殿 (TV Size)
Artist:Yousei Teikoku
ArtistUnicode:妖精帝國
Creator:Saten
Version:Insane
Source:Mirai Nikki
Tags:Saten-san alternative opening satona kurousagi OnosakiHito
BeatmapID:179224
BeatmapSetID:59025

[Difficulty]
HPDrainRate:6
CircleSize:4
OverallDifficulty:7
ApproachRate:9
SliderMultiplier:1.3
SliderTickRate:2

[Events]
//Background and Video events
Video,1346,"sexy.avi"
0,0,"Nikki.png",0,0
//Break Periods
//Storyboard Layer 0 (Background)
//Storyboard Layer 1 (Fail)
//Storyboard Layer 2 (Pass)
//Storyboard Layer 3 (Foreground)
//Storyboard Sound Samples
//Background Colour Transformations
3,100,0,0,0

[TimingPoints]
2066,214.285714285714,4,2,1,80,1,0
10637,-100,4,2,1,70,0,0
12351,-100,4,2,1,80,0,0
67208,-100,4,2,1,80,0,1
79208,-100,4,2,1,80,0,0
80923,-100,4,2,1,80,0,1
93780,-100,4,2,1,80,0,0
94208,-100,4,2,1,5,0,0

[Colours]
Combo1 : 255,255,45
Combo2 : 255,159,64
Combo3 : 83,169,255
Combo4 : 255,83,255

[HitObjects]
232,96,2066,5,0,0:0:0:0:
352,168,2280,1,0,0:0:0:0:
280,288,2494,1,0,0:0:0:0:
160,216,2708,1,0,0:0:0:0:
248,83,2923,5,0,0:0:0:0:
364,184,3137,1,0,0:0:0:0:
263,300,3351,1,0,0:0:0:0:
147,199,3565,1,0,0:0:0:0:
268,72,3780,5,0,0:0:0:0:
375,204,3994,1,0,0:0:0:0:
243,311,4208,1,0,0:0:0:0:
136,179,4423,1,0,0:0:0:0:
256,192,4637,5,0,0:0:0:0:
256,192,4744,2,0,B|316:232|328:296,1,130,12|0,0:0|0:0,0:0:0:0:
256,192,5065,2,0,B|196:152|184:88,1,130,0|8,0:0|0:0,0:0:0:0:
304,32,5494,5,4,0:0:0:0:
412,100,5708,1,8,0:0:0:0:
384,228,5923,1,0,0:0:0:0:
364,260,6030,1,0,0:0:0:0:
332,284,6137,1,8,0:0:0:0:
296,292,6244,1,0,0:0:0:0:
256,296,6351,6,0,B|196:272,3,65,0|0|8|0,0:0|0:0|0:0|0:0,0:0:0:0:
168,244,6780,1,0,0:0:0:0:
152,208,6887,1,0,0:0:0:0:
156,168,6994,1,8,0:0:0:0:
172,132,7101,1,0,0:0:0:0:
208,112,7208,6,0,B|340:100,1,130,0|8,0:0|0:0,0:0:0:0:
432,192,7637,1,0,0:0:0:0:
416,228,7744,1,0,0:0:0:0:
388,252,7851,1,8,0:0:0:0:
348,260,7958,1,0,0:0:0:0:
308,252,8065,6,0,B|256:216,3,65,0|0|8|0,0:0|0:0|0:0|0:0,0:0:0:0:
216,204,8494,1,0,0:0:0:0:
176,200,8601,1,0,0:0:0:0:
136,208,8708,1,8,0:0:0:0:
108,236,8815,1,0,0:0:0:0:
96,272,8923,6,0,B|156:300|156:300|220:300,1,130,4|8,0:0|0:0,0:0:0:0:
292,192,9351,1,0,0:0:0:0:
312,160,9458,1,0,0:0:0:0:
340,136,9565,1,8,0:0:0:0:
376,124,9673,1,0,0:0:0:0:
416,124,9780,6,0,B|472:156,3,65,0|0|8|0,0:0|0:0|0:0|0:0,0:0:0:0:
488,192,10208,1,0,0:0:0:0:
484,232,10315,1,0,0:0:0:0:
460,264,10423,1,8,0:0:0:0:
428,284,10530,1,0,0:0:0:0:
387,300,10637,6,6,B|304:328|152:280|60:232|44:72|136:-16|256:-60|376:-16|468:72|452:232|360:280|208:328|124:300,1,1040,0|4,0:0|0:0,0:0:0:0:
16,228,12565,5,8,0:0:0:0:
16,228,12673,2,0,B|48:172|48:172|100:132,1,130
140,184,12994,2,0,B|192:220|192:220|260:220,1,130,8|0,0:0|0:0,0:0:0:0:
308,100,13423,5,8,0:0:0:0:
308,100,13530,2,0,B|264:52|264:52|200:36,1,130
140,54,13851,2,0,B|140:184,1,130,8|0,0:0|0:0,0:0:0:0:
256,248,14280,5,8,0:0:0:0:
256,248,14387,2,0,B|320:248|320:248|380:276,1,130
352,332,14708,2,0,B|224:332,1,130,8|0,0:0|0:0,0:0:0:0:
116,256,15137,5,8,0:0:0:0:
100,128,15351,1,0,0:0:0:0:
204,48,15565,1,8,0:0:0:0:
328,88,15780,6,0,B|328:152|328:152|296:208,1,130,4|8,0:0|0:0,0:0:0:0:
256,160,16101,2,0,B|192:160|192:160|136:192,1,130
116,256,16423,1,8,0:0:0:0:
4,192,16637,6,0,B|-4:120|56:80,1,130,0|8,0:0|0:0,0:0:0:0:
100,128,16958,2,0,B|172:136|212:76,1,130
256,28,17280,1,8,0:0:0:0:
128,36,17494,6,0,B|56:28|16:88,1,130,0|8,0:0|0:0,0:0:0:0:
36,148,17815,2,0,B|81:204|151:190,1,130,0|0,0:0|0:0,0:0:0:0:
208,156,18137,1,8,0:0:0:0:
332,192,18351,5,12,0:0:0:0:
256,296,18565,1,12,0:0:0:0:
180,192,18780,1,12,0:0:0:0:
256,296,18994,1,12,0:0:0:0:
332,192,19208,6,0,B|400:204|432:268,1,130,4|8,0:0|0:0,0:0:0:0:
488,236,19530,2,0,B|488:168|432:124,1,130
368,108,19851,1,8,0:0:0:0:
256,172,20065,6,0,B|188:188|132:148,1,130,0|8,0:0|0:0,0:0:0:0:
76,180,20387,2,0,B|72:248|124:296,1,130
188,292,20708,1,8,0:0:0:0:
188,160,20923,6,0,B|196:92|256:56,1,130,0|8,0:0|0:0,0:0:0:0:
288,112,21244,2,0,B|296:180|360:212,1,130
424,208,21565,1,8,0:0:0:0:
368,324,21780,5,0,0:0:0:0:
256,260,21994,1,8,0:0:0:0:
368,192,22208,1,0,0:0:0:0:
256,124,22423,1,8,0:0:0:0:
368,60,22637,1,4,0:0:0:0:
480,128,22851,5,8,0:0:0:0:
480,128,22958,2,0,B|496:192|496:192|480:256,1,130
416,264,23280,2,0,B|360:228|360:228|296:228,1,130,8|0,0:0|0:0,0:0:0:0:
180,288,23708,5,8,0:0:0:0:
180,288,23815,2,0,B|120:264|120:264|76:216,1,130
96,156,24137,2,0,B|160:140|160:140|204:96,1,130,8|0,0:0|0:0,0:0:0:0:
332,124,24565,5,8,0:0:0:0:
332,124,24673,2,0,B|332:188|332:188|292:240,1,130
312,300,24994,2,0,B|372:324|372:324|436:308,1,130,0|12,0:0|0:0,0:0:0:0:
496,192,25423,6,0,B|508:152,3,43.3333333333333,0|0|0|4,0:0|0:0|0:0|0:0,0:0:0:0:
412,64,25851,1,8,0:0:0:0:
284,60,26065,6,0,B|248:120|176:120,1,130,4|8,0:0|0:0,0:0:0:0:
216,184,26387,2,0,B|284:172|325:119,1,130
360,183,26708,2,0,B|312:231|248:247,1,130,8|0,0:0|0:0,0:0:0:0:
120,192,27137,5,8,0:0:0:0:
136,320,27351,1,0,0:0:0:0:
256,364,27565,1,8,0:0:0:0:
376,320,27780,6,0,B|412:268|412:268|412:200,1,130,0|8,0:0|0:0,0:0:0:0:
356,232,28101,2,0,B|320:180|320:180|320:112,1,130
376,148,28423,2,0,B|412:96|412:96|412:28,1,130,8|0,0:0|0:0,0:0:0:0:
284,32,28851,5,8,0:0:0:0:
204,136,29065,1,0,0:0:0:0:
256,256,29280,1,8,0:0:0:0:
176,356,29494,6,0,B|52:316,1,130,0|8,0:0|0:0,0:0:0:0:
64,252,29815,2,0,B|188:212,1,130
192,148,30137,2,0,B|68:108,1,130,8|0,0:0|0:0,0:0:0:0:
172,32,30565,5,8,0:0:0:0:
300,48,30780,1,0,0:0:0:0:
360,164,30994,1,8,0:0:0:0:
292,272,31208,6,0,B|248:324|176:320,1,130,0|8,0:0|0:0,0:0:0:0:
144,264,31530,2,0,B|197:215|192:148,1,130
136,120,31851,2,0,B|92:172|20:168,1,130,8|0,0:0|0:0,0:0:0:0:
24,36,32280,5,12,0:0:0:0:
152,24,32494,1,12,0:0:0:0:
256,100,32708,1,8,0:0:0:0:
256,232,32923,6,0,B|292:292|360:300,1,130,4|8,0:0|0:0,0:0:0:0:
384,240,33244,2,0,B|328:124,1,130
352,64,33565,2,0,B|420:72|456:132,1,130,8|0,0:0|0:0,0:0:0:0:
384,240,33994,5,8,0:0:0:0:
256,192,34208,1,0,0:0:0:0:
128,240,34423,1,8,0:0:0:0:
55,132,34637,6,0,B|91:72|160:64,1,130,0|8,0:0|0:0,0:0:0:0:
184,122,34958,2,0,B|128:240,1,130
151,300,35280,2,0,B|220:292|256:232,1,130,8|0,0:0|0:0,0:0:0:0:
256,96,35708,5,8,0:0:0:0:
256,232,35923,1,0,0:0:0:0:
256,96,36137,1,8,0:0:0:0:
256,232,36351,6,0,B|320:252|320:252|380:236,1,130,0|8,0:0|0:0,0:0:0:0:
348,184,36672,2,0,B|288:165|288:165|244:114,1,130
308,96,36994,2,0,B|372:116|372:116|432:100,1,130,8|0,0:0|0:0,0:0:0:0:
500,220,37423,5,8,0:0:0:0:
400,304,37637,1,0,0:0:0:0:
276,272,37851,1,8,0:0:0:0:
256,144,38065,6,0,B|192:124|192:124|132:140,1,130,0|8,0:0|0:0,0:0:0:0:
164,192,38387,2,0,B|223:210|223:210|267:261,1,130
204,280,38708,2,0,B|140:260|140:260|80:276,1,130,8|12,0:0|0:0,0:0:0:0:
12,164,39137,5,12,0:0:0:0:
112,80,39351,1,12,0:0:0:0:
236,112,39565,1,8,0:0:0:0:
256,240,39780,5,4,0:0:0:0:
360,320,39994,1,8,0:0:0:0:
460,236,40208,1,0,0:0:0:0:
476,192,40315,1,0,0:0:0:0:
468,148,40423,1,8,0:0:0:0:
444,108,40530,1,0,0:0:0:0:
400,92,40637,2,0,B|272:92,1,130,0|8,0:0|0:0,0:0:0:0:
188,192,41065,2,0,B|316:192,1,130,0|8,0:0|0:0,0:0:0:0:
256,308,41494,5,0,0:0:0:0:
128,340,41708,1,8,0:0:0:0:
24,260,41923,1,0,0:0:0:0:
12,216,42030,1,0,0:0:0:0:
20,172,42137,1,8,0:0:0:0:
48,136,42244,1,0,0:0:0:0:
92,124,42351,2,0,B|220:124,1,130,0|8,0:0|0:0,0:0:0:0:
256,180,42673,2,0,B|128:180,1,130
92,212,42994,5,8,0:0:0:0:
80,256,43101,1,0,0:0:0:0:
100,296,43208,2,0,B|156:328|156:328|220:328,1,130,0|8,0:0|0:0,0:0:0:0:
316,236,43637,1,0,0:0:0:0:
432,296,43851,1,8,0:0:0:0:
432,296,43958,1,0,0:0:0:0:
432,296,44065,2,0,B|472:244|472:244|472:180,1,130,0|8,0:0|0:0,0:0:0:0:
404,68,44494,5,0,0:0:0:0:
360,56,44601,1,0,0:0:0:0:
316,60,44708,1,8,0:0:0:0:
276,80,44815,1,0,0:0:0:0:
256,120,44923,2,0,B|256:248,1,130,0|8,0:0|0:0,0:0:0:0:
148,324,45351,6,0,B|148:192,1,130,0|8,0:0|0:0,0:0:0:0:
116,164,45673,1,0,0:0:0:0:
72,156,45780,1,0,0:0:0:0:
28,160,45887,2,0,B|44:92|108:64,1,130,12|0,0:0|0:0,0:0:0:0:
160,104,46208,2,0,B|228:88|256:24,1,130,12|0,0:0|0:0,0:0:0:0:
384,44,46637,5,4,0:0:0:0:
468,144,46851,1,8,0:0:0:0:
420,264,47065,1,0,0:0:0:0:
380,284,47173,1,0,0:0:0:0:
336,288,47280,1,8,0:0:0:0:
292,276,47387,1,0,0:0:0:0:
256,248,47494,2,0,B|256:120,1,130,0|8,0:0|0:0,0:0:0:0:
380,154,47923,2,0,B|380:284,1,130,0|8,0:0|0:0,0:0:0:0:
272,356,48351,5,0,0:0:0:0:
176,272,48565,1,8,0:0:0:0:
164,144,48780,1,0,0:0:0:0:
124,120,48887,1,0,0:0:0:0:
80,120,48994,1,8,0:0:0:0:
40,140,49101,1,0,0:0:0:0:
20,180,49208,2,0,B|20:308,1,130,0|8,0:0|0:0,0:0:0:0:
84,316,49530,2,0,B|84:188,1,130
120,156,49851,5,8,0:0:0:0:
164,144,49958,1,0,0:0:0:0:
208,156,50065,2,0,B|280:168|328:120,1,130,0|8,0:0|0:0,0:0:0:0:
228,36,50494,2,0,B|100:36,1,130,0|8,0:0|0:0,0:0:0:0:
56,56,50815,1,0,0:0:0:0:
32,96,50923,2,0,B|32:164|92:204,1,130,0|8,0:0|0:0,0:0:0:0:
220,192,51351,2,0,B|220:260|160:300,1,130,0|8,0:0|0:0,0:0:0:0:
32,280,51780,1,0,0:0:0:0:
80,160,51994,1,8,0:0:0:0:
148,52,52208,5,0,0:0:0:0:
188,28,52315,1,0,0:0:0:0:
232,32,52423,1,8,0:0:0:0:
272,56,52530,1,0,0:0:0:0:
284,100,52637,1,0,0:0:0:0:
296,144,52744,2,0,B|336:196|412:192,1,130,12|0,0:0|0:0,0:0:0:0:
412,256,53065,2,0,B|336:252|296:304,1,130,12|0,0:0|0:0,0:0:0:0:
176,356,53494,1,0,0:0:0:0:
56,308,53708,6,0,B|32:240|88:192,1,130,12|0,0:0|0:0,0:0:0:0:
212,232,54137,1,8,0:0:0:0:
212,232,54244,2,0,B|284:244|328:192,1,130
280,148,54565,2,0,B|268:80|328:36,1,130,8|0,0:0|0:0,0:0:0:0:
448,84,54994,1,8,0:0:0:0:
492,208,55208,5,4,0:0:0:0:
468,248,55315,1,0,0:0:0:0:
428,272,55423,1,8,0:0:0:0:
384,276,55530,1,0,0:0:0:0:
340,272,55637,1,0,0:0:0:0:
304,244,55744,1,0,0:0:0:0:
280,204,55851,1,8,0:0:0:0:
276,160,55958,1,0,0:0:0:0:
296,120,56065,6,0,B|340:72,1,65
388,116,56280,2,0,B|344:164,1,65,8|0,0:0|0:0,0:0:0:0:
392,208,56494,2,0,B|480:110,2,130,0|8|0,0:0|0:0|0:0,0:0:0:0:
256,192,57137,6,0,B|192:192|192:192|136:224,1,130,12|0,0:0|0:0,0:0:0:0:
20,164,57565,1,8,0:0:0:0:
20,164,57673,1,0,0:0:0:0:
20,164,57780,2,0,B|52:108|52:108|108:76,1,130,0|8,0:0|0:0,0:0:0:0:
156,120,58101,2,0,B|212:152|212:152|276:152,1,130
324,164,58423,1,8,0:0:0:0:
360,192,58530,1,0,0:0:0:0:
364,236,58637,6,0,B|376:304|452:320,1,130,4|8,0:0|0:0,0:0:0:0:
504,200,59065,1,0,0:0:0:0:
428,96,59280,1,8,0:0:0:0:
300,76,59494,5,8,0:0:0:0:
256,92,59601,1,0,0:0:0:0:
228,128,59708,1,8,0:0:0:0:
220,172,59815,1,0,0:0:0:0:
232,216,59923,2,0,B|268:272,1,65,0|0,0:0|0:0,0:0:0:0:
216,308,60137,2,0,B|146:199,2,130,2|0|12,0:0|0:0|0:0,0:0:0:0:
195,349,60673,5,0,0:0:0:0:
152,364,60780,2,0,B|80:352|56:288,1,130,0|8,0:0|0:0,0:0:0:0:
92,232,61101,2,0,B|155:260|214:218,1,130
256,168,61423,2,0,B|320:144|380:184,1,130,8|0,0:0|0:0,0:0:0:0:
420,308,61851,1,8,0:0:0:0:
300,352,62065,5,4,0:0:0:0:
256,348,62173,1,0,0:0:0:0:
216,328,62280,1,8,0:0:0:0:
184,296,62387,1,0,0:0:0:0:
172,252,62494,1,0,0:0:0:0:
176,208,62601,1,0,0:0:0:0:
200,172,62708,1,8,0:0:0:0:
240,152,62815,1,0,0:0:0:0:
284,160,62923,6,0,B|344:184,1,65
368,124,63137,2,0,B|308:100,1,65,8|0,0:0|0:0,0:0:0:0:
332,40,63351,2,0,B|452:88,2,130,8|8|0,0:0|0:0|0:0,0:0:0:0:
200,36,63994,6,0,B|140:68|140:68|108:120,1,130,12|0,0:0|0:0,0:0:0:0:
168,236,64423,1,8,0:0:0:0:
168,236,64530,1,0,0:0:0:0:
168,236,64637,2,0,B|212:288|284:288,1,130,0|8,0:0|0:0,0:0:0:0:
312,232,64958,2,0,B|248:192|256:124,1,130
308,84,65280,2,0,B|440:84,1,130,8|4,0:0|0:0,0:0:0:0:
440,280,65815,5,4,0:0:0:0:
256,348,66137,1,4,0:0:0:0:
72,280,66458,1,4,0:0:0:0:
74,84,66780,1,8,0:0:0:0:
74,84,66887,1,0,0:0:0:0:
74,84,66994,1,8,0:0:0:0:
192,140,67208,6,0,B|232:200|304:192,1,130,4|8,0:0|0:0,0:0:0:0:
428,152,67637,1,0,0:0:0:0:
428,152,67744,1,0,0:0:0:0:
428,152,67851,2,0,B|488:196|472:268,1,130,8|0,0:0|0:0,0:0:0:0:
360,332,68280,1,8,0:0:0:0:
256,256,68494,1,0,0:0:0:0:
256,128,68708,1,8,0:0:0:0:
152,52,68923,6,0,B|80:60|48:120,1,130,0|8,0:0|0:0,0:0:0:0:
92,168,69244,2,0,B|157:148|213:193,1,130
184,252,69565,2,0,B|112:260|80:320,1,130,8|0,0:0|0:0,0:0:0:0:
200,372,69994,1,8,0:0:0:0:
308,300,70208,5,0,0:0:0:0:
332,260,70315,1,0,0:0:0:0:
328,216,70423,1,8,0:0:0:0:
300,180,70530,1,0,0:0:0:0:
256,168,70637,2,0,B|192:168|192:168|132:140,1,130,0|8,0:0|0:0,0:0:0:0:
208,36,71065,1,0,0:0:0:0:
252,32,71173,1,0,0:0:0:0:
296,48,71280,1,8,0:0:0:0:
328,80,71387,2,0,B|344:148|416:164,1,130
476,192,71708,2,0,B|460:260|388:276,1,130,8|0,0:0|0:0,0:0:0:0:
288,192,72137,5,8,0:0:0:0:
288,192,72244,1,0,0:0:0:0:
288,192,72351,2,0,B|212:192|180:252,1,130,0|8,0:0|0:0,0:0:0:0:
64,308,72780,1,0,0:0:0:0:
24,288,72887,1,0,0:0:0:0:
4,248,72994,1,8,0:0:0:0:
0,204,73101,2,0,B|28:140|100:132,1,130
124,192,73423,2,0,B|196:184|220:116,1,130,8|0,0:0|0:0,0:0:0:0:
124,28,73851,1,0,0:0:0:0:
0,74,74065,6,0,B|0:204,1,130,4|8,0:0|0:0,0:0:0:0:
76,312,74494,1,0,0:0:0:0:
200,352,74708,1,8,0:0:0:0:
200,352,74815,1,0,0:0:0:0:
200,352,74923,2,0,B|260:324|260:324|288:268,1,130,0|8,0:0|0:0,0:0:0:0:
184,192,75351,2,0,B|124:164|124:164|96:108,1,130,0|8,0:0|0:0,0:0:0:0:
204,36,75780,6,0,B|332:36,1,130,0|8,0:0|0:0,0:0:0:0:
376,84,76101,2,0,B|348:148|272:156,1,130
224,192,76423,2,0,B|231:264|295:292,1,130,8|0,0:0|0:0,0:0:0:0:
424,292,76851,1,8,0:0:0:0:
508,192,77065,1,0,0:0:0:0:
424,92,77280,1,8,0:0:0:0:
296,92,77494,6,0,B|296:220,1,130,0|8,0:0|0:0,0:0:0:0:
196,304,77923,1,0,0:0:0:0:
152,292,78030,1,0,0:0:0:0:
120,260,78137,1,8,0:0:0:0:
112,216,78244,2,0,B|120:152|120:152|168:108,1,130
200,164,78565,2,0,B|208:228|208:228|256:272,1,130,8|0,0:0|0:0,0:0:0:0:
384,304,78994,1,8,0:0:0:0:
488,228,79208,2,0,B|464:132|464:132|380:84,2,195,4|4|4,0:0|0:0|0:0,0:0:0:0:
364,192,80065,2,0,B|280:144|280:144|256:48,2,195,4|4|4,0:0|0:0|0:0,0:0:0:0:
452,288,80923,5,12,0:0:0:0:
420,320,81030,1,0,0:0:0:0:
376,332,81137,1,8,0:0:0:0:
332,328,81244,1,0,0:0:0:0:
292,308,81351,1,8,0:0:0:0:
272,268,81458,1,0,0:0:0:0:
264,224,81565,1,8,0:0:0:0:
276,180,81673,1,0,0:0:0:0:
308,148,81780,6,0,B|368:124,3,65,8|0|8|0,0:0|0:0|0:0|0:0,0:0:0:0:
380,80,82208,1,8,0:0:0:0:
356,44,82315,1,0,0:0:0:0:
312,32,82423,1,8,0:0:0:0:
268,36,82530,1,0,0:0:0:0:
232,64,82637,6,0,B|216:128,3,65,8|0|8|0,0:0|0:0|0:0|0:0,0:0:0:0:
220,172,83065,1,8,0:0:0:0:
252,204,83173,1,0,0:0:0:0:
296,216,83280,1,8,0:0:0:0:
340,204,83387,1,0,0:0:0:0:
376,176,83494,1,8,0:0:0:0:
420,168,83601,1,0,0:0:0:0:
460,184,83708,1,8,0:0:0:0:
484,224,83815,1,0,0:0:0:0:
480,268,83923,2,0,B|448:324,3,65,0|0|8|0,0:0|0:0|0:0|0:0,0:0:0:0:
408,344,84351,5,12,0:0:0:0:
364,344,84458,1,0,0:0:0:0:
324,324,84565,1,8,0:0:0:0:
300,284,84673,1,0,0:0:0:0:
304,240,84780,1,8,0:0:0:0:
328,200,84887,1,0,0:0:0:0:
324,156,84994,1,8,0:0:0:0:
292,124,85101,1,0,0:0:0:0:
248,116,85208,6,0,B|188:136,3,65,8|0|8|0,0:0|0:0|0:0|0:0,0:0:0:0:
156,172,85637,1,8,0:0:0:0:
152,216,85744,1,0,0:0:0:0:
180,252,85851,1,8,0:0:0:0:
224,260,85958,1,0,0:0:0:0:
268,248,86065,6,0,B|284:184,3,65,8|0|8|0,0:0|0:0|0:0|0:0,0:0:0:0:
320,156,86494,1,8,0:0:0:0:
364,156,86601,1,0,0:0:0:0:
404,180,86708,1,8,0:0:0:0:
416,224,86815,1,0,0:0:0:0:
400,268,86923,1,8,0:0:0:0:
360,288,87030,1,0,0:0:0:0:
316,284,87137,1,8,0:0:0:0:
276,264,87244,1,0,0:0:0:0:
248,228,87351,1,8,0:0:0:0:
252,184,87458,1,0,0:0:0:0:
228,144,87565,1,8,0:0:0:0:
184,128,87673,1,0,0:0:0:0:
140,136,87780,6,0,B|140:264,1,130,12|8,0:0|0:0,0:0:0:0:
112,300,88101,1,0,0:0:0:0:
68,308,88208,1,8,0:0:0:0:
28,284,88315,1,0,0:0:0:0:
8,244,88423,1,8,0:0:0:0:
24,200,88530,1,0,0:0:0:0:
64,176,88637,6,0,B|192:176,1,130,8|8,0:0|0:0,0:0:0:0:
228,144,88958,1,0,0:0:0:0:
240,100,89065,1,8,0:0:0:0:
224,56,89173,1,0,0:0:0:0:
180,44,89280,1,8,0:0:0:0:
136,60,89387,1,0,0:0:0:0:
120,104,89494,6,0,B|120:232,1,130,8|8,0:0|0:0,0:0:0:0:
144,272,89815,1,0,0:0:0:0:
188,288,89923,1,8,0:0:0:0:
232,288,90030,1,0,0:0:0:0:
272,268,90137,1,8,0:0:0:0:
300,232,90244,1,0,0:0:0:0:
304,188,90351,6,0,B|356:148|428:164,1,130,8|8,0:0|0:0,0:0:0:0:
480,124,90673,2,0,B|488:56|416:16,1,130
356,32,90994,2,0,B|360:160,1,130,8|12,0:0|0:0,0:0:0:0:
340,292,91423,5,8,0:0:0:0:
300,312,91530,1,0,0:0:0:0:
256,304,91637,1,8,0:0:0:0:
224,272,91744,1,0,0:0:0:0:
216,228,91851,1,8,0:0:0:0:
232,188,91958,1,0,0:0:0:0:
272,164,92065,6,0,B|284:92|220:56,1,130,8|8,0:0|0:0,0:0:0:0:
172,52,92387,1,0,0:0:0:0:
132,72,92494,1,8,0:0:0:0:
116,112,92601,1,0,0:0:0:0:
128,156,92708,1,8,0:0:0:0:
164,184,92815,1,0,0:0:0:0:
208,188,92923,6,0,B|272:164|336:188,1,130,12|12,0:0|0:0,0:0:0:0:
372,212,93244,1,0,0:0:0:0:
388,256,93351,1,12,0:0:0:0:
376,300,93458,1,0,0:0:0:0:
340,328,93565,1,8,0:0:0:0:
296,336,93673,1,0,0:0:0:0:
256,320,93780,6,0,B|256:192,1,130,8|0,0:0|0:0,0:0:0:0:
256,190,94101,5,8,0:0:0:0:
