osu file format v12

[General]
AudioFilename: Kyouki Chinden.mp3
AudioLeadIn: 0
PreviewTime: 66780
Countdown: 0
SampleSet: Soft
StackLeniency: 0.7
Mode: 0
LetterboxInBreaks: 0
WidescreenStoryboard: 0

[Editor]
DistanceSpacing: 1
BeatDivisor: 4
GridSize: 4

[Metadata]
Title:Kyouki Chinden (TV Size)
TitleUnicode:狂気沈殿 (TV Size)
Artist:Yousei Teikoku
ArtistUnicode:妖精帝國
Creator:Saten
Version:Hard
Source:Mirai Nikki
Tags:Saten-san alternative opening satona kurousagi OnosakiHito
BeatmapID:179223
BeatmapSetID:59025

[Difficulty]
HPDrainRate:6
CircleSize:3
OverallDifficulty:6
ApproachRate:8
SliderMultiplier:1
SliderTickRate:2

[Events]
//Background and Video events
Video,1346,"sexy.avi"
0,0,"Nikki.png",0,0
//Break Periods
//Storyboard Layer 0 (Background)
//Storyboard Layer 1 (Fail)
//Storyboard Layer 2 (Pass)
//Storyboard Layer 3 (Foreground)
//Storyboard Sound Samples
//Background Colour Transformations
3,100,0,0,0

[TimingPoints]
2066,214.285714285714,4,2,1,80,1,0
10637,-100,4,2,1,70,0,0
12351,-100,4,2,1,80,0,0
67208,-100,4,2,1,80,0,1
79208,-100,4,2,1,80,0,0
80923,-100,4,2,1,80,0,1
93780,-100,4,2,1,80,0,0
94208,-100,4,2,1,5,0,0

[Colours]
Combo1 : 255,255,45
Combo2 : 255,159,64
Combo3 : 83,169,255
Combo4 : 255,83,255

[HitObjects]
256,92,2066,2,0,B|156:84,2,100
256,192,2708,1,0,0:0:0:0:
256,292,2923,6,0,B|356:300,2,100
256,192,3565,1,0,0:0:0:0:
356,191,3780,6,0,B|364:92,2,100
256,192,4422,1,0,0:0:0:0:
156,192,4637,6,0,B|148:292,2,100
256,192,5279,1,8,0:0:0:0:
256,292,5494,6,0,B|296:328|356:332|404:304|424:256,1,200,4|0,0:0|0:0,0:0:0:0:
388,164,6137,1,8,0:0:0:0:
296,128,6351,2,0,B|196:128,1,100,0|8,0:0|0:0,0:0:0:0:
156,220,6780,2,0,B|256:220,1,100,0|8,0:0|0:0,0:0:0:0:
212,312,7208,6,0,B|156:340|112:332|64:300|56:244,1,200
80,148,7851,1,8,0:0:0:0:
164,92,8065,2,0,B|256:128,1,100,0|8,0:0|0:0,0:0:0:0:
256,228,8494,2,0,B|162:191,1,100,0|8,0:0|0:0,0:0:0:0:
184,296,8923,6,0,B|224:332|284:336|332:308|352:256,1,200,4|0,0:0|0:0,0:0:0:0:
336,160,9565,1,8,0:0:0:0:
256,100,9780,2,0,B|156:100,1,100,0|8,0:0|0:0,0:0:0:0:
120,192,10208,2,0,B|220:192,1,100,0|8,0:0|0:0,0:0:0:0:
256,284,10637,6,6,B|168:292|92:236|68:148|92:52|164:-12|256:-36|348:-12|420:52|440:160|360:256|256:240,1,800,0|4,0:0|0:0,0:0:0:0:
200,156,12565,6,0,B|232:116|288:112,1,100,8|0,0:0|0:0,0:0:0:0:
376,160,12994,2,0,B|416:200|468:192,2,100,8|0|8,0:0|0:0|0:0,0:0:0:0:
464,112,13637,6,0,B|520:144|536:188|536:236|496:280,1,200
404,320,14280,1,8,0:0:0:0:
312,276,14494,2,0,B|256:192,1,100,0|8,0:0|0:0,0:0:0:0:
172,136,14923,6,0,B|120:144|88:184,1,100,0|8,0:0|0:0,0:0:0:0:
180,220,15351,2,0,B|133:245|117:293,1,100,0|8,0:0|0:0,0:0:0:0:
216,304,15780,6,0,B|272:288|296:240|292:180|244:148,1,200,4|0,0:0|0:0,0:0:0:0:
144,144,16423,1,8,0:0:0:0:
244,148,16637,6,0,B|300:159|345:119|362:68|334:17,1,200,0|0,0:0|0:0,0:0:0:0:
240,48,17280,1,8,0:0:0:0:
334,17,17494,6,0,B|387:-4|439:25|465:72|447:127,1,200,0|0,0:0|0:0,0:0:0:0:
368,192,18137,1,8,0:0:0:0:
272,164,18351,6,0,B|216:168|188:212,1,100,12|12,0:0|0:0,0:0:0:0:
221,313,18780,2,0,B|232:262|284:240,1,100,12|12,0:0|0:0,0:0:0:0:
308,336,19208,6,0,B|280:380|220:392|168:376|136:332,1,200,4|0,0:0|0:0,0:0:0:0:
72,256,19851,1,8,0:0:0:0:
100,160,20065,6,0,B|128:116|188:104|240:120|272:164,1,200,0|0,0:0|0:0,0:0:0:0:
240,260,20708,1,8,0:0:0:0:
308,336,20923,6,0,B|392:280|392:280|436:192,1,200
336,192,21565,1,8,0:0:0:0:
256,132,21780,6,0,B|256:32,1,100,0|8,0:0|0:0,0:0:0:0:
176,88,22208,2,0,B|176:188,1,100,0|8,0:0|0:0,0:0:0:0:
96,244,22637,6,0,B|96:144|96:144|28:72,1,200,4|0,0:0|0:0,0:0:0:0:
0,172,23280,1,8,0:0:0:0:
96,144,23494,6,0,B|196:160|196:160|256:240,1,200
156,252,24137,1,8,0:0:0:0:
196,160,24351,6,0,B|280:104|280:104|384:104,1,200
428,192,24994,1,8,0:0:0:0:
372,276,25208,6,0,B|288:328,2,100,12|0|8,0:0|0:0|0:0,0:0:0:0:
316,192,25851,1,8,0:0:0:0:
216,192,26065,6,0,B|166:163|154:114|180:64,1,150,4|0,0:0|0:0,0:0:0:0:
32,92,26708,2,0,B|5:142|17:191|67:220,1,150,8|0,0:0|0:0,0:0:0:0:
208,280,27351,5,0,0:0:0:0:
256,192,27565,1,8,0:0:0:0:
304,104,27780,2,0,B|356:80|408:84|444:116,1,150
444,267,28423,2,0,B|408:300|356:304|304:280,1,150,8|0,0:0|0:0,0:0:0:0:
256,140,29065,5,0,0:0:0:0:
156,120,29280,1,8,0:0:0:0:
56,132,29494,2,0,B|56:208|56:208|104:264,1,150
256,264,30137,2,0,B|304:208|304:208|304:132,1,150,8|0,0:0|0:0,0:0:0:0:
428,48,30780,5,0,0:0:0:0:
488,128,30994,1,8,0:0:0:0:
460,224,31208,2,0,B|416:264|368:264|324:232,1,150
256,100,31851,2,0,B|211:67|163:67|119:107,1,150,8|0,0:0|0:0,0:0:0:0:
108,156,32280,6,0,B|108:256,1,100,12|12,0:0|0:0,0:0:0:0:
196,300,32708,1,8,0:0:0:0:
296,296,32923,6,0,B|340:264|364:224|352:164,2,150,4|0|8,0:0|0:0|0:0,0:0:0:0:
256,152,33887,2,0,B|200:104|200:104|124:96,1,150
92,192,34423,1,8,0:0:0:0:
116,288,34637,6,0,B|160:316|216:320|256:288,2,150,0|0|8,0:0|0:0|0:0,0:0:0:0:
256,172,35601,2,0,B|324:196|324:196|370:257,1,150
352,356,36137,1,8,0:0:0:0:
256,322,36351,6,0,B|256:172,2,150,0|0|8,0:0|0:0|0:0,0:0:0:0:
108,344,37315,2,0,B|48:304|48:304|28:228,1,150
52,132,37851,1,8,0:0:0:0:
144,100,38065,6,0,B|196:100|196:100|240:124|240:124|288:124,2,150,0|0|8,0:0|0:0|0:0,0:0:0:0:
100,192,38923,1,12,0:0:0:0:
140,284,39137,1,12,0:0:0:0:
236,308,39351,1,12,0:0:0:0:
324,264,39565,1,8,0:0:0:0:
340,164,39780,6,0,B|384:128|436:152,2,100,4|8|0,0:0|0:0|0:0,0:0:0:0:
256,220,40423,1,8,0:0:0:0:
172,164,40637,2,0,B|128:128|76:152,2,100,0|8|0,0:0|0:0|0:0,0:0:0:0:
256,220,41280,1,8,0:0:0:0:
256,120,41494,6,0,B|276:72|332:48|388:56|424:100,1,200
448,196,42137,1,8,0:0:0:0:
348,196,42351,2,0,B|308:232|316:288,1,100,0|8,0:0|0:0,0:0:0:0:
244,356,42780,2,0,B|196:340|172:292,1,100,0|8,0:0|0:0,0:0:0:0:
156,192,43208,6,0,B|104:180|64:216,2,100,0|8|0,0:0|0:0|0:0,0:0:0:0:
256,212,43851,1,8,0:0:0:0:
356,192,44065,2,0,B|408:180|448:216,2,100,0|8|0,0:0|0:0|0:0,0:0:0:0:
256,212,44708,1,8,0:0:0:0:
256,112,44923,6,0,B|304:24,1,100,0|8,0:0|0:0,0:0:0:0:
404,36,45351,2,0,B|356:124,2,100,0|8|0,0:0|0:0|0:0,0:0:0:0:
452,52,45887,6,0,B|488:96|480:148,1,100,12|0,0:0|0:0,0:0:0:0:
436,164,46208,2,0,B|408:208|428:264,1,100,12|0,0:0|0:0,0:0:0:0:
392,356,46637,6,0,B|296:376,1,100,4|8,0:0|0:0,0:0:0:0:
244,288,47065,2,0,B|340:268,1,100,0|8,0:0|0:0,0:0:0:0:
348,168,47494,5,0,0:0:0:0:
256,128,47708,1,8,0:0:0:0:
164,168,47923,1,0,0:0:0:0:
170,267,48137,1,8,0:0:0:0:
104,344,48351,6,0,B|48:344|12:308,1,100,0|8,0:0|0:0,0:0:0:0:
0,208,48780,2,0,B|56:208|92:172,1,100,0|8,0:0|0:0,0:0:0:0:
16,104,49208,2,0,B|28:56|80:24|140:28|180:64,1,200
256,132,49851,1,8,0:0:0:0:
256,232,50065,6,0,B|268:284|320:304,1,100,0|8,0:0|0:0,0:0:0:0:
392,236,50494,2,0,B|340:216|328:164,1,100,0|8,0:0|0:0,0:0:0:0:
424,136,50923,2,0,B|480:148|516:192|516:256|480:292,1,200
388,324,51565,1,8,0:0:0:0:
296,288,51780,6,0,B|260:252|256:196,1,100,0|8,0:0|0:0,0:0:0:0:
304,112,52208,2,0,B|340:148|344:204,2,100,0|8|0,0:0|0:0|0:0,0:0:0:0:
256,96,52744,6,0,B|156:96,1,100,12|0,0:0|0:0,0:0:0:0:
140,144,53065,2,0,B|240:144,1,100,12|0,0:0|0:0,0:0:0:0:
256,244,53494,1,0,0:0:0:0:
156,244,53708,6,0,B|100:248|60:216|36:164|52:108,1,200,12|8,0:0|0:0,0:0:0:0:
128,48,54351,2,0,B|224:28,1,100,0|8,0:0|0:0,0:0:0:0:
256,124,54780,2,0,B|160:144,1,100,0|8,0:0|0:0,0:0:0:0:
156,244,55208,6,0,B|192:284|244:292|296:280|344:264|376:208|376:148|368:84|320:48,1,400,4|0,0:0|0:0,0:0:0:0:
256,124,56280,1,8,0:0:0:0:
288,220,56494,1,0,0:0:0:0:
384,251,56708,2,0,B|437:249|468:206,2,100,8|0|12,0:0|0:0|0:0,0:0:0:0:
360,156,57351,5,0,0:0:0:0:
288,84,57565,1,8,0:0:0:0:
188,80,57780,2,0,B|136:104|120:152|136:208,2,150
236,168,58637,6,0,B|264:220|248:276|208:316|156:332|104:328|60:292,1,300,4|0,0:0|0:0,0:0:0:0:
28,196,59494,2,0,B|48:100,1,100,8|8,0:0|0:0,0:0:0:0:
148,96,59923,2,0,B|128:192,2,100,8|10|0,0:0|0:0|0:0,0:0:0:0:
240,52,60565,6,0,B|288:36,1,50,12|0,0:0|0:0,0:0:0:0:
336,28,60780,2,0,B|396:108|396:108|396:208,1,200
312,264,61423,1,8,0:0:0:0:
216,244,61637,2,0,B|184:200|200:148,1,100,0|8,0:0|0:0,0:0:0:0:
108,112,62065,6,0,B|72:152|64:212|80:268|104:316|152:348|204:360|248:360|300:336,1,400,4|0,0:0|0:0,0:0:0:0:
356,256,63137,1,8,0:0:0:0:
344,156,63351,2,0,B|312:112|260:100,2,100,0|8|0,0:0|0:0|0:0,0:0:0:0:
256,200,63994,6,0,B|198:183|167:145|157:80|184:42,1,200,12|8,0:0|0:0,0:0:0:0:
284,28,64637,1,2,0:0:0:0:
416,96,64958,1,2,0:0:0:0:
404,244,65280,1,2,0:0:0:0:
316,292,65494,6,0,B|240:276|240:276|192:220,1,150,4|4,0:0|0:0,0:0:0:0:
360,212,66137,2,0,B|284:196|284:196|236:140,1,150,4|4,0:0|0:0,0:0:0:0:
348,40,66780,2,0,B|445:60,1,100,8|8,0:0|0:0,0:0:0:0:
488,152,67208,6,0,B|456:192|400:208|344:192|312:148,1,200,4|0,0:0|0:0,0:0:0:0:
256,68,67851,2,0,B|214:98|198:154|214:210|254:242,1,200,8|8,0:0|0:0,0:0:0:0:
340,296,68494,2,0,B|308:335|252:351|196:335|165:294,1,200
136,200,69137,5,8,0:0:0:0:
164,104,69351,1,0,0:0:0:0:
256,68,69565,2,0,B|256:268,1,200,8|8,0:0|0:0,0:0:0:0:
356,284,70208,1,0,0:0:0:0:
424,212,70423,1,8,0:0:0:0:
412,112,70637,6,0,B|400:56|356:28|292:28|256:68,1,200
256,168,71280,1,8,0:0:0:0:
256,268,71494,2,0,B|220:308|156:308|112:280|100:224,1,200
116,124,72137,1,8,0:0:0:0:
204,80,72351,6,0,B|248:108|304:100,1,100,0|8,0:0|0:0,0:0:0:0:
388,144,72780,2,0,B|356:185|305:197,1,100,0|8,0:0|0:0,0:0:0:0:
256,192,73101,2,0,B|216:228|216:280,1,100
256,312,73423,2,0,B|300:344|352:340,1,100,8|0,0:0|0:0,0:0:0:0:
444,312,73851,1,8,0:0:0:0:
484,220,74065,6,0,B|497:169|473:114|420:87|369:97,1,200,4|0,0:0|0:0,0:0:0:0:
340,192,74708,2,0,B|312:236|256:256|199:236|171:192,1,200,8|8,0:0|0:0,0:0:0:0:
142,97,75351,2,0,B|91:87|38:114|14:169|28:220,1,200
80,304,75994,5,8,0:0:0:0:
176,328,76208,1,0,0:0:0:0:
256,264,76423,1,8,0:0:0:0:
256,164,76637,2,0,B|244:112|196:88,2,100,0|8|0,0:0|0:0|0:0,0:0:0:0:
256,264,77280,1,8,0:0:0:0:
344,312,77494,6,0,B|394:323|448:297|474:244|462:193,1,200
408,108,78137,1,8,0:0:0:0:
308,108,78351,1,0,0:0:0:0:
256,192,78565,1,8,0:0:0:0:
256,292,78780,2,0,B|232:340|176:344,1,100,0|8,0:0|0:0,0:0:0:0:
80,316,79208,6,0,B|24:264|24:264|12:192,2,150,4|4|4,0:0|0:0|0:0,0:0:0:0:
108,220,80065,2,0,B|164:168|164:168|176:96,2,150,4|4|4,0:0|0:0|0:0,0:0:0:0:
84,124,80923,5,12,0:0:0:0:
120,32,81137,1,8,0:0:0:0:
220,20,81351,1,8,0:0:0:0:
284,96,81565,1,8,0:0:0:0:
256,192,81780,1,8,0:0:0:0:
228,288,81994,1,8,0:0:0:0:
292,364,82208,1,8,0:0:0:0:
392,352,82423,1,8,0:0:0:0:
428,260,82637,6,0,B|404:164,1,100,8|8,0:0|0:0,0:0:0:0:
304,152,83065,2,0,B|328:248,1,100,8|8,0:0|0:0,0:0:0:0:
244,308,83494,2,0,B|148:280,1,100,8|8,0:0|0:0,0:0:0:0:
140,180,83923,2,0,B|236:208,1,100,0|8,0:0|0:0,0:0:0:0:
328,248,84351,5,12,0:0:0:0:
412,192,84565,1,8,0:0:0:0:
416,92,84780,1,8,0:0:0:0:
340,28,84994,1,8,0:0:0:0:
240,44,85208,1,8,0:0:0:0:
192,132,85423,1,8,0:0:0:0:
232,224,85637,1,8,0:0:0:0:
328,248,85851,1,8,0:0:0:0:
412,192,86065,6,0,B|452:228|447:281,1,100,8|8,0:0|0:0,0:0:0:0:
392,364,86494,2,0,B|358:323|304:326,1,100,8|8,0:0|0:0,0:0:0:0:
208,326,86923,2,0,B|154:323|120:364,1,100,8|8,0:0|0:0,0:0:0:0:
64,281,87352,2,0,B|60:228|100:192,1,100,8|8,0:0|0:0,0:0:0:0:
200,192,87780,5,12,0:0:0:0:
292,232,87994,1,8,0:0:0:0:
388,208,88208,2,0,B|432:176|440:124,1,100,8|8,0:0|0:0,0:0:0:0:
356,72,88637,6,0,B|256:72,1,100,8|8,0:0|0:0,0:0:0:0:
176,132,89065,1,8,0:0:0:0:
152,228,89280,1,8,0:0:0:0:
228,292,89494,6,0,B|280:296|316:256,1,100,8|8,0:0|0:0,0:0:0:0:
324,156,89923,2,0,B|376:152|412:192,1,100,8|8,0:0|0:0,0:0:0:0:
476,268,90351,2,0,B|520:236|532:180|516:128|468:100,1,200,8|8,0:0|0:0,0:0:0:0:
372,72,90994,1,8,0:0:0:0:
276,96,91208,6,0,B|256:192,1,100,12|8,0:0|0:0,0:0:0:0:
160,228,91637,2,0,B|180:132,1,100,8|8,0:0|0:0,0:0:0:0:
108,60,92065,6,0,B|16:96,1,100,8|8,0:0|0:0,0:0:0:0:
88,167,92494,2,0,B|181:130,1,100,8|8,0:0|0:0,0:0:0:0:
276,96,92923,5,12,0:0:0:0:
364,140,93137,1,12,0:0:0:0:
380,240,93351,1,12,0:0:0:0:
304,304,93565,1,8,0:0:0:0:
256,216,93780,6,0,B|256:64,1,150,8|8,0:0|0:0,0:0:0:0:
