osu file format v9

[General]
AudioFilename: Mirai Nikki OP - Kuusou Mesorogiwi (TV Size).mp3
AudioLeadIn: 2000
PreviewTime: 51653
Countdown: 0
SampleSet: Soft
StackLeniency: 0.7
Mode: 0
LetterboxInBreaks: 1

[Editor]
Bookmarks: 42919,60658,77484,85865
DistanceSpacing: 1.2
BeatDivisor: 4
GridSize: 8

[Metadata]
Title:Kuusou Mesorogiwi (TV Size)
Artist:Yousei Teikoku
Creator:Mafiamaster
Version:Mafia
Source:Mirai Nikki
Tags:kite osuplayer111 andrea lolcubes kds louis cyphre lucifer opening

[Difficulty]
HPDrainRate:7
CircleSize:4
OverallDifficulty:7
ApproachRate:9
SliderMultiplier:1.4
SliderTickRate:2

[Events]
//Background and Video events
0,0,"sexy.jpg"
Video,0,"Mirai Nikki - OP.avi"
//Break Periods
//Storyboard Layer 0 (Background)
//Storyboard Layer 1 (Fail)
//Storyboard Layer 2 (Pass)
//Storyboard Layer 3 (Foreground)
//Storyboard Sound Samples
//Background Colour Transformations
3,100,163,162,255

[TimingPoints]
131,260.869565217391,4,2,0,80,1,0
197,-200,4,2,0,80,0,0
4305,-200,4,2,0,10,0,0
6131,-200,4,2,0,80,0,0
8474,-100,4,2,1,80,0,0
13370,-100,4,2,2,80,0,0
13501,-100,4,2,1,80,0,0
18066,-100,4,2,2,80,0,0
18196,-100,4,2,1,50,0,0
18327,-100,4,2,1,80,0,0
22240,-100,4,2,2,80,0,0
22370,-100,4,2,1,50,0,0
22566,-100,4,2,1,80,0,0
26213,-200,4,1,0,80,0,0
26284,-200,4,2,1,80,0,0
28175,-100,4,2,1,80,0,0
30387,-200,4,1,0,80,0,0
30458,-200,4,2,1,80,0,0
32479,-100,4,2,1,80,0,0
43827,-100,4,2,0,80,0,0
44088,-100,4,2,1,80,0,0
45914,-100,4,2,0,80,0,0
46175,-100,4,2,1,80,0,0
48001,-100,4,2,0,80,0,0
48262,-100,4,2,1,80,0,0
50153,-100,4,2,0,80,0,0
50349,-100,4,2,1,80,0,0
51197,-200,4,2,0,80,0,0
51523,-200,4,2,1,80,0,0
52175,-100,4,2,1,80,0,0
52305,-100,4,1,0,80,0,1
52436,-100,4,2,1,80,0,1
59739,-100,4,2,1,50,0,1
60000,-100,4,2,1,60,0,1
60261,-100,4,2,1,70,0,1
60522,-100,4,2,1,80,0,1
69001,-100,4,1,0,80,0,0
69066,-100,4,2,0,10,0,0
72262,-100,4,2,1,80,0,0
77349,-100,4,2,1,80,0,1
85631,-100,4,2,0,50,0,1
85696,-100,4,2,0,50,0,0
85762,-100,4,2,0,20,0,0

[Colours]
Combo1 : 136,0,0
Combo2 : 255,128,192
Combo3 : 103,103,103
Combo4 : 192,192,192

[HitObjects]
136,120,131,1,2
184,176,262,1,0
160,248,392,1,0
112,192,523,1,0
224,280,653,2,0,B|256:304|288:280,1,70,2|0
400,192,1045,1,0
352,248,1175,2,0,B|328:281|352:313,2,70,2|0|2
376,120,1827,1,0
328,176,1958,1,2
256,160,2088,1,0
184,176,2218,38,0,B|152:152|160:104,1,70,2|0
304,104,2610,1,0
256,232,2740,2,0,B|232:264|184:256,1,70,2|0
208,104,3131,1,0
328,176,3262,2,0,B|360:200|352:248,2,70,2|0|2
256,192,4305,12,0,5871
200,304,6392,6,0,B|224:336|256:344|256:344|288:336|312:304,1,140,2|2
368,192,7175,1,0
144,192,7436,1,2
336,112,7697,1,2
176,272,7958,1,2
256,88,8218,1,2
256,296,8479,38,0,B|256:336,2,35,4|0|0
336,272,8740,2,0,B|384:208|336:144,1,140,8|0
256,296,9131,1,0
256,208,9262,1,8
176,143,9392,2,0,B|128:208|176:272,1,140,0|0
256,296,9784,1,8
320,352,9914,2,0,B|256:400|192:352,1,140
112,320,10305,2,0,B|32:320,1,70,8|0
320,352,10566,6,0,B|352:368,2,35
256,296,10827,2,0,B|208:232|256:168,1,140,8|0
312,232,11218,2,0,B|392:232,2,70,0|8|0
336,152,11610,2,0,B|383:80|307:34,1,140,0|8
204,34,12001,2,0,B|128:80|176:152,1,140
256,136,12392,1,8
256,216,12523,1,0
256,296,12653,38,0,B|256:336,2,35,4|0|0
200,232,12914,6,0,B|224:200|256:192|256:192|288:200|312:232,1,140,8|0
312,320,13305,2,0,B|288:352|256:360|256:360|224:352|200:320,2,140,0|0|0
384,272,13958,1,8
424,344,14088,1,0
344,200,14349,1,0
384,272,14479,2,0,B|456:272,1,70,8|0
304,128,14740,38,0,B|352:128,2,35
264,56,15001,2,0,B|200:8|136:56,1,140,8|0
200,112,15392,2,0,B|184:184,1,70,0|8
120,152,15653,2,0,B|104:224,1,70,0|0
120,152,16045,6,0,B|120:112|120:112|96:72,1,70,8|0
184,184,16305,1,0
200,112,16436,2,0,B|200:72|200:72|176:32,2,70,0|8|0
368,64,16827,37,4
448,40,16958,1,0
488,112,17088,2,0,B|472:184,2,70,8|0|0
408,136,17479,1,0
448,208,17610,2,0,B|383:256|319:208,1,140,8|0
264,144,18001,2,0,B|312:209|264:273,2,140,0|8|8
224,72,18653,2,0,B|144:72,1,70,8|0
104,136,18914,5,0
184,168,19045,1,0
176,248,19175,1,8
256,280,19305,1,0
336,248,19436,1,0
328,168,19566,1,0
408,136,19697,1,8
80,56,19958,38,0,B|8:16,2,70,0|0|8
432,56,20479,2,0,B|504:16,2,70,0|8|8
256,200,21001,6,0,B|256:128,1,70,4|0
328,168,21262,1,8
256,280,21392,1,0
336,248,21523,1,0
184,168,21653,1,0
176,248,21784,1,8
256,96,22045,37,0
320,40,22175,2,0,B|255:-8|191:40,2,140,0|8|8
384,96,22827,2,0,B|456:96,1,70,8|0
416,176,23088,6,0,B|488:176,2,70,0|0|8
448,256,23479,2,0,B|376:256,2,70
416,336,23871,1,8
128,96,24131,38,0,B|80:152,2,70,0|0|8
184,32,24523,1,8
384,96,24653,6,0,B|432:152,2,70,0|8|8
328,32,25044,1,8
168,184,25175,38,0,B|136:200,2,35,4|0|0
296,112,25436,1,8
216,112,25566,1,8
344,184,25696,2,0,B|376:200,2,35,4|0|0
256,248,25957,1,12
256,264,26023,1,8
256,280,26088,1,8
256,296,26153,1,8
256,312,26218,22,0,B|192:360|192:272|128:312,1,140,4|2
72,248,27001,1,2
40,224,27131,1,0
16,192,27262,1,0
40,160,27392,1,2
72,136,27523,2,0,B|144:136,2,70,0|2|2
464,120,28305,38,0,B|408:80,1,70,4|0
352,280,28566,2,0,B|338:211,1,70,2|0
424,208,28827,2,0,B|383:151,2,70,0|0|2
48,120,29349,38,0,B|104:80,1,70
160,280,29610,2,0,B|176:200,1,70,2|0
88,208,29871,2,0,B|128:152,2,70,0|0|2
160,280,30262,1,2
256,312,30392,38,0,B|320:360|320:272|384:312,1,140,4|2
440,248,31175,1,2
472,224,31305,1,0
496,192,31436,1,0
472,160,31566,1,2
440,136,31697,2,0,B|368:136,2,70,0|2|2
472,112,32349,1,0
504,88,32479,6,0,B|520:16,2,70,6|0|2
440,32,32870,1,0
384,96,33001,1,0
320,40,33131,1,0
264,104,33262,1,2
336,344,33523,6,0,B|367:320|352:281,2,70,0|0|2
256,360,33914,1,0
176,344,34045,2,0,B|144:320|159:281,2,70,0|0|2
256,360,34436,1,2
344,224,34566,38,0,B|368:192|344:160,1,70,12|0
216,160,34827,2,0,B|191:192|215:224,1,70,8|0
296,224,35088,2,0,B|320:192|296:160,1,70,8|0
168,159,35349,2,0,B|144:192|168:224,2,70,8|0|0
128,86,35740,2,0,B|144:48|179:44,1,70,0|8
256,96,36001,2,0,B|256:16,1,70,0|0
332,44,36262,2,0,B|368:48|383:86,1,70,0|8
168,224,36653,6,0,B|144:192|168:159,1,70,8|0
295,159,36914,2,0,B|320:192|296:224,1,70,8|0
215,224,37175,2,0,B|191:192|216:160,1,70,8|0
343,159,37436,2,0,B|368:192|344:224,2,70,8|0|0
424,128,37827,2,0,B|376:56,1,70,0|8
385,314,38088,2,0,B|424:256,1,70,0|0
480,192,38349,1,8
400,192,38479,2,8,B|368:216,3,35
400,192,38740,38,0,B|328:208,1,70,12|0
256,168,39001,1,8
200,232,39131,2,0,B|152:167|200:103,1,140,0|0
128,56,39523,1,8
104,136,39653,2,0,B|152:201|104:265,1,140,0|8
40,320,40045,2,0,B|40:360|80:384,2,70,0|0|8
8,240,40436,1,0
32,160,40566,1,8
256,32,40827,5,8
216,104,40958,1,0
256,176,41088,1,8
296,104,41218,2,0,B|440:104,1,140,0|0
384,32,41610,1,8
464,40,41740,2,0,B|512:105|464:169,1,140,0|8
384,192,42131,1,0
368,112,42262,1,0
448,128,42392,2,0,B|496:193|448:257,1,140,8|8
256,192,42914,37,4
184,40,43175,1,8
256,88,43305,1,0
328,40,43436,1,0
128,144,43697,5,8
432,240,43958,1,2
80,240,44218,1,8
384,144,44479,1,0
128,336,44740,1,8
384,336,45001,1,0
168,24,45262,37,8
256,104,45392,1,0
344,24,45523,1,0
384,240,45784,5,8
256,136,46045,1,2
40,320,46305,1,8
472,320,46566,1,0
128,240,46827,1,8
256,344,47088,1,4
152,24,47349,37,8
256,120,47479,1,0
360,24,47610,1,0
72,152,47871,5,8
416,320,48131,1,2
256,192,48392,1,8
96,320,48653,1,0
440,152,48914,1,8
256,272,49175,1,0
168,24,49436,37,8
256,104,49566,1,0
344,24,49697,1,0
184,40,49958,5,8
256,88,50088,1,0
328,40,50217,1,2
200,56,50479,37,8
256,88,50609,1,0
312,56,50740,2,0,B|351:79|344:112,1,70,8|0
200,56,51001,2,0,B|160:79|167:112,1,70,8|0
256,88,51262,22,0,B|256:104|256:104|248:112|248:112|264:120|264:120|248:128|248:128|264:136|264:136|248:144|248:144|264:152|264:152|256:160|256:160|256:176,1,140,2|4
0,216,52305,38,0,B|80:216|104:304,1,140,4|2
96,384,52697,2,0,B|96:304|184:280,1,140
264,296,53088,2,0,B|184:296|160:208,1,140,2|0
256,80,53610,37,2
336,112,53740,1,0
416,80,53871,2,0,B|488:80,2,70,0|0|2
200,360,54392,2,0,B|152:295|200:231,1,140,0|2
312,360,54784,2,0,B|360:295|312:231,1,140,0|0
256,296,55175,2,0,B|256:152,2,140,2|0|2
256,384,55827,1,0
144,336,55958,5,0
368,336,56218,1,2
512,216,56479,38,0,B|432:216|408:304,1,140,4|2
416,384,56871,2,0,B|416:304|328:280,1,140
248,296,57262,2,0,B|328:296|352:208,1,140,2|0
256,80,57784,5,2
176,112,57914,1,0
96,80,58045,2,0,B|24:80,2,70,0|0|2
64,160,58436,1,0
144,192,58566,2,0,B|96:257|144:321,1,140,0|2
256,348,58958,2,0,B|256:208,1,140
368,192,59349,2,0,B|416:257|368:321,1,140,2|0
256,24,59871,5,6
256,40,60131,1,4
256,56,60392,1,6
256,72,60653,38,0,B|256:152,1,70,4|0
224,216,60914,2,0,B|256:232|256:232|288:216,1,70,8|0
360,176,61175,1,8
400,160,61240,1,0
440,176,61305,1,0
400,248,61436,1,0
400,72,61566,38,0,B|368:32|328:72|328:72|296:24,1,140,8|0
214,25,61958,2,0,B|184:72|184:72|144:32|112:72,1,140,8|8
72,144,62349,5,0
136,200,62479,1,0
216,168,62610,2,0,B|208:240,1,70,8|0
296,168,62871,2,0,B|304:248,1,70,0|8
376,200,63131,1,0
440,144,63262,2,0,B|424:104,2,35,8|0|0
488,216,63523,1,0
400,312,63653,38,0,B|368:336|360:376|360:376|296:360,1,140,8|0
213,360,64045,2,0,B|152:376|152:376|144:336|112:312,1,140,8|8
32,296,64436,1,8
48,376,64566,5,0
16,216,64697,1,8
40,56,64827,38,0,B|64:128,1,70,4|0
144,104,65088,2,0,B|120:176,1,70,8|0
200,200,65349,2,0,B|168:224,2,35,8|0|0
272,152,65610,1,0
224,80,65740,1,8
296,32,65871,6,0,B|368:56,1,70,0|8
216,32,66131,2,0,B|144:56,1,70,0|0
256,96,66392,1,8
256,136,66457,1,0
256,176,66523,1,8
336,152,66653,37,0
176,152,66783,1,8
256,248,66914,1,4
256,248,67175,1,8
104,224,67436,5,8
80,192,67501,1,0
104,160,67566,1,0
40,264,67697,1,8
16,232,67762,1,0
0,192,67827,1,8
16,152,67892,1,0
40,120,67958,37,4
168,24,68218,1,0
168,24,68349,1,4
344,24,68610,1,0
344,24,68740,1,4
472,120,69001,1,4
256,192,69131,12,0,72131
296,32,72392,6,0,B|312:64|312:64|312:104,1,70,2|0
216,32,72653,2,0,B|200:64|200:64|200:104,2,70,2|0|0
256,160,73044,1,0
200,248,73175,38,0,B|186:315|186:315|122:347,1,140,2|2
120,264,73566,1,0
312,136,73696,2,0,B|326:69|326:69|390:37,1,140,10|2
392,120,74087,1,0
200,136,74218,6,0,B|133:122|133:122|101:58,1,140,2|2
184,56,74609,1,0
312,248,74740,2,0,B|379:262|379:262|411:326,1,140,10|2
328,328,75131,1,0
464,120,75262,38,0,B|424:64|424:64|352:48,1,140,2|2
312,56,75588,1,0
296,96,75653,1,0
48,120,75783,2,0,B|88:64|88:64|160:48,1,140,10|2
200,56,76109,1,0
216,96,76174,1,0
200,312,76305,6,10,B|160:360|120:312,2,93.3333333333333
312,312,76827,2,10,B|352:360|392:312,2,93.3333333333333
256,216,77349,1,14
336,240,77479,6,0,B|384:184,1,70,0|2
304,104,77740,2,0,B|328:72|368:80,1,70,0|0
256,240,78001,2,0,B|256:160,1,70,0|2
208,104,78262,2,0,B|184:72|144:80,1,70,0|0
176,240,78523,2,0,B|128:184,1,70,0|2
168,328,78783,2,0,B|128:336|104:296,1,70,2|0
404,301,79044,2,0,B|384:336|344:328,1,70,0|2
256,360,79305,1,0
256,272,79436,1,0
192,80,79566,6,0,B|144:72|144:72|120:40,1,70,0|2
160,152,79827,2,0,B|88:144,1,70,0|0
160,232,80088,2,0,B|88:240,2,70,0|2|0
192,304,80479,21,0
320,80,80610,1,0
192,80,80740,1,2
320,304,80870,38,0,B|385:352|449:304,1,140,2|2
320,80,81262,2,0,B|385:32|449:80,1,140,2|4
384,136,81653,21,0
448,192,81784,1,2
384,248,81914,1,0
320,304,82045,1,0
256,272,82175,2,0,B|256:200,2,70,0|2|0
256,352,82566,1,0
192,304,82697,5,0
128,248,82827,1,2
64,192,82958,1,2
128,136,83088,1,0
192,80,83218,1,0
256,24,83349,2,0,B|256:96,2,70,2|0|0
320,304,83740,38,0,B|368:312|368:312|392:344,1,70,0|2
352,232,84001,2,0,B|424:240,1,70,0|0
352,152,84262,2,0,B|424:144,1,70,0|2
320,80,84523,1,0
256,136,84653,1,2
192,80,84783,1,2
256,24,84914,1,0
312,200,85045,2,0,B|288:232|256:240|256:240|224:232|200:200,1,140,2|2
256,136,85436,1,2
256,136,85566,2,0,B|256:216,1,70,2|4
208,360,85860,38,0,B|160:296|208:232,1,140,0|0
304,24,86316,2,0,B|352:88|304:152,1,140,0|0
