osu file format v9

[General]
AudioFilename: Mirai Nikki OP - Kuusou Mesorogiwi (TV Size).mp3
AudioLeadIn: 2000
PreviewTime: 51653
Countdown: 0
SampleSet: Soft
StackLeniency: 0.7
Mode: 0
LetterboxInBreaks: 1

[Editor]
Bookmarks: 42919,60658,85865
DistanceSpacing: 1
BeatDivisor: 6
GridSize: 4

[Metadata]
Title:Kuusou Mesorogiwi (TV Size)
Artist:Yousei Teikoku
Creator:Mafiamaster
Version:Kite
Source:Mirai Nikki
Tags:kite osuplayer111 andrea lolcubes kds louis cyphre lucifer opening

[Difficulty]
HPDrainRate:7
CircleSize:4
OverallDifficulty:7
ApproachRate:9
SliderMultiplier:1.6
SliderTickRate:2

[Events]
//Background and Video events
0,0,"sexy.jpg"
Video,0,"Mirai Nikki - OP.avi"
//Break Periods
//Storyboard Layer 0 (Background)
//Storyboard Layer 1 (Fail)
//Storyboard Layer 2 (Pass)
//Storyboard Layer 3 (Foreground)
//Storyboard Sound Samples
//Background Colour Transformations
3,100,163,162,255

[TimingPoints]
131,260.869565217391,4,2,0,80,1,0
648,-200,4,2,0,80,0,0
4300,-200,4,2,0,10,0,0
6130,-200,4,2,0,5,0,0
6387,-200,4,2,0,80,0,0
7431,-100,4,2,0,80,0,0
8474,-100,4,2,1,80,0,0
9262,-100,4,2,2,66,0,0
9327,-100,4,2,1,80,0,0
10566,-100,4,2,0,80,0,0
10827,-100,4,2,1,80,0,0
13436,-100,4,2,2,66,0,0
13501,-100,4,2,1,80,0,0
14740,-100,4,2,0,80,0,0
15001,-100,4,2,1,80,0,0
15783,-100,4,2,0,80,0,0
16044,-100,4,2,1,80,0,0
16175,-100,4,2,0,80,0,0
16566,-100,4,2,1,80,0,0
20218,-100,4,1,2,66,0,0
20283,-100,4,2,1,80,0,0
20740,-100,4,1,2,66,0,0
20805,-100,4,2,1,80,0,0
21001,-100,4,2,0,80,0,0
21262,-100,4,2,1,80,0,0
24392,-100,4,1,2,66,0,0
24457,-100,4,2,1,80,0,0
24914,-100,4,1,2,66,0,0
24979,-100,4,2,1,80,0,0
26213,-200,4,2,0,80,0,0
26740,-200,4,2,1,80,0,0
27262,-200,4,2,0,80,0,0
27783,-200,4,2,1,80,0,0
28170,-100,4,2,0,80,0,0
28566,-100,4,2,1,80,0,0
30387,-200,4,2,0,80,0,0
30914,-200,4,2,1,80,0,0
31436,-200,4,2,0,80,0,0
31957,-200,4,2,1,80,0,0
32474,-100,4,2,0,80,0,0
32740,-100,4,2,1,80,0,0
35740,-100,4,2,0,80,0,0
36126,-83.3333333333333,4,2,1,80,0,0
36518,-100,4,2,0,80,0,0
36653,-100,4,2,1,80,0,0
37827,-100,4,2,0,80,0,0
38213,-83.3333333333333,4,2,1,80,0,0
38735,-100,4,2,1,80,0,0
51192,-200,4,2,0,45,0,0
51457,-200,4,2,0,80,0,0
52170,-100,4,2,0,80,0,0
52304,-100,4,1,0,80,0,1
52441,-100,4,2,1,80,0,1
53479,-100,4,2,0,80,0,1
53610,-100,4,2,1,80,0,1
55957,-100,4,2,0,80,0,1
56218,-100,4,2,1,80,0,1
56479,-100,4,2,0,80,0,1
56544,-100,4,2,1,80,0,1
57653,-100,4,2,0,80,0,1
57783,-100,4,2,1,80,0,1
59870,-100,4,2,1,60,0,1
60131,-100,4,2,1,70,0,1
60653,-100,4,2,1,75,0,1
60718,-100,4,2,1,80,0,1
68935,-100,4,2,0,80,0,0
69000,-100,4,2,1,80,0,0
76305,-100,4,2,1,70,0,0
77282,-100,4,2,0,80,0,0
77348,-100,4,2,1,80,0,1
82305,-100,4,2,2,66,0,1
82370,-100,4,2,1,80,0,1
83349,-100,4,2,2,66,0,1
83414,-100,4,2,1,80,0,1
84392,-100,4,2,2,66,0,1
84457,-100,4,2,1,80,0,1
85695,-100,4,2,0,5,0,0
86739,-100,4,2,0,5,0,0

[Colours]
Combo1 : 136,0,0
Combo2 : 255,128,192
Combo3 : 103,103,103
Combo4 : 192,192,192

[HitObjects]
56,336,131,1,2
136,320,262,1,0
200,272,392,1,0
224,192,523,1,0
216,112,653,2,0,B|232:72|280:72,1,80,2|0
352,88,1045,37,0
376,160,1175,2,0,B|360:200|312:200,1,80,2|0
188,180,1566,1,0
112,172,1697,2,0,B|68:188|60:228,1,80,2|0
92,320,2088,1,0
164,352,2218,22,0,B|224:360|272:328|276:268,1,160,2|0
256,192,3001,1,0
235,116,3262,2,0,B|240:56|288:24|348:32,1,160,2|0
256,192,4305,12,0,6131
340,116,6392,6,0,B|396:104|444:144|428:216,1,160,2|0
352,192,7175,1,0
312,264,7436,6,0,B|280:296|208:292|188:216,1,160,2|0
144,152,7958,2,0,B|176:120|248:124|268:200,1,160,2|0
312,264,8479,6,0,B|348:288|388:272,1,80,4|0
512,212,8740,2,0,B|476:188|436:204,1,80,8|0
356,196,9001,1,0
356,196,9131,2,0,B|304:160|308:92|356:60,2,160
400,128,9784,1,8
400,128,9914,2,0,B|240:140,1,160
132,71,10305,2,0,B|212:64,1,80,8|0
92,160,10566,38,0,B|64:192,2,40,2|0|0
172,148,10827,2,0,B|208:176|228:240|176:292,1,160,8|0
104,324,11218,2,0,B|28:356,2,80,0|8|0
116,244,11610,2,0,B|152:192|212:188|256:224,1,160,0|8
308,284,12001,1,0
388,296,12131,2,0,B|432:300|460:260,1,80
392,216,12392,1,12
312,48,12653,6,0,B|272:32|236:56,1,80,4|0
128,148,12914,2,0,B|168:164|204:140,1,80,8|0
284,124,13175,1,0
284,124,13305,2,0,B|324:168|320:228|260:260,2,160
228,184,13958,1,8
228,184,14088,2,0,B|384:216,1,160
476,312,14479,2,0,B|396:296,1,80,8|0
472,216,14740,38,0,B|496:184,3,40,2|0|0|0
488,160,15001,2,0,B|500:116|472:84,1,80,8|0
368,20,15262,2,0,B|337:54|349:95,1,80
340,272,15523,2,0,B|377:246|376:203,1,80,8|0
308,160,15784,2,0,B|252:132|192:172|192:232,1,160,2|8
276,236,16175,2,0,B|180:104,1,160,2|0
181,106,16566,1,8
52,312,16827,5,4
128,332,16958,1,0
204,316,17088,1,2
264,264,17218,1,0
288,188,17349,2,0,B|287:124|345:89|399:109,1,160,0|2
397,109,17740,1,0
424,240,17871,38,0,B|368:184,2,80,0|0|2
488,192,18262,2,0,B|476:112,2,80
496,272,18653,6,0,B|504:336|440:368|384:340,1,160,2|0
320,300,19045,1,0
252,256,19175,1,2
172,248,19305,1,0
96,268,19436,1,0
152,324,19566,1,0
172,248,19697,2,0,B|184:176|116:168|100:108,1,160,2|0
180,88,20088,2,0,B|340:88,1,160
410,111,20479,1,0
410,111,20610,2,0,B|396:168|328:176|340:248,1,160
380,316,21001,38,0,B|420:340|460:316,2,80,2|0|2
300,316,21392,1,0
340,248,21523,2,0,B|300:224|260:248,2,80,0|0|2
420,248,21914,1,0
464,180,22045,6,0,B|496:152|504:112,2,80,0|0|2
400,132,22436,2,0,B|412:92|400:52,2,80,0|0|0
376,208,22827,38,0,B|336:256|268:248|236:200,1,160,2|0
212,128,23218,1,0
156,72,23349,1,2
76,60,23479,1,0
104,136,23610,1,0
156,72,23740,1,0
228,40,23871,6,0,B|288:8|340:24|372:72,1,160,2|0
284,120,24262,2,0,B|224:268,1,160
224,268,24653,1,0
284,344,24784,2,0,B|224:376|172:360|140:312,1,160
144,196,25175,37,4
144,196,25305,1,0
48,248,25436,1,2
48,248,25566,1,0
144,196,25697,2,0,B|124:160,3,40,2|0|0|0
136,132,25957,2,0,B|128:92,3,40,2|0|0|0
132,64,26218,22,0,B|104:36|60:32|20:56,1,120,2|0
20,55,26740,1,2
64,132,27001,1,0
76,168,27131,1,0
88,208,27262,2,0,B|112:240|160:236,1,80,2|0
204,172,27784,2,0,B|251:168|275:200,1,80,2|2
256,284,28305,38,0,B|284:316|332:304,1,80,2|0
460,304,28566,2,0,B|466:261|426:232,1,80,2|0
382,145,28827,2,0,B|340:146|320:188,1,80
256,284,29088,2,0,B|228:332|160:336|116:296,1,160,2|0
116,296,29479,1,0
160,228,29610,2,0,B|200:188|196:120|140:92,1,160,2|0
141,92,30001,1,0
104,168,30131,2,0,B|28:188,1,80,2|2
36,108,30392,22,0,B|20:68|44:24|92:20,1,120,2|0
89,20,30914,1,2
160,60,31175,1,0
196,72,31305,1,0
236,68,31436,2,0,B|276:52|316:68,1,80,2|0
296,144,31958,2,0,B|326:171|369:171,1,80,2|2
400,96,32479,6,0,B|439:112|457:151,1,80,2|0
464,304,32740,2,0,B|420:308|392:272,1,80,2|0
324,160,33001,2,0,B|289:130|247:142,1,80
120,176,33262,2,0,B|60:212|64:280|108:316,1,160,2|0
102,311,33653,1,0
172,272,33784,2,0,B|216:232|284:240|312:292,1,160,2|0
310,289,34175,1,0
400,340,34305,1,2
400,340,34436,1,2
404,240,34566,6,0,B|416:160,1,80,8|0
336,176,34827,2,0,B|340:96,1,80,8|0
256,132,35088,2,0,B|256:48,1,80,8|0
176,176,35349,2,0,B|172:96,1,80,8|0
108,240,35610,2,0,B|96:160,2,80,8|2|0
164,300,36001,1,2
164,300,36131,2,0,B|236:312|236:312|276:288|276:288|348:300,1,192.000004577637,8|8
347,299,36523,1,0
400,240,36653,38,0,B|444:232|464:192,1,80,8|0
380,144,36914,2,0,B|396:100|376:64,1,80,8|0
256,104,37175,2,0,B|256:24,1,80,8|0
132,144,37436,2,0,B|116:100|136:64,1,80,8|0
112,240,37697,2,0,B|68:232|48:192,2,80,8|2|0
256,200,38088,1,2
256,200,38218,2,0,B|276:276|276:276|240:296|240:296|256:368,1,192.000004577637,8|8
255,366,38545,1,0
255,366,38610,1,0
328,336,38740,6,0,B|404:312,1,80,2|0
448,244,39001,1,0
448,244,39131,2,0,B|484:192|468:132|412:112,1,160,2|0
412,112,39523,1,0
360,172,39653,2,0,B|312:208|248:188|232:132,1,160,2|0
312,104,40045,2,0,B|264:256,1,160,2|0
263,256,40436,1,0
164,300,40566,2,2,B|189:225,1,80
188,144,40827,37,2
136,80,40958,1,0
104,152,41088,1,0
188,144,41218,2,0,B|248:144|288:100|272:36,1,160,2|0
272,37,41610,1,0
196,64,41740,2,0,B|316:176,1,160,2|0
296,268,42131,2,0,B|237:213,2,80,0|2|2
368,232,42523,2,0,B|426:286,2,80,0|2|0
368,152,42914,6,0,B|344:104|364:40|432:28,1,160,6|8
448,116,43305,1,0
448,116,43436,2,0,B|300:60,1,160,0|8
213,59,43827,1,0
213,59,43958,2,0,B|64:116,1,160,0|8
64,116,44349,1,0
144,152,44479,38,0,B|168:104|148:40|80:28,2,160,0|8|0
256,268,45262,1,8
256,268,45392,1,0
368,152,45653,1,0
368,152,45783,2,0,B|344:104|364:40|432:28,2,160,8|0|8
140,244,46566,6,0,B|160:312|108:356|59:352,1,160,0|8
60,272,46958,1,0
60,272,47088,2,0,B|196:360,1,160,4|8
317,358,47479,1,0
317,358,47610,2,0,B|452:272,1,160,0|8
452,272,48001,1,0
453,352,48131,2,0,B|404:356|352:312|372:244,1,160,0|8
336,172,48523,2,0,B|280:152|232:184|176:172,1,160,0|0
177,172,48914,1,8
256,192,49045,12,4,51262
56,328,51784,6,0,B|56:284|92:252|140:264,1,120,4|2
216,272,52305,22,0,B|265:276|317:232|297:164,1,160,4|8
216,188,52697,2,0,B|194:143|130:120|81:171,1,160,2|0
144,228,53088,2,0,B|116:268|128:335|197:352,1,160,2|0
216,272,53479,5,2
284,316,53610,2,0,B|328:316|350:276,2,80,2|0|0
284,236,54001,2,0,B|315:204|302:161,2,80,0|2|0
228,180,54392,2,0,B|208:128|256:68|316:84,1,160,0|2
472,76,54784,2,0,B|492:128|444:188|384:172,1,160
392,92,55175,38,0,B|380:48|336:36,2,80,2|0|0
316,112,55566,2,0,B|276:89|236:112,2,80,0|2|0
276,184,55958,2,0,B|296:248|240:296|188:288,1,160,0|2
192,288,56349,1,0
200,208,56479,6,0,B|96:88,1,160,4|2
184,52,56871,2,0,B|224:12|288:12|328:52,1,160
416,87,57262,2,0,B|312:208,1,160,2|0
256,268,57653,37,2
184,300,57784,2,0,B|140:296|116:256,2,80,2|0|0
188,220,58175,2,0,B|156:188|164:148,2,80,0|2|0
240,160,58566,2,0,B|256:104|208:52|148:64,1,160,0|2
40,48,58958,2,0,B|-7:81|-3:152|51:180,1,160
128,208,59349,5,2
204,236,59479,1,0
252,300,59610,1,0
172,308,59740,1,0
204,236,59871,38,0,B|224:196|268:192,1,80,6|0
416,196,60131,2,0,B|396:236|352:240,2,80,6|0|2
344,164,60523,1,0
344,164,60653,6,0,B|316:104|352:48|408:44,1,160,6|8
416,124,61045,2,0,B|268:60,1,160
188,52,61436,1,8
116,84,61566,1,0
80,156,61697,1,0
80,236,61827,1,0
12,196,61958,1,8
80,156,62088,1,0
160,168,62218,38,0,B|208:164|228:200,1,80,2|0
304,312,62479,2,0,B|256:316|236:280,1,80,2|0
300,232,62740,6,0,B|320:180|383:162|432:206,1,160,6|8
374,266,63131,2,0,B|354:107,1,160
354,107,63523,1,8
296,52,63653,1,0
216,44,63784,1,0
140,68,63914,1,0
88,128,64045,1,8
64,52,64175,37,0
140,68,64305,1,0
200,124,64436,1,0
224,200,64566,1,8
220,280,64697,1,0
172,344,64827,6,0,B|128:360|92:332,2,80,6|0|2
144,268,65218,2,0,B|164:208|220:192|272:224,1,160
340,268,65610,1,2
420,256,65740,1,0
420,256,65871,2,0,B|480:240|504:192|476:128,1,160,2|0
408,176,66262,38,0,B|368:104,1,80,0|2
256,52,66523,2,0,B|292:124,1,80,0|2
312,200,66784,1,0
288,276,66914,2,0,B|272:340|212:356|160:324,1,160,6|0
20,248,67305,2,0,B|36:184|96:168|148:200,1,160,2|0
224,216,67697,1,2
284,164,67827,1,0
256,88,67958,5,2
364,260,68218,1,0
364,260,68349,1,2
148,260,68610,1,0
148,260,68739,1,2
256,88,69001,6,0,B|300:76|332:112,1,80,12|0
256,296,69262,2,0,B|212:308|180:272,1,80,8|0
360,192,69523,2,0,B|372:236|336:268,1,80,0|0
152,192,69784,2,0,B|140:148|176:116,1,80,0|0
360,144,70045,6,0,B|389:178|370:223,1,80,8|0
152,240,70305,2,0,B|122:205|141:160,1,80,8|0
304,296,70566,2,0,B|269:325|224:306,1,80
208,88,70826,2,0,B|242:58|287:77,1,80
356,276,71088,38,0,B|337:317|289:319,1,80,8|0
156,108,71349,2,0,B|174:66|222:64,1,80,8|0
172,292,71610,2,0,B|130:273|128:225,1,80
340,92,71871,2,0,B|381:110|383:158,1,80
256,192,72131,1,8
156,108,72392,21,0
256,296,72653,1,0
356,108,72914,1,0
184,244,73175,38,0,B|148:272|108:252,1,80,8|0
328,140,73436,2,0,B|364:112|404:132,1,80,8|0
204,120,73697,2,0,B|176:84|196:44,1,80
308,264,73958,2,0,B|336:300|316:340,1,80
168,177,74218,38,0,B|123:172|108:129,1,80,8|0
343,206,74479,2,0,B|388:211|403:254,1,80,8|0
270,104,74740,2,0,B|275:59|318:44,1,80
241,279,75001,2,0,B|236:324|193:339,1,80
204,120,75262,6,0,B|176:83|196:43,1,80,8|0
307,263,75523,2,0,B|336:300|316:340,1,80,8|0
327,140,75784,2,0,B|364:111|404:132,1,80
184,244,76045,2,0,B|147:272|107:252,1,80
84,136,76305,6,0,B|84:88|43:75|28:44,2,106.666666666667,8|8|8
164,136,76827,2,0,B|164:184|204:196|220:228,2,106.666666666667,8|8|8
248,68,77349,6,0,B|280:36|324:48,2,80,4|0|8
304,124,77740,2,0,B|349:124|371:163,2,80
304,204,78131,1,8
304,204,78262,2,0,B|292:268|336:312|392:308,1,160
384,228,78653,1,8
384,228,78784,2,0,B|252:324,1,160
136,308,79175,2,0,B|200:260,2,80,8|0|0
60,280,79566,37,0
28,208,79697,1,8
36,128,79827,1,0
92,68,79958,5,0
120,144,80088,1,0
192,180,80218,1,8
272,180,80349,1,0
232,112,80479,37,0
192,180,80610,1,0
200,260,80740,1,8
252,320,80871,2,0,B|292:372|352:372|392:336,1,160,0|0
488,240,81262,2,0,B|448:188|388:188|348:224,1,160,8|4
276,260,81653,37,0
196,276,81784,1,8
120,252,81914,1,0
80,184,82045,1,0
156,164,82175,2,0,B|212:136|228:88|196:28,1,160
420,60,82697,37,0
360,112,82827,1,8
332,188,82958,1,0
408,216,83088,1,0
436,292,83218,2,0,B|424:352|356:368|308:336,1,160
56,200,83740,5,0
96,132,83871,1,8
168,92,84001,1,0
208,160,84131,1,0
280,192,84262,38,0,B|340:224|396:200|408:144,1,160
407,145,84653,1,0
324,52,84784,1,0
324,52,84914,1,8
236,104,85045,2,0,B|176:136|120:112|108:56,1,160
108,57,85436,1,8
256,192,85697,12,0,86740
