osu file format v9

[General]
AudioFilename: Mirai Nikki OP - Kuusou Mesorogiwi (TV Size).mp3
AudioLeadIn: 2000
PreviewTime: 51653
Countdown: 0
SampleSet: Soft
StackLeniency: 0.7
Mode: 0
LetterboxInBreaks: 1

[Editor]
Bookmarks: 42919,60658,85865
DistanceSpacing: 1
BeatDivisor: 4
GridSize: 4

[Metadata]
Title:Kuusou Mesorogiwi (TV Size)
Artist:Yousei Teikoku
Creator:Mafiamaster
Version:Helel
Source:Mirai Nikki
Tags:kite osuplayer111 andrea lolcubes kds louis cyphre lucifer opening

[Difficulty]
HPDrainRate:4
CircleSize:3
OverallDifficulty:4
ApproachRate:5
SliderMultiplier:1
SliderTickRate:1

[Events]
//Background and Video events
0,0,"sexy.jpg"
Video,0,"Mirai Nikki - OP.avi"
//Break Periods
//Storyboard Layer 0 (Background)
//Storyboard Layer 1 (Fail)
//Storyboard Layer 2 (Pass)
//Storyboard Layer 3 (Foreground)
//Storyboard Sound Samples
//Background Colour Transformations
3,100,163,162,255

[TimingPoints]
131,260.869565217391,4,2,0,80,1,0
8675,-100,4,2,2,80,0,0
8805,-100,4,2,1,80,0,0
11805,-100,4,2,2,80,0,0
11936,-100,4,2,1,80,0,0
12327,-100,4,2,2,80,0,0
12457,-100,4,2,1,80,0,0
13892,-100,4,2,2,80,0,0
14023,-100,4,2,1,80,0,0
14414,-100,4,2,2,80,0,0
14544,-100,4,2,1,80,0,0
16044,-100,4,2,2,80,0,0
16175,-100,4,2,0,80,0,0
16501,-100,4,2,2,80,0,0
16631,-100,4,2,1,80,0,0
18066,-100,4,2,2,80,0,0
18196,-100,4,2,1,80,0,0
18588,-100,4,2,2,80,0,0
18718,-100,4,2,1,80,0,0
20153,-100,4,2,2,66,0,0
20283,-100,4,2,0,80,0,0
20675,-100,4,2,2,80,0,0
20805,-100,4,2,1,80,0,0
22240,-100,4,2,2,80,0,0
22370,-100,4,2,1,80,0,0
23805,-100,4,2,2,80,0,0
23936,-100,4,2,1,80,0,0
24327,-100,4,2,2,66,0,0
24457,-100,4,2,1,80,0,0
24849,-100,4,2,2,66,0,0
24979,-100,4,2,1,80,0,0
26153,-100,4,1,0,80,0,0
26349,-100,4,2,1,80,0,0
28170,-100,4,2,0,80,0,0
28501,-100,4,2,2,80,0,0
28631,-100,4,2,1,80,0,0
30327,-100,4,1,0,80,0,0
30457,-100,4,2,1,80,0,0
36518,-100,4,2,0,80,0,0
36653,-100,4,2,1,80,0,0
52304,-100,4,1,0,80,0,1
52441,-100,4,2,1,80,0,1
53023,-100,4,1,2,80,0,1
53153,-100,4,2,1,80,0,1
54066,-100,4,1,2,80,0,1
54196,-100,4,2,1,80,0,1
54588,-100,4,1,2,80,0,1
54718,-100,4,2,1,80,0,1
57196,-100,4,1,2,80,0,1
57327,-100,4,2,1,80,0,1
58240,-100,4,1,2,80,0,1
58370,-100,4,2,1,80,0,1
60849,-100,4,1,2,80,0,1
60979,-100,4,2,1,80,0,1
61370,-100,4,1,2,80,0,1
61501,-100,4,2,1,80,0,1
62413,-100,4,1,2,80,0,1
62544,-100,4,2,1,80,0,1
62936,-100,4,1,2,80,0,1
63066,-100,4,2,1,80,0,1
63978,-100,4,1,2,80,0,1
64109,-100,4,2,1,80,0,1
66066,-100,4,1,2,80,0,1
66196,-100,4,2,1,80,0,1
67110,-100,4,1,2,80,0,1
67240,-100,4,2,1,80,0,1
69000,-100,4,2,1,80,0,0
77349,-100,4,2,1,80,0,1
80675,-100,4,1,2,80,0,1
80805,-100,4,2,1,80,0,1
82762,-100,4,1,2,80,0,1
82892,-100,4,2,1,80,0,1
83805,-100,4,1,2,80,0,1
83936,-100,4,2,1,80,0,1
84849,-100,4,1,2,80,0,1
84979,-100,4,2,0,50,0,1
85695,-100,4,2,0,50,0,0

[Colours]
Combo1 : 136,0,0
Combo2 : 255,128,192
Combo3 : 103,103,103
Combo4 : 192,192,192

[HitObjects]
356,288,131,2,0,B|404:192|356:96,1,200,0|2
156,96,1175,2,0,B|108:192|156:288,1,200,0|2
72,344,1957,1,0
68,244,2218,6,0,B|144:300|256:324|368:300|444:244,1,400
256,180,3783,1,2
256,192,4305,12,0,6392
304,192,6914,6,0,B|336:152|400:152|400:152|412:200|464:216,2,200
256,104,8218,1,0
208,192,8479,2,0,B|176:152|112:152|112:152|100:200|48:216,1,200,4|0
40,116,9262,6,0,B|60:64|112:48,1,100,8|0
208,72,9783,2,0,B|256:92|304:72,1,100,8|0
402,48,10305,2,0,B|452:64|472:116,1,100,8|0
384,164,10827,6,0,B|320:244|352:360,1,200,8|8
432,296,11610,2,0,B|224:260,2,200,0|0|4
428,196,12914,2,0,B|324:168,1,100,8|0
268,92,13436,1,8
168,96,13696,2,0,B|60:124|40:236,2,200
80,48,15001,2,0,B|112:152|212:196,1,200,8|8
124,248,15783,6,0,B|144:272|176:272|176:272|192:296|184:336|184:336|216:316|256:312|296:316|328:336|328:336|320:296|336:272|336:272|368:272|388:248,1,400,0|4
472,192,17088,1,8
376,164,17349,2,0,B|356:116|356:68,1,100,0|8
256,80,17870,2,0,B|256:284,2,200
156,66,19175,6,0,B|156:116|136:164,1,100,8|0
40,192,19696,1,8
104,268,19957,2,0,B|152:272|176:240|176:240|240:244|256:316|256:316|272:244|336:240|336:240|360:272|408:268,1,400,0|4
404,168,21262,1,8
408,68,21523,6,0,B|352:64|320:108,1,100,0|8
320,208,22044,2,0,B|320:291|192:291|192:208,1,200
191,106,22827,2,0,B|160:64|104:68,1,100,8|0
114,167,23349,1,8
24,216,23610,6,0,B|36:348|256:348|256:216|256:92|476:92|488:216,1,600,0|4
388,44,25696,1,4
384,244,26218,1,4
256,88,26740,1,2
128,244,27262,1,2
124,44,27783,1,2
52,116,28044,1,0
148,144,28305,6,0,B|248:176|284:280,1,200,4|0
192,320,29088,2,0,B|284:276|396:268,1,200,8|8
352,176,29870,1,0
384,80,30131,1,8
284,96,30392,2,0,B|80:76,1,200,4|2
40,272,31436,6,0,B|124:332,1,100,2|0
204,272,31957,2,0,B|120:208,1,100,2|0
208,156,32479,2,0,B|288:216,1,100,4|8
288,316,33001,1,0
372,260,33262,2,0,B|476:224|496:116,2,200,8|8|8
308,184,34566,6,0,B|372:84,2,100,4|8|0
212,156,35349,2,0,B|236:56,2,100,8|0|8
116,180,36131,2,0,B|120:60,2,100,0|8|0
180,256,36914,1,8
256,324,37175,6,0,B|360:336,2,100,0|8|0
180,256,37957,2,0,B|256:192,1,100,8|0
332,124,38479,1,8
432,108,38740,6,0,B|440:208,2,100,4|8|0
332,124,39523,2,0,B|340:228,2,100,8|0|8
232,140,40305,2,0,B|240:240,2,100,0|8|0
136,164,41088,1,8
64,232,41349,6,0,B|71:331,2,100,0|8|0
164,244,42131,2,0,B|172:356,2,100,8|0|8
256,276,42914,6,0,B|460:276,1,200,4|0
356,104,43957,2,0,B|156:104,1,200,2|0
56,276,45001,2,0,B|256:276,2,200,2|0|2
188,124,46566,2,0,B|192:72|256:32|320:72|324:124,1,200,0|6
256,196,47349,1,0
256,296,47610,1,0
428,192,48131,6,0,B|376:276|256:306|136:276|84:192,2,400,2|2|2
256,192,50349,12,4,52305
256,192,52827,6,0,B|464:192,1,200,0|0
428,288,53610,1,2
328,276,53870,2,0,B|364:176|320:80,2,200
228,264,55175,2,0,B|128:264|32:232,1,200,2|2
72,140,55957,6,0,B|104:100|160:92,1,100,0|2
256,108,56479,2,0,B|312:100|360:48,1,100,4|2
404,140,57001,2,0,B|344:224|368:336,1,200
268,308,57783,1,2
268,208,58044,2,0,B|212:212|184:256|184:256|144:232|88:236,1,200
112,332,58827,2,0,B|132:132,1,200,2|2
40,92,59610,1,0
124,40,59870,2,0,B|176:48|224:24,1,100,2|0
264,116,60392,1,2
340,172,60653,6,0,B|428:220|456:328,2,200,4|0|0
264,116,61957,1,2
204,36,62218,2,0,B|104:76|88:192,2,200
200,136,63523,1,2
204,236,63783,2,0,B|188:292|256:345|324:292|308:236,1,200
136,136,64827,6,0,B|38:159,2,100,0|2|0
200,60,65610,1,2
300,56,65870,2,0,B|452:80,2,150,0|0|2
320,156,66914,2,0,B|320:240|192:240|192:156,1,200,4|0
56,304,67957,6,0,B|456:304,1,400,4|4
256,192,69131,12,0,72131
96,344,73175,6,0,B|204:324|204:324|204:232|204:232|160:196|152:128|180:40|332:40|360:128|352:196|308:232|308:232|308:324|308:324|416:344,1,800,4|4
256,192,75392,12,2,76827
332,168,77349,6,0,B|388:256,2,100,4|2|0
256,104,78131,1,2
164,144,78392,2,0,B|80:200,1,100,0|2
136,284,78914,1,0
232,252,79175,1,2
400,360,79696,6,0,B|448:336|460:264,1,100,2|0
468,180,80218,1,2
444,84,80479,2,0,B|360:148|348:216,2,150,0|0|2
348,60,81523,6,0,B|296:60|252:40,1,100,4|2
168,92,82044,2,0,B|168:144|128:184,1,100,0|2
228,208,82566,2,0,B|292:252|388:236,2,150,0|0|2
288,128,83610,6,0,B|84:64,1,200,0|0
32,144,84392,1,2
128,172,84653,2,0,B|188:260|168:368,1,200,0|2
332,248,85696,1,4
