osu file format v12

[General]
AudioFilename: OP.mp3
AudioLeadIn: 2
PreviewTime: 51947
Countdown: 0
SampleSet: None
StackLeniency: 0.7
Mode: 3
LetterboxInBreaks: 0
SpecialStyle: 0
WidescreenStoryboard: 0

[Editor]
DistanceSpacing: 0.8
BeatDivisor: 4
GridSize: 8
TimelineZoom: 1

[Metadata]
Title:Kuusou Mesorogii
TitleUnicode:空想メソロギヰ
Artist:Yousei Teikoku
ArtistUnicode:妖精帝國
Creator:MasterSonic10
Version:4k SC
Source:Stepmania
Tags:Stepmania
BeatmapID:429858
BeatmapSetID:169893

[Difficulty]
HPDrainRate:5
CircleSize:4
OverallDifficulty:7
ApproachRate:10
SliderMultiplier:1.4
SliderTickRate:1

[Events]
//Background and Video events
0,0,"background.jpg",0,0
//Break Periods
//Storyboard Layer 0 (Background)
//Storyboard Layer 1 (Fail)
//Storyboard Layer 2 (Pass)
//Storyboard Layer 3 (Foreground)
//Storyboard Sound Samples
//Background Colour Transformations
3,100,163,162,255

[TimingPoints]
300,260.8696,4,2,0,15,1,0
68647.93,60000000000000,4,2,0,15,1,0
68647.93,60000000000000,4,2,0,15,1,0
68647.93,60000000000000,4,2,0,15,1,0
68647.93,60000000000000,4,2,0,15,1,0
68907.93,260.8696,4,2,0,15,1,0
68907.93,260.8696,4,2,0,15,1,0
68907.93,260.8696,4,2,0,15,1,0
68907.93,260.8696,4,2,0,15,1,0
69038.37,60000000000000,4,2,0,15,1,0
69038.37,60000000000000,4,2,0,15,1,0
69038.37,60000000000000,4,2,0,15,1,0
69038.37,60000000000000,4,2,0,15,1,0
69298.37,260.8696,4,2,0,15,1,0
69298.37,260.8696,4,2,0,15,1,0
69298.37,260.8696,4,2,0,15,1,0
69298.37,260.8696,4,2,0,15,1,0

[HitObjects]
64,192,821,5,0,0:0:0:0:
192,192,821,1,0,0:0:0:0:
320,192,821,1,0,0:0:0:0:
192,192,952,1,0,0:0:0:0:
320,192,952,1,0,0:0:0:0:
64,192,1082,1,0,0:0:0:0:
448,192,1082,1,0,0:0:0:0:
320,192,1213,1,0,0:0:0:0:
64,192,1343,1,0,0:0:0:0:
192,192,1343,1,0,0:0:0:0:
320,192,1343,1,0,0:0:0:0:
448,192,1343,1,0,0:0:0:0:
320,192,1473,1,0,0:0:0:0:
192,192,1604,1,0,0:0:0:0:
64,192,1734,1,0,0:0:0:0:
64,192,1865,1,0,0:0:0:0:
192,192,1865,1,0,0:0:0:0:
320,192,1865,1,0,0:0:0:0:
448,192,1865,1,0,0:0:0:0:
448,192,1995,1,0,0:0:0:0:
64,192,2126,1,0,0:0:0:0:
320,192,2126,1,0,0:0:0:0:
192,192,2256,1,0,0:0:0:0:
448,192,2256,1,0,0:0:0:0:
64,192,2386,1,0,0:0:0:0:
320,192,2386,1,0,0:0:0:0:
448,192,2386,1,0,0:0:0:0:
64,192,2517,1,0,0:0:0:0:
192,192,2517,1,0,0:0:0:0:
320,192,2647,1,0,0:0:0:0:
448,192,2778,1,0,0:0:0:0:
64,192,2908,1,0,0:0:0:0:
192,192,2908,1,0,0:0:0:0:
320,192,2908,1,0,0:0:0:0:
448,192,2908,1,0,0:0:0:0:
192,192,3039,1,0,0:0:0:0:
320,192,3169,1,0,0:0:0:0:
64,192,3300,1,0,0:0:0:0:
448,192,3300,1,0,0:0:0:0:
64,192,3430,1,0,0:0:0:0:
320,192,3430,1,0,0:0:0:0:
192,192,3560,1,0,0:0:0:0:
64,192,3691,1,0,0:0:0:0:
320,192,3691,1,0,0:0:0:0:
448,192,3691,1,0,0:0:0:0:
192,192,3821,1,0,0:0:0:0:
64,192,3952,1,0,0:0:0:0:
192,192,3952,1,0,0:0:0:0:
320,192,3952,1,0,0:0:0:0:
448,192,3952,1,0,0:0:0:0:
448,192,4082,1,0,0:0:0:0:
64,192,4213,1,0,0:0:0:0:
192,192,4213,1,0,0:0:0:0:
192,192,4343,1,0,0:0:0:0:
320,192,4343,1,0,0:0:0:0:
64,192,4473,1,0,0:0:0:0:
448,192,4473,1,0,0:0:0:0:
64,192,4604,1,0,0:0:0:0:
192,192,4604,1,0,0:0:0:0:
320,192,4604,1,0,0:0:0:0:
448,192,4604,1,0,0:0:0:0:
320,192,4734,1,0,0:0:0:0:
192,192,4865,1,0,0:0:0:0:
64,0,4995,128,0,6560:1:0:0:0:
320,0,4995,128,0,6560:1:0:0:0:
64,192,7082,1,0,0:0:0:0:
192,192,7082,1,0,0:0:0:0:
320,192,7082,1,0,0:0:0:0:
64,0,7604,128,0,7647:1:0:0:0:
320,0,7604,128,0,7647:1:0:0:0:
192,0,7865,128,0,7908:1:0:0:0:
320,0,7865,128,0,7908:1:0:0:0:
64,192,8126,1,0,0:0:0:0:
320,192,8126,1,0,0:0:0:0:
448,192,8126,1,0,0:0:0:0:
64,192,8386,1,0,0:0:0:0:
192,192,8386,1,0,0:0:0:0:
320,192,8386,1,0,0:0:0:0:
64,192,8647,1,0,0:0:0:0:
192,192,8647,1,0,0:0:0:0:
320,192,8908,1,0,0:0:0:0:
448,192,8908,1,0,0:0:0:0:
64,192,9169,1,0,0:0:0:0:
192,192,9169,1,0,0:0:0:0:
448,192,9169,1,0,0:0:0:0:
320,192,9234,1,0,0:0:0:0:
192,192,9300,1,0,0:0:0:0:
448,192,9365,1,0,0:0:0:0:
64,192,9430,1,0,0:0:0:0:
320,192,9430,1,0,0:0:0:0:
192,192,9560,1,0,0:0:0:0:
320,192,9691,1,0,0:0:0:0:
64,192,9756,1,0,0:0:0:0:
192,192,9821,1,0,0:0:0:0:
320,192,9886,1,0,0:0:0:0:
192,192,9952,1,0,0:0:0:0:
448,192,9952,1,0,0:0:0:0:
64,192,10082,1,0,0:0:0:0:
320,192,10213,1,0,0:0:0:0:
448,192,10213,1,0,0:0:0:0:
192,192,10278,1,0,0:0:0:0:
448,192,10343,1,0,0:0:0:0:
192,192,10408,1,0,0:0:0:0:
64,192,10473,1,0,0:0:0:0:
320,192,10473,1,0,0:0:0:0:
64,192,10604,1,0,0:0:0:0:
192,192,10604,1,0,0:0:0:0:
320,192,10734,1,0,0:0:0:0:
64,192,10865,1,0,0:0:0:0:
192,192,10865,1,0,0:0:0:0:
64,192,10995,1,0,0:0:0:0:
320,192,10995,1,0,0:0:0:0:
448,192,10995,1,0,0:0:0:0:
192,192,11126,1,0,0:0:0:0:
448,192,11126,1,0,0:0:0:0:
64,192,11256,1,0,0:0:0:0:
320,192,11256,1,0,0:0:0:0:
192,192,11321,1,0,0:0:0:0:
320,192,11386,1,0,0:0:0:0:
192,192,11452,1,0,0:0:0:0:
320,192,11517,1,0,0:0:0:0:
448,192,11517,1,0,0:0:0:0:
64,192,11647,1,0,0:0:0:0:
320,192,11647,1,0,0:0:0:0:
192,192,11778,1,0,0:0:0:0:
448,192,11778,1,0,0:0:0:0:
64,192,11908,1,0,0:0:0:0:
448,192,11908,1,0,0:0:0:0:
192,192,12039,1,0,0:0:0:0:
320,192,12039,1,0,0:0:0:0:
448,192,12039,1,0,0:0:0:0:
64,192,12169,1,0,0:0:0:0:
192,192,12300,1,0,0:0:0:0:
448,192,12300,1,0,0:0:0:0:
320,192,12430,1,0,0:0:0:0:
448,192,12430,1,0,0:0:0:0:
64,192,12560,1,0,0:0:0:0:
192,192,12560,1,0,0:0:0:0:
448,192,12560,1,0,0:0:0:0:
320,192,12691,1,0,0:0:0:0:
448,192,12691,1,0,0:0:0:0:
192,192,12821,1,0,0:0:0:0:
320,192,12886,1,0,0:0:0:0:
192,192,12952,1,0,0:0:0:0:
320,192,13017,1,0,0:0:0:0:
64,192,13082,1,0,0:0:0:0:
448,192,13082,1,0,0:0:0:0:
64,192,13343,1,0,0:0:0:0:
192,192,13343,1,0,0:0:0:0:
320,192,13343,1,0,0:0:0:0:
448,192,13408,1,0,0:0:0:0:
192,192,13473,1,0,0:0:0:0:
64,192,13539,1,0,0:0:0:0:
320,192,13604,1,0,0:0:0:0:
448,192,13604,1,0,0:0:0:0:
192,192,13734,1,0,0:0:0:0:
192,192,13865,1,0,0:0:0:0:
448,192,13865,1,0,0:0:0:0:
320,192,13930,1,0,0:0:0:0:
64,192,13995,1,0,0:0:0:0:
448,192,14060,1,0,0:0:0:0:
64,192,14126,1,0,0:0:0:0:
192,192,14126,1,0,0:0:0:0:
192,192,14256,1,0,0:0:0:0:
320,192,14386,1,0,0:0:0:0:
448,192,14386,1,0,0:0:0:0:
64,192,14517,1,0,0:0:0:0:
192,192,14647,1,0,0:0:0:0:
320,192,14647,1,0,0:0:0:0:
448,192,14647,1,0,0:0:0:0:
192,192,14778,1,0,0:0:0:0:
448,192,14778,1,0,0:0:0:0:
64,192,14908,1,0,0:0:0:0:
320,192,14908,1,0,0:0:0:0:
448,192,14908,1,0,0:0:0:0:
192,192,15039,1,0,0:0:0:0:
64,192,15169,1,0,0:0:0:0:
320,192,15169,1,0,0:0:0:0:
448,192,15169,1,0,0:0:0:0:
64,192,15430,1,0,0:0:0:0:
448,192,15430,1,0,0:0:0:0:
192,192,15495,1,0,0:0:0:0:
320,192,15560,1,0,0:0:0:0:
192,192,15626,1,0,0:0:0:0:
64,192,15691,1,0,0:0:0:0:
320,192,15821,1,0,0:0:0:0:
320,192,15952,1,0,0:0:0:0:
448,192,15952,1,0,0:0:0:0:
64,192,16017,1,0,0:0:0:0:
192,192,16082,1,0,0:0:0:0:
64,192,16147,1,0,0:0:0:0:
192,192,16213,1,0,0:0:0:0:
320,192,16213,1,0,0:0:0:0:
64,192,16343,1,0,0:0:0:0:
448,192,16343,1,0,0:0:0:0:
192,192,16473,1,0,0:0:0:0:
320,192,16473,1,0,0:0:0:0:
448,192,16473,1,0,0:0:0:0:
192,192,16604,1,0,0:0:0:0:
320,192,16734,1,0,0:0:0:0:
192,192,16865,1,0,0:0:0:0:
448,192,16865,1,0,0:0:0:0:
64,192,16995,1,0,0:0:0:0:
192,192,16995,1,0,0:0:0:0:
448,192,17060,1,0,0:0:0:0:
320,192,17126,1,0,0:0:0:0:
192,192,17191,1,0,0:0:0:0:
64,192,17256,1,0,0:0:0:0:
448,192,17256,1,0,0:0:0:0:
320,192,17321,1,0,0:0:0:0:
192,192,17386,1,0,0:0:0:0:
320,192,17452,1,0,0:0:0:0:
64,192,17517,1,0,0:0:0:0:
192,192,17517,1,0,0:0:0:0:
448,192,17517,1,0,0:0:0:0:
64,192,17647,1,0,0:0:0:0:
320,192,17647,1,0,0:0:0:0:
192,192,17778,1,0,0:0:0:0:
320,192,17778,1,0,0:0:0:0:
448,192,17778,1,0,0:0:0:0:
64,192,17908,1,0,0:0:0:0:
192,192,18039,1,0,0:0:0:0:
320,192,18039,1,0,0:0:0:0:
192,192,18169,1,0,0:0:0:0:
320,192,18169,1,0,0:0:0:0:
64,192,18300,1,0,0:0:0:0:
320,192,18300,1,0,0:0:0:0:
448,192,18300,1,0,0:0:0:0:
64,192,18430,1,0,0:0:0:0:
192,192,18560,1,0,0:0:0:0:
320,192,18560,1,0,0:0:0:0:
448,192,18560,1,0,0:0:0:0:
64,192,18691,1,0,0:0:0:0:
192,192,18691,1,0,0:0:0:0:
320,192,18691,1,0,0:0:0:0:
448,192,18821,1,0,0:0:0:0:
192,192,18952,1,0,0:0:0:0:
64,192,19082,1,0,0:0:0:0:
448,192,19082,1,0,0:0:0:0:
320,192,19213,1,0,0:0:0:0:
448,192,19213,1,0,0:0:0:0:
192,192,19343,1,0,0:0:0:0:
320,192,19343,1,0,0:0:0:0:
64,192,19473,1,0,0:0:0:0:
320,192,19473,1,0,0:0:0:0:
192,192,19539,1,0,0:0:0:0:
320,192,19604,1,0,0:0:0:0:
448,192,19604,1,0,0:0:0:0:
192,192,19734,1,0,0:0:0:0:
64,192,19865,1,0,0:0:0:0:
320,192,19865,1,0,0:0:0:0:
320,192,19995,1,0,0:0:0:0:
448,192,19995,1,0,0:0:0:0:
64,192,20126,1,0,0:0:0:0:
192,192,20126,1,0,0:0:0:0:
448,192,20126,1,0,0:0:0:0:
192,192,20256,1,0,0:0:0:0:
320,192,20386,1,0,0:0:0:0:
448,192,20386,1,0,0:0:0:0:
64,192,20517,1,0,0:0:0:0:
320,192,20517,1,0,0:0:0:0:
64,192,20647,1,0,0:0:0:0:
192,192,20647,1,0,0:0:0:0:
320,192,20713,1,0,0:0:0:0:
64,192,20778,1,0,0:0:0:0:
192,192,20778,1,0,0:0:0:0:
320,192,20908,1,0,0:0:0:0:
320,192,21039,1,0,0:0:0:0:
448,192,21039,1,0,0:0:0:0:
192,192,21104,1,0,0:0:0:0:
320,192,21169,1,0,0:0:0:0:
448,192,21169,1,0,0:0:0:0:
192,192,21300,1,0,0:0:0:0:
448,192,21300,1,0,0:0:0:0:
64,192,21430,1,0,0:0:0:0:
192,192,21430,1,0,0:0:0:0:
320,192,21430,1,0,0:0:0:0:
320,192,21560,1,0,0:0:0:0:
64,192,21691,1,0,0:0:0:0:
192,192,21691,1,0,0:0:0:0:
320,192,21691,1,0,0:0:0:0:
448,192,21691,1,0,0:0:0:0:
192,192,21821,1,0,0:0:0:0:
64,192,21952,1,0,0:0:0:0:
320,192,21952,1,0,0:0:0:0:
448,192,21952,1,0,0:0:0:0:
192,192,22082,1,0,0:0:0:0:
448,192,22082,1,0,0:0:0:0:
64,192,22213,1,0,0:0:0:0:
320,192,22213,1,0,0:0:0:0:
320,192,22343,1,0,0:0:0:0:
448,192,22343,1,0,0:0:0:0:
64,192,22473,1,0,0:0:0:0:
192,192,22473,1,0,0:0:0:0:
448,192,22473,1,0,0:0:0:0:
320,192,22604,1,0,0:0:0:0:
64,192,22734,1,0,0:0:0:0:
192,192,22734,1,0,0:0:0:0:
448,192,22734,1,0,0:0:0:0:
192,192,22865,1,0,0:0:0:0:
320,192,22865,1,0,0:0:0:0:
448,192,22995,1,0,0:0:0:0:
64,192,23126,1,0,0:0:0:0:
192,192,23126,1,0,0:0:0:0:
320,192,23256,1,0,0:0:0:0:
64,192,23386,1,0,0:0:0:0:
192,192,23386,1,0,0:0:0:0:
64,192,23517,1,0,0:0:0:0:
320,192,23517,1,0,0:0:0:0:
448,192,23517,1,0,0:0:0:0:
192,192,23647,1,0,0:0:0:0:
448,192,23647,1,0,0:0:0:0:
64,192,23778,1,0,0:0:0:0:
192,192,23778,1,0,0:0:0:0:
320,192,23778,1,0,0:0:0:0:
448,192,23908,1,0,0:0:0:0:
192,192,24039,1,0,0:0:0:0:
320,192,24039,1,0,0:0:0:0:
64,192,24169,1,0,0:0:0:0:
320,192,24169,1,0,0:0:0:0:
192,192,24300,1,0,0:0:0:0:
448,192,24300,1,0,0:0:0:0:
320,192,24430,1,0,0:0:0:0:
448,192,24430,1,0,0:0:0:0:
64,192,24560,1,0,0:0:0:0:
192,192,24560,1,0,0:0:0:0:
320,192,24560,1,0,0:0:0:0:
448,192,24691,1,0,0:0:0:0:
192,192,24821,1,0,0:0:0:0:
320,192,24821,1,0,0:0:0:0:
64,192,24952,1,0,0:0:0:0:
192,192,24952,1,0,0:0:0:0:
320,192,24952,1,0,0:0:0:0:
448,192,25082,1,0,0:0:0:0:
64,192,25213,1,0,0:0:0:0:
192,192,25343,1,0,0:0:0:0:
320,192,25343,1,0,0:0:0:0:
192,192,25473,1,0,0:0:0:0:
320,192,25473,1,0,0:0:0:0:
448,192,25473,1,0,0:0:0:0:
64,192,25604,1,0,0:0:0:0:
320,192,25604,1,0,0:0:0:0:
192,192,25734,1,0,0:0:0:0:
320,192,25734,1,0,0:0:0:0:
64,192,25865,1,0,0:0:0:0:
192,192,25865,1,0,0:0:0:0:
320,192,25930,1,0,0:0:0:0:
192,192,25995,1,0,0:0:0:0:
448,192,26060,1,0,0:0:0:0:
64,192,26126,1,0,0:0:0:0:
320,192,26126,1,0,0:0:0:0:
320,192,26256,1,0,0:0:0:0:
64,192,26386,1,0,0:0:0:0:
192,192,26386,1,0,0:0:0:0:
448,192,26452,1,0,0:0:0:0:
64,192,26517,1,0,0:0:0:0:
320,192,26517,1,0,0:0:0:0:
448,192,26582,1,0,0:0:0:0:
192,192,26647,1,0,0:0:0:0:
320,192,26713,1,0,0:0:0:0:
64,192,26778,1,0,0:0:0:0:
448,192,26778,1,0,0:0:0:0:
192,192,26843,1,0,0:0:0:0:
320,192,26908,1,0,0:0:0:0:
448,192,26908,1,0,0:0:0:0:
64,0,26908,128,0,27821:1:0:0:0:
448,192,27039,1,0,0:0:0:0:
448,192,27169,1,0,0:0:0:0:
448,192,27300,1,0,0:0:0:0:
320,192,27430,1,0,0:0:0:0:
320,192,27560,1,0,0:0:0:0:
320,192,27691,1,0,0:0:0:0:
448,192,27691,1,0,0:0:0:0:
320,192,27821,1,0,0:0:0:0:
64,192,27952,1,0,0:0:0:0:
192,192,27952,1,0,0:0:0:0:
448,192,27952,1,0,0:0:0:0:
64,192,28082,1,0,0:0:0:0:
192,192,28213,1,0,0:0:0:0:
320,192,28213,1,0,0:0:0:0:
320,192,28343,1,0,0:0:0:0:
64,192,28473,1,0,0:0:0:0:
448,192,28473,1,0,0:0:0:0:
320,192,28604,1,0,0:0:0:0:
64,192,28734,1,0,0:0:0:0:
320,192,28734,1,0,0:0:0:0:
448,192,28734,1,0,0:0:0:0:
192,192,28865,1,0,0:0:0:0:
448,192,28865,1,0,0:0:0:0:
64,192,28995,1,0,0:0:0:0:
192,192,28995,1,0,0:0:0:0:
320,192,28995,1,0,0:0:0:0:
448,192,28995,1,0,0:0:0:0:
64,192,29126,1,0,0:0:0:0:
448,192,29126,1,0,0:0:0:0:
192,192,29256,1,0,0:0:0:0:
320,192,29386,1,0,0:0:0:0:
448,192,29386,1,0,0:0:0:0:
64,192,29517,1,0,0:0:0:0:
192,192,29517,1,0,0:0:0:0:
320,192,29647,1,0,0:0:0:0:
64,192,29778,1,0,0:0:0:0:
192,192,29778,1,0,0:0:0:0:
448,192,29778,1,0,0:0:0:0:
320,192,29908,1,0,0:0:0:0:
448,192,29908,1,0,0:0:0:0:
64,192,30039,1,0,0:0:0:0:
192,192,30039,1,0,0:0:0:0:
192,192,30169,1,0,0:0:0:0:
448,192,30169,1,0,0:0:0:0:
64,192,30300,1,0,0:0:0:0:
320,192,30300,1,0,0:0:0:0:
192,192,30430,1,0,0:0:0:0:
320,192,30430,1,0,0:0:0:0:
448,192,30430,1,0,0:0:0:0:
64,192,30560,1,0,0:0:0:0:
192,192,30626,1,0,0:0:0:0:
64,192,30691,1,0,0:0:0:0:
192,192,30756,1,0,0:0:0:0:
320,192,30821,1,0,0:0:0:0:
448,192,30821,1,0,0:0:0:0:
192,192,30952,1,0,0:0:0:0:
448,192,30952,1,0,0:0:0:0:
64,192,31082,1,0,0:0:0:0:
320,192,31082,1,0,0:0:0:0:
448,0,31082,128,0,32126:1:0:0:0:
64,192,31213,1,0,0:0:0:0:
64,192,31343,1,0,0:0:0:0:
320,192,31343,1,0,0:0:0:0:
64,192,31473,1,0,0:0:0:0:
192,192,31604,1,0,0:0:0:0:
192,192,31734,1,0,0:0:0:0:
320,192,31734,1,0,0:0:0:0:
64,192,31865,1,0,0:0:0:0:
192,192,31865,1,0,0:0:0:0:
192,192,31995,1,0,0:0:0:0:
64,192,32126,1,0,0:0:0:0:
192,192,32126,1,0,0:0:0:0:
320,192,32126,1,0,0:0:0:0:
192,192,32256,1,0,0:0:0:0:
64,192,32386,1,0,0:0:0:0:
320,192,32386,1,0,0:0:0:0:
448,192,32386,1,0,0:0:0:0:
320,192,32517,1,0,0:0:0:0:
64,192,32647,1,0,0:0:0:0:
192,192,32647,1,0,0:0:0:0:
320,192,32647,1,0,0:0:0:0:
448,192,32647,1,0,0:0:0:0:
64,192,32778,1,0,0:0:0:0:
448,192,32778,1,0,0:0:0:0:
192,192,32908,1,0,0:0:0:0:
320,192,32973,1,0,0:0:0:0:
64,192,33039,1,0,0:0:0:0:
192,192,33039,1,0,0:0:0:0:
320,192,33104,1,0,0:0:0:0:
192,192,33169,1,0,0:0:0:0:
448,192,33169,1,0,0:0:0:0:
64,192,33300,1,0,0:0:0:0:
64,192,33430,1,0,0:0:0:0:
320,192,33430,1,0,0:0:0:0:
192,192,33560,1,0,0:0:0:0:
448,192,33560,1,0,0:0:0:0:
192,192,33691,1,0,0:0:0:0:
320,192,33691,1,0,0:0:0:0:
448,192,33691,1,0,0:0:0:0:
64,192,33821,1,0,0:0:0:0:
192,192,33821,1,0,0:0:0:0:
192,192,33952,1,0,0:0:0:0:
320,192,33952,1,0,0:0:0:0:
448,192,34082,1,0,0:0:0:0:
64,192,34213,1,0,0:0:0:0:
192,192,34213,1,0,0:0:0:0:
320,192,34213,1,0,0:0:0:0:
64,192,34343,1,0,0:0:0:0:
448,192,34343,1,0,0:0:0:0:
64,192,34473,1,0,0:0:0:0:
192,192,34473,1,0,0:0:0:0:
320,192,34473,1,0,0:0:0:0:
192,192,34604,1,0,0:0:0:0:
192,192,34734,1,0,0:0:0:0:
320,192,34734,1,0,0:0:0:0:
448,192,34734,1,0,0:0:0:0:
64,192,34865,1,0,0:0:0:0:
320,192,34865,1,0,0:0:0:0:
192,192,34995,1,0,0:0:0:0:
320,192,34995,1,0,0:0:0:0:
448,192,34995,1,0,0:0:0:0:
448,192,35126,1,0,0:0:0:0:
64,192,35256,1,0,0:0:0:0:
192,192,35256,1,0,0:0:0:0:
192,192,35386,1,0,0:0:0:0:
448,192,35386,1,0,0:0:0:0:
64,192,35517,1,0,0:0:0:0:
192,192,35517,1,0,0:0:0:0:
192,192,35647,1,0,0:0:0:0:
448,192,35647,1,0,0:0:0:0:
64,192,35778,1,0,0:0:0:0:
192,192,35778,1,0,0:0:0:0:
192,192,35908,1,0,0:0:0:0:
448,192,35908,1,0,0:0:0:0:
64,192,36039,1,0,0:0:0:0:
192,192,36039,1,0,0:0:0:0:
448,192,36169,1,0,0:0:0:0:
64,192,36300,1,0,0:0:0:0:
192,192,36300,1,0,0:0:0:0:
192,192,36430,1,0,0:0:0:0:
320,192,36430,1,0,0:0:0:0:
448,192,36430,1,0,0:0:0:0:
320,192,36560,1,0,0:0:0:0:
192,192,36691,1,0,0:0:0:0:
64,192,36821,1,0,0:0:0:0:
320,192,36821,1,0,0:0:0:0:
448,192,36821,1,0,0:0:0:0:
192,192,36952,1,0,0:0:0:0:
64,192,37082,1,0,0:0:0:0:
192,192,37082,1,0,0:0:0:0:
320,192,37082,1,0,0:0:0:0:
448,192,37082,1,0,0:0:0:0:
64,192,37213,1,0,0:0:0:0:
320,192,37343,1,0,0:0:0:0:
448,192,37343,1,0,0:0:0:0:
64,192,37473,1,0,0:0:0:0:
320,192,37473,1,0,0:0:0:0:
320,192,37604,1,0,0:0:0:0:
448,192,37604,1,0,0:0:0:0:
64,192,37734,1,0,0:0:0:0:
320,192,37734,1,0,0:0:0:0:
320,192,37865,1,0,0:0:0:0:
448,192,37865,1,0,0:0:0:0:
64,192,37995,1,0,0:0:0:0:
320,192,37995,1,0,0:0:0:0:
320,192,38126,1,0,0:0:0:0:
448,192,38126,1,0,0:0:0:0:
64,192,38256,1,0,0:0:0:0:
320,192,38256,1,0,0:0:0:0:
320,192,38386,1,0,0:0:0:0:
448,192,38386,1,0,0:0:0:0:
64,192,38517,1,0,0:0:0:0:
192,192,38517,1,0,0:0:0:0:
320,192,38517,1,0,0:0:0:0:
64,192,38647,1,0,0:0:0:0:
320,192,38647,1,0,0:0:0:0:
192,192,38778,1,0,0:0:0:0:
448,192,38778,1,0,0:0:0:0:
64,192,38908,1,0,0:0:0:0:
448,192,38908,1,0,0:0:0:0:
64,192,39039,1,0,0:0:0:0:
192,192,39039,1,0,0:0:0:0:
320,192,39039,1,0,0:0:0:0:
320,192,39169,1,0,0:0:0:0:
192,192,39234,1,0,0:0:0:0:
64,192,39300,1,0,0:0:0:0:
192,192,39365,1,0,0:0:0:0:
320,192,39430,1,0,0:0:0:0:
448,192,39430,1,0,0:0:0:0:
64,192,39560,1,0,0:0:0:0:
192,192,39691,1,0,0:0:0:0:
448,192,39691,1,0,0:0:0:0:
320,192,39821,1,0,0:0:0:0:
448,192,39821,1,0,0:0:0:0:
64,192,39952,1,0,0:0:0:0:
192,192,39952,1,0,0:0:0:0:
448,192,39952,1,0,0:0:0:0:
64,192,40082,1,0,0:0:0:0:
320,192,40082,1,0,0:0:0:0:
192,192,40213,1,0,0:0:0:0:
448,192,40213,1,0,0:0:0:0:
320,192,40343,1,0,0:0:0:0:
448,192,40343,1,0,0:0:0:0:
64,192,40473,1,0,0:0:0:0:
192,192,40604,1,0,0:0:0:0:
320,192,40604,1,0,0:0:0:0:
448,192,40604,1,0,0:0:0:0:
320,192,40734,1,0,0:0:0:0:
64,192,40865,1,0,0:0:0:0:
192,192,40865,1,0,0:0:0:0:
192,192,40995,1,0,0:0:0:0:
320,192,40995,1,0,0:0:0:0:
448,192,40995,1,0,0:0:0:0:
64,192,41126,1,0,0:0:0:0:
192,192,41126,1,0,0:0:0:0:
64,192,41256,1,0,0:0:0:0:
320,192,41256,1,0,0:0:0:0:
448,192,41256,1,0,0:0:0:0:
192,192,41386,1,0,0:0:0:0:
192,192,41517,1,0,0:0:0:0:
64,192,41647,1,0,0:0:0:0:
320,192,41647,1,0,0:0:0:0:
192,192,41778,1,0,0:0:0:0:
320,192,41778,1,0,0:0:0:0:
448,192,41778,1,0,0:0:0:0:
320,192,41908,1,0,0:0:0:0:
64,192,42039,1,0,0:0:0:0:
192,192,42039,1,0,0:0:0:0:
320,192,42169,1,0,0:0:0:0:
448,192,42169,1,0,0:0:0:0:
192,192,42300,1,0,0:0:0:0:
320,192,42300,1,0,0:0:0:0:
64,192,42430,1,0,0:0:0:0:
320,192,42430,1,0,0:0:0:0:
192,192,42560,1,0,0:0:0:0:
64,192,42691,1,0,0:0:0:0:
192,192,42691,1,0,0:0:0:0:
320,192,42691,1,0,0:0:0:0:
448,192,42691,1,0,0:0:0:0:
64,192,42821,1,0,0:0:0:0:
192,192,42952,1,0,0:0:0:0:
320,192,43082,1,0,0:0:0:0:
448,192,43082,1,0,0:0:0:0:
64,192,43213,1,0,0:0:0:0:
192,192,43343,1,0,0:0:0:0:
320,192,43343,1,0,0:0:0:0:
192,192,43473,1,0,0:0:0:0:
320,192,43473,1,0,0:0:0:0:
448,192,43473,1,0,0:0:0:0:
64,192,43604,1,0,0:0:0:0:
192,192,43604,1,0,0:0:0:0:
320,192,43604,1,0,0:0:0:0:
448,192,43604,1,0,0:0:0:0:
64,192,43734,1,0,0:0:0:0:
320,192,43865,1,0,0:0:0:0:
448,192,43865,1,0,0:0:0:0:
192,192,43995,1,0,0:0:0:0:
320,192,43995,1,0,0:0:0:0:
64,192,44126,1,0,0:0:0:0:
320,192,44126,1,0,0:0:0:0:
448,192,44126,1,0,0:0:0:0:
64,192,44256,1,0,0:0:0:0:
192,192,44256,1,0,0:0:0:0:
192,192,44386,1,0,0:0:0:0:
448,192,44386,1,0,0:0:0:0:
64,192,44517,1,0,0:0:0:0:
192,192,44647,1,0,0:0:0:0:
320,192,44647,1,0,0:0:0:0:
448,192,44647,1,0,0:0:0:0:
192,192,44778,1,0,0:0:0:0:
448,192,44778,1,0,0:0:0:0:
64,192,44908,1,0,0:0:0:0:
320,192,44908,1,0,0:0:0:0:
448,192,44908,1,0,0:0:0:0:
320,192,45039,1,0,0:0:0:0:
64,192,45169,1,0,0:0:0:0:
192,192,45169,1,0,0:0:0:0:
448,192,45299,1,0,0:0:0:0:
64,192,45430,1,0,0:0:0:0:
192,192,45430,1,0,0:0:0:0:
320,192,45430,1,0,0:0:0:0:
64,192,45560,1,0,0:0:0:0:
448,192,45560,1,0,0:0:0:0:
192,192,45691,1,0,0:0:0:0:
320,192,45691,1,0,0:0:0:0:
320,192,45821,1,0,0:0:0:0:
64,192,45952,1,0,0:0:0:0:
192,192,45952,1,0,0:0:0:0:
192,192,46082,1,0,0:0:0:0:
320,192,46082,1,0,0:0:0:0:
448,192,46082,1,0,0:0:0:0:
64,192,46213,1,0,0:0:0:0:
320,192,46213,1,0,0:0:0:0:
448,192,46213,1,0,0:0:0:0:
192,192,46343,1,0,0:0:0:0:
64,192,46473,1,0,0:0:0:0:
320,192,46473,1,0,0:0:0:0:
448,192,46604,1,0,0:0:0:0:
64,192,46734,1,0,0:0:0:0:
192,192,46734,1,0,0:0:0:0:
448,192,46734,1,0,0:0:0:0:
192,192,46865,1,0,0:0:0:0:
320,192,46865,1,0,0:0:0:0:
64,192,46995,1,0,0:0:0:0:
192,192,46995,1,0,0:0:0:0:
448,192,46995,1,0,0:0:0:0:
320,192,47126,1,0,0:0:0:0:
64,192,47256,1,0,0:0:0:0:
192,192,47256,1,0,0:0:0:0:
320,192,47386,1,0,0:0:0:0:
448,192,47386,1,0,0:0:0:0:
192,192,47517,1,0,0:0:0:0:
448,192,47517,1,0,0:0:0:0:
64,192,47647,1,0,0:0:0:0:
64,192,47778,1,0,0:0:0:0:
320,192,47778,1,0,0:0:0:0:
448,192,47778,1,0,0:0:0:0:
192,192,47908,1,0,0:0:0:0:
448,192,47908,1,0,0:0:0:0:
64,192,48039,1,0,0:0:0:0:
192,192,48039,1,0,0:0:0:0:
320,192,48039,1,0,0:0:0:0:
192,192,48169,1,0,0:0:0:0:
320,192,48169,1,0,0:0:0:0:
64,192,48299,1,0,0:0:0:0:
320,192,48430,1,0,0:0:0:0:
448,192,48430,1,0,0:0:0:0:
64,192,48560,1,0,0:0:0:0:
192,192,48560,1,0,0:0:0:0:
448,192,48560,1,0,0:0:0:0:
320,192,48691,1,0,0:0:0:0:
192,192,48821,1,0,0:0:0:0:
448,192,48821,1,0,0:0:0:0:
64,192,48952,1,0,0:0:0:0:
320,192,48952,1,0,0:0:0:0:
192,192,49082,1,0,0:0:0:0:
320,192,49082,1,0,0:0:0:0:
448,192,49082,1,0,0:0:0:0:
192,192,49212,1,0,0:0:0:0:
64,192,49343,1,0,0:0:0:0:
320,192,49343,1,0,0:0:0:0:
320,192,49473,1,0,0:0:0:0:
64,192,49604,1,0,0:0:0:0:
192,192,49604,1,0,0:0:0:0:
320,192,49604,1,0,0:0:0:0:
448,192,49604,1,0,0:0:0:0:
64,192,49734,1,0,0:0:0:0:
192,192,49865,1,0,0:0:0:0:
320,192,49865,1,0,0:0:0:0:
64,192,49995,1,0,0:0:0:0:
448,192,49995,1,0,0:0:0:0:
192,192,50126,1,0,0:0:0:0:
320,192,50126,1,0,0:0:0:0:
448,192,50126,1,0,0:0:0:0:
192,192,50256,1,0,0:0:0:0:
64,192,50386,1,0,0:0:0:0:
448,192,50386,1,0,0:0:0:0:
320,192,50517,1,0,0:0:0:0:
192,192,50647,1,0,0:0:0:0:
448,192,50647,1,0,0:0:0:0:
64,192,50778,1,0,0:0:0:0:
320,192,50778,1,0,0:0:0:0:
64,192,50908,1,0,0:0:0:0:
192,192,50908,1,0,0:0:0:0:
448,192,50908,1,0,0:0:0:0:
64,192,51039,1,0,0:0:0:0:
192,192,51039,1,0,0:0:0:0:
448,192,51039,1,0,0:0:0:0:
64,192,51169,1,0,0:0:0:0:
320,192,51169,1,0,0:0:0:0:
192,192,51299,1,0,0:0:0:0:
448,192,51299,1,0,0:0:0:0:
64,192,51430,1,0,0:0:0:0:
320,192,51430,1,0,0:0:0:0:
448,192,51430,1,0,0:0:0:0:
192,192,51495,1,0,0:0:0:0:
64,192,51560,1,0,0:0:0:0:
320,192,51560,1,0,0:0:0:0:
448,192,51626,1,0,0:0:0:0:
64,192,51691,1,0,0:0:0:0:
192,192,51691,1,0,0:0:0:0:
320,192,51756,1,0,0:0:0:0:
192,192,51821,1,0,0:0:0:0:
448,192,51821,1,0,0:0:0:0:
320,0,51952,128,0,52408:1:0:0:0:
64,0,51952,128,0,52930:1:0:0:0:
192,0,51952,128,0,52930:1:0:0:0:
448,0,51952,128,0,52930:1:0:0:0:
320,0,52473,128,0,52930:1:0:0:0:
64,192,52995,1,0,0:0:0:0:
192,192,52995,1,0,0:0:0:0:
320,192,53060,1,0,0:0:0:0:
448,192,53126,1,0,0:0:0:0:
320,192,53191,1,0,0:0:0:0:
64,192,53256,1,0,0:0:0:0:
192,192,53256,1,0,0:0:0:0:
320,192,53321,1,0,0:0:0:0:
448,192,53386,1,0,0:0:0:0:
192,192,53452,1,0,0:0:0:0:
64,192,53517,1,0,0:0:0:0:
320,192,53517,1,0,0:0:0:0:
192,192,53582,1,0,0:0:0:0:
448,192,53647,1,0,0:0:0:0:
320,192,53713,1,0,0:0:0:0:
64,192,53778,1,0,0:0:0:0:
192,192,53778,1,0,0:0:0:0:
448,192,53843,1,0,0:0:0:0:
320,192,53908,1,0,0:0:0:0:
448,192,53973,1,0,0:0:0:0:
192,192,54039,1,0,0:0:0:0:
320,192,54039,1,0,0:0:0:0:
64,192,54169,1,0,0:0:0:0:
192,192,54169,1,0,0:0:0:0:
320,192,54169,1,0,0:0:0:0:
192,192,54299,1,0,0:0:0:0:
448,192,54299,1,0,0:0:0:0:
64,192,54430,1,0,0:0:0:0:
320,192,54430,1,0,0:0:0:0:
192,192,54560,1,0,0:0:0:0:
320,192,54560,1,0,0:0:0:0:
448,192,54691,1,0,0:0:0:0:
64,192,54821,1,0,0:0:0:0:
320,192,54821,1,0,0:0:0:0:
448,192,54821,1,0,0:0:0:0:
192,192,54952,1,0,0:0:0:0:
320,192,55082,1,0,0:0:0:0:
448,192,55082,1,0,0:0:0:0:
192,192,55147,1,0,0:0:0:0:
64,192,55213,1,0,0:0:0:0:
320,192,55278,1,0,0:0:0:0:
192,192,55343,1,0,0:0:0:0:
448,192,55343,1,0,0:0:0:0:
64,192,55408,1,0,0:0:0:0:
192,192,55473,1,0,0:0:0:0:
320,192,55539,1,0,0:0:0:0:
64,192,55604,1,0,0:0:0:0:
192,192,55604,1,0,0:0:0:0:
448,192,55669,1,0,0:0:0:0:
320,192,55734,1,0,0:0:0:0:
192,192,55800,1,0,0:0:0:0:
64,192,55865,1,0,0:0:0:0:
448,192,55865,1,0,0:0:0:0:
320,192,55930,1,0,0:0:0:0:
192,192,55995,1,0,0:0:0:0:
448,192,56060,1,0,0:0:0:0:
64,192,56126,1,0,0:0:0:0:
320,192,56126,1,0,0:0:0:0:
192,192,56191,1,0,0:0:0:0:
320,192,56256,1,0,0:0:0:0:
448,192,56321,1,0,0:0:0:0:
64,192,56386,1,0,0:0:0:0:
192,192,56386,1,0,0:0:0:0:
64,192,56517,1,0,0:0:0:0:
448,192,56517,1,0,0:0:0:0:
192,192,56647,1,0,0:0:0:0:
320,192,56647,1,0,0:0:0:0:
448,192,56647,1,0,0:0:0:0:
64,192,56778,1,0,0:0:0:0:
192,192,56908,1,0,0:0:0:0:
320,192,56908,1,0,0:0:0:0:
448,192,56908,1,0,0:0:0:0:
64,192,57039,1,0,0:0:0:0:
320,192,57039,1,0,0:0:0:0:
64,192,57169,1,0,0:0:0:0:
192,192,57169,1,0,0:0:0:0:
448,192,57169,1,0,0:0:0:0:
320,192,57234,1,0,0:0:0:0:
192,192,57300,1,0,0:0:0:0:
448,192,57365,1,0,0:0:0:0:
64,192,57430,1,0,0:0:0:0:
320,192,57430,1,0,0:0:0:0:
192,192,57495,1,0,0:0:0:0:
64,192,57560,1,0,0:0:0:0:
192,192,57626,1,0,0:0:0:0:
320,192,57691,1,0,0:0:0:0:
448,192,57691,1,0,0:0:0:0:
64,192,57756,1,0,0:0:0:0:
320,192,57821,1,0,0:0:0:0:
192,192,57887,1,0,0:0:0:0:
64,192,57952,1,0,0:0:0:0:
320,192,57952,1,0,0:0:0:0:
448,192,58017,1,0,0:0:0:0:
192,192,58082,1,0,0:0:0:0:
320,192,58147,1,0,0:0:0:0:
192,192,58213,1,0,0:0:0:0:
448,192,58213,1,0,0:0:0:0:
64,192,58343,1,0,0:0:0:0:
320,192,58343,1,0,0:0:0:0:
192,192,58473,1,0,0:0:0:0:
320,192,58473,1,0,0:0:0:0:
448,192,58473,1,0,0:0:0:0:
192,192,58604,1,0,0:0:0:0:
320,192,58604,1,0,0:0:0:0:
320,192,58734,1,0,0:0:0:0:
448,192,58734,1,0,0:0:0:0:
192,192,58865,1,0,0:0:0:0:
448,192,58865,1,0,0:0:0:0:
64,192,58995,1,0,0:0:0:0:
448,192,58995,1,0,0:0:0:0:
192,192,59126,1,0,0:0:0:0:
448,192,59126,1,0,0:0:0:0:
64,192,59256,1,0,0:0:0:0:
192,192,59256,1,0,0:0:0:0:
320,192,59256,1,0,0:0:0:0:
320,192,59387,1,0,0:0:0:0:
64,192,59517,1,0,0:0:0:0:
192,192,59517,1,0,0:0:0:0:
320,192,59647,1,0,0:0:0:0:
192,192,59778,1,0,0:0:0:0:
320,192,59778,1,0,0:0:0:0:
448,192,59778,1,0,0:0:0:0:
64,192,59908,1,0,0:0:0:0:
448,192,59908,1,0,0:0:0:0:
192,192,60039,1,0,0:0:0:0:
320,192,60039,1,0,0:0:0:0:
64,192,60169,1,0,0:0:0:0:
64,192,60300,1,0,0:0:0:0:
192,192,60300,1,0,0:0:0:0:
320,192,60300,1,0,0:0:0:0:
192,192,60430,1,0,0:0:0:0:
448,192,60430,1,0,0:0:0:0:
64,192,60560,1,0,0:0:0:0:
192,192,60560,1,0,0:0:0:0:
320,192,60560,1,0,0:0:0:0:
448,192,60560,1,0,0:0:0:0:
64,192,60821,1,0,0:0:0:0:
320,192,60821,1,0,0:0:0:0:
192,192,60887,1,0,0:0:0:0:
320,192,60952,1,0,0:0:0:0:
192,192,61017,1,0,0:0:0:0:
320,192,61082,1,0,0:0:0:0:
448,192,61082,1,0,0:0:0:0:
192,192,61147,1,0,0:0:0:0:
64,192,61213,1,0,0:0:0:0:
448,192,61213,1,0,0:0:0:0:
192,192,61278,1,0,0:0:0:0:
64,192,61343,1,0,0:0:0:0:
320,192,61343,1,0,0:0:0:0:
448,192,61343,1,0,0:0:0:0:
64,192,61473,1,0,0:0:0:0:
192,192,61604,1,0,0:0:0:0:
320,192,61604,1,0,0:0:0:0:
64,192,61734,1,0,0:0:0:0:
448,192,61734,1,0,0:0:0:0:
192,192,61865,1,0,0:0:0:0:
64,192,61995,1,0,0:0:0:0:
320,192,61995,1,0,0:0:0:0:
448,192,61995,1,0,0:0:0:0:
192,192,62126,1,0,0:0:0:0:
320,192,62126,1,0,0:0:0:0:
448,192,62126,1,0,0:0:0:0:
64,192,62256,1,0,0:0:0:0:
448,192,62256,1,0,0:0:0:0:
64,192,62387,1,0,0:0:0:0:
192,192,62387,1,0,0:0:0:0:
320,192,62387,1,0,0:0:0:0:
192,192,62517,1,0,0:0:0:0:
448,192,62517,1,0,0:0:0:0:
320,192,62647,1,0,0:0:0:0:
448,192,62647,1,0,0:0:0:0:
64,192,62778,1,0,0:0:0:0:
192,192,62908,1,0,0:0:0:0:
320,192,62908,1,0,0:0:0:0:
448,192,62908,1,0,0:0:0:0:
192,192,63039,1,0,0:0:0:0:
448,192,63039,1,0,0:0:0:0:
64,192,63169,1,0,0:0:0:0:
192,192,63300,1,0,0:0:0:0:
320,192,63300,1,0,0:0:0:0:
192,192,63430,1,0,0:0:0:0:
448,192,63430,1,0,0:0:0:0:
64,192,63560,1,0,0:0:0:0:
192,192,63691,1,0,0:0:0:0:
320,192,63691,1,0,0:0:0:0:
192,192,63821,1,0,0:0:0:0:
320,192,63821,1,0,0:0:0:0:
448,192,63821,1,0,0:0:0:0:
64,192,63952,1,0,0:0:0:0:
192,192,64082,1,0,0:0:0:0:
320,192,64082,1,0,0:0:0:0:
192,192,64213,1,0,0:0:0:0:
448,192,64213,1,0,0:0:0:0:
64,192,64343,1,0,0:0:0:0:
320,192,64343,1,0,0:0:0:0:
448,192,64343,1,0,0:0:0:0:
64,192,64473,1,0,0:0:0:0:
192,192,64473,1,0,0:0:0:0:
192,192,64604,1,0,0:0:0:0:
448,192,64604,1,0,0:0:0:0:
64,192,64734,1,0,0:0:0:0:
320,192,64734,1,0,0:0:0:0:
192,192,64865,1,0,0:0:0:0:
320,192,64865,1,0,0:0:0:0:
64,192,64995,1,0,0:0:0:0:
192,192,64995,1,0,0:0:0:0:
448,192,64995,1,0,0:0:0:0:
320,192,65126,1,0,0:0:0:0:
64,192,65256,1,0,0:0:0:0:
192,192,65256,1,0,0:0:0:0:
320,192,65256,1,0,0:0:0:0:
448,192,65256,1,0,0:0:0:0:
64,192,65386,1,0,0:0:0:0:
192,192,65517,1,0,0:0:0:0:
448,192,65517,1,0,0:0:0:0:
320,192,65647,1,0,0:0:0:0:
448,192,65647,1,0,0:0:0:0:
64,192,65778,1,0,0:0:0:0:
192,192,65778,1,0,0:0:0:0:
64,192,65908,1,0,0:0:0:0:
320,192,65908,1,0,0:0:0:0:
448,192,65908,1,0,0:0:0:0:
192,192,66039,1,0,0:0:0:0:
320,192,66169,1,0,0:0:0:0:
448,192,66169,1,0,0:0:0:0:
64,192,66300,1,0,0:0:0:0:
192,192,66300,1,0,0:0:0:0:
448,192,66300,1,0,0:0:0:0:
192,192,66430,1,0,0:0:0:0:
320,192,66430,1,0,0:0:0:0:
64,192,66560,1,0,0:0:0:0:
320,192,66560,1,0,0:0:0:0:
448,192,66560,1,0,0:0:0:0:
320,192,66691,1,0,0:0:0:0:
64,192,66821,1,0,0:0:0:0:
192,192,66821,1,0,0:0:0:0:
64,192,66952,1,0,0:0:0:0:
320,192,66952,1,0,0:0:0:0:
192,192,67082,1,0,0:0:0:0:
448,192,67082,1,0,0:0:0:0:
448,192,67213,1,0,0:0:0:0:
64,192,67343,1,0,0:0:0:0:
192,192,67343,1,0,0:0:0:0:
320,192,67343,1,0,0:0:0:0:
64,192,67473,1,0,0:0:0:0:
192,192,67473,1,0,0:0:0:0:
192,192,67604,1,0,0:0:0:0:
320,192,67604,1,0,0:0:0:0:
448,192,67604,1,0,0:0:0:0:
64,192,67865,1,0,0:0:0:0:
320,192,67865,1,0,0:0:0:0:
448,192,67930,1,0,0:0:0:0:
320,192,67995,1,0,0:0:0:0:
192,192,68060,1,0,0:0:0:0:
64,192,68126,1,0,0:0:0:0:
448,192,68126,1,0,0:0:0:0:
320,192,68191,1,0,0:0:0:0:
192,192,68256,1,0,0:0:0:0:
448,192,68256,1,0,0:0:0:0:
64,192,68321,1,0,0:0:0:0:
320,192,68387,1,0,0:0:0:0:
448,192,68387,1,0,0:0:0:0:
64,192,68452,1,0,0:0:0:0:
192,192,68517,1,0,0:0:0:0:
448,192,68517,1,0,0:0:0:0:
64,192,68647,1,0,0:0:0:0:
192,192,68647,1,0,0:0:0:0:
320,192,68647,1,0,0:0:0:0:
448,192,68647,1,0,0:0:0:0:
192,192,69038,1,0,0:0:0:0:
320,192,69038,1,0,0:0:0:0:
448,192,69038,1,0,0:0:0:0:
64,192,69428,1,0,0:0:0:0:
192,192,69428,1,0,0:0:0:0:
320,192,69428,1,0,0:0:0:0:
64,192,69689,1,0,0:0:0:0:
192,192,69689,1,0,0:0:0:0:
320,192,69689,1,0,0:0:0:0:
448,192,69689,1,0,0:0:0:0:
192,192,69820,1,0,0:0:0:0:
320,192,69820,1,0,0:0:0:0:
64,192,69950,1,0,0:0:0:0:
320,192,69950,1,0,0:0:0:0:
448,192,69950,1,0,0:0:0:0:
64,192,70080,1,0,0:0:0:0:
320,192,70080,1,0,0:0:0:0:
192,192,70211,1,0,0:0:0:0:
320,192,70211,1,0,0:0:0:0:
448,192,70211,1,0,0:0:0:0:
192,192,70341,1,0,0:0:0:0:
448,192,70341,1,0,0:0:0:0:
64,192,70472,1,0,0:0:0:0:
192,192,70472,1,0,0:0:0:0:
320,192,70472,1,0,0:0:0:0:
64,192,70602,1,0,0:0:0:0:
448,192,70602,1,0,0:0:0:0:
64,192,70733,1,0,0:0:0:0:
192,192,70733,1,0,0:0:0:0:
448,192,70733,1,0,0:0:0:0:
192,192,70863,1,0,0:0:0:0:
320,192,70863,1,0,0:0:0:0:
192,192,70994,1,0,0:0:0:0:
320,192,70994,1,0,0:0:0:0:
448,192,70994,1,0,0:0:0:0:
192,192,71124,1,0,0:0:0:0:
64,192,71254,1,0,0:0:0:0:
320,192,71254,1,0,0:0:0:0:
448,192,71320,1,0,0:0:0:0:
192,192,71385,1,0,0:0:0:0:
320,192,71450,1,0,0:0:0:0:
64,192,71515,1,0,0:0:0:0:
192,192,71515,1,0,0:0:0:0:
192,192,71646,1,0,0:0:0:0:
448,192,71646,1,0,0:0:0:0:
64,192,71776,1,0,0:0:0:0:
192,192,71776,1,0,0:0:0:0:
448,192,71776,1,0,0:0:0:0:
320,192,71907,1,0,0:0:0:0:
64,192,72037,1,0,0:0:0:0:
320,192,72037,1,0,0:0:0:0:
448,192,72037,1,0,0:0:0:0:
192,192,72167,1,0,0:0:0:0:
448,192,72167,1,0,0:0:0:0:
64,192,72298,1,0,0:0:0:0:
192,192,72298,1,0,0:0:0:0:
320,192,72298,1,0,0:0:0:0:
64,192,72428,1,0,0:0:0:0:
320,192,72428,1,0,0:0:0:0:
192,192,72559,1,0,0:0:0:0:
320,192,72559,1,0,0:0:0:0:
448,192,72559,1,0,0:0:0:0:
64,192,72689,1,0,0:0:0:0:
448,192,72689,1,0,0:0:0:0:
64,192,72820,1,0,0:0:0:0:
320,192,72820,1,0,0:0:0:0:
448,192,72820,1,0,0:0:0:0:
192,192,72950,1,0,0:0:0:0:
320,192,72950,1,0,0:0:0:0:
64,192,73081,1,0,0:0:0:0:
192,192,73081,1,0,0:0:0:0:
320,192,73081,1,0,0:0:0:0:
448,192,73211,1,0,0:0:0:0:
64,192,73341,1,0,0:0:0:0:
448,192,73341,1,0,0:0:0:0:
320,192,73407,1,0,0:0:0:0:
448,192,73472,1,0,0:0:0:0:
192,192,73537,1,0,0:0:0:0:
64,192,73602,1,0,0:0:0:0:
320,192,73602,1,0,0:0:0:0:
192,192,73668,1,0,0:0:0:0:
448,192,73733,1,0,0:0:0:0:
320,192,73798,1,0,0:0:0:0:
64,192,73863,1,0,0:0:0:0:
192,192,73863,1,0,0:0:0:0:
320,192,73994,1,0,0:0:0:0:
448,192,73994,1,0,0:0:0:0:
64,192,74124,1,0,0:0:0:0:
192,192,74124,1,0,0:0:0:0:
448,192,74124,1,0,0:0:0:0:
64,192,74254,1,0,0:0:0:0:
320,192,74254,1,0,0:0:0:0:
192,192,74385,1,0,0:0:0:0:
320,192,74385,1,0,0:0:0:0:
64,192,74515,1,0,0:0:0:0:
448,192,74515,1,0,0:0:0:0:
192,192,74646,1,0,0:0:0:0:
320,192,74646,1,0,0:0:0:0:
448,192,74646,1,0,0:0:0:0:
320,192,74776,1,0,0:0:0:0:
448,192,74776,1,0,0:0:0:0:
64,192,74907,1,0,0:0:0:0:
192,192,74907,1,0,0:0:0:0:
320,192,74907,1,0,0:0:0:0:
448,192,75037,1,0,0:0:0:0:
64,192,75168,1,0,0:0:0:0:
192,192,75168,1,0,0:0:0:0:
320,192,75168,1,0,0:0:0:0:
64,192,75298,1,0,0:0:0:0:
192,192,75298,1,0,0:0:0:0:
320,192,75428,1,0,0:0:0:0:
448,192,75428,1,0,0:0:0:0:
64,192,75559,1,0,0:0:0:0:
320,192,75559,1,0,0:0:0:0:
192,192,75689,1,0,0:0:0:0:
448,192,75689,1,0,0:0:0:0:
320,192,75755,1,0,0:0:0:0:
64,192,75820,1,0,0:0:0:0:
320,192,75885,1,0,0:0:0:0:
192,192,75950,1,0,0:0:0:0:
448,192,75950,1,0,0:0:0:0:
64,192,76081,1,0,0:0:0:0:
192,192,76081,1,0,0:0:0:0:
320,192,76081,1,0,0:0:0:0:
192,192,76211,1,0,0:0:0:0:
448,192,76211,1,0,0:0:0:0:
320,192,76341,1,0,0:0:0:0:
64,192,76472,1,0,0:0:0:0:
448,192,76472,1,0,0:0:0:0:
192,192,76602,1,0,0:0:0:0:
448,192,76602,1,0,0:0:0:0:
64,192,76733,1,0,0:0:0:0:
192,192,76733,1,0,0:0:0:0:
320,192,76733,1,0,0:0:0:0:
64,192,76863,1,0,0:0:0:0:
448,192,76863,1,0,0:0:0:0:
192,192,76994,1,0,0:0:0:0:
448,192,76994,1,0,0:0:0:0:
192,192,77124,1,0,0:0:0:0:
320,192,77168,1,0,0:0:0:0:
192,192,77341,1,0,0:0:0:0:
64,192,77515,1,0,0:0:0:0:
320,192,77515,1,0,0:0:0:0:
448,192,77646,1,0,0:0:0:0:
192,192,77689,1,0,0:0:0:0:
320,192,77863,1,0,0:0:0:0:
64,192,78037,1,0,0:0:0:0:
192,192,78037,1,0,0:0:0:0:
320,192,78037,1,0,0:0:0:0:
448,192,78037,1,0,0:0:0:0:
320,192,78168,1,0,0:0:0:0:
64,192,78298,1,0,0:0:0:0:
192,192,78298,1,0,0:0:0:0:
448,192,78298,1,0,0:0:0:0:
320,192,78428,1,0,0:0:0:0:
448,192,78428,1,0,0:0:0:0:
192,192,78559,1,0,0:0:0:0:
448,192,78559,1,0,0:0:0:0:
64,192,78689,1,0,0:0:0:0:
192,192,78820,1,0,0:0:0:0:
320,192,78820,1,0,0:0:0:0:
64,192,78950,1,0,0:0:0:0:
448,192,78950,1,0,0:0:0:0:
192,192,79081,1,0,0:0:0:0:
320,192,79081,1,0,0:0:0:0:
448,192,79081,1,0,0:0:0:0:
192,192,79211,1,0,0:0:0:0:
64,192,79341,1,0,0:0:0:0:
320,192,79472,1,0,0:0:0:0:
448,192,79472,1,0,0:0:0:0:
64,192,79602,1,0,0:0:0:0:
192,192,79602,1,0,0:0:0:0:
448,192,79602,1,0,0:0:0:0:
320,192,79733,1,0,0:0:0:0:
64,192,79863,1,0,0:0:0:0:
192,192,79863,1,0,0:0:0:0:
448,192,79863,1,0,0:0:0:0:
64,192,79994,1,0,0:0:0:0:
320,192,79994,1,0,0:0:0:0:
64,192,80124,1,0,0:0:0:0:
192,192,80124,1,0,0:0:0:0:
320,192,80124,1,0,0:0:0:0:
448,192,80124,1,0,0:0:0:0:
192,192,80255,1,0,0:0:0:0:
192,192,80385,1,0,0:0:0:0:
320,192,80385,1,0,0:0:0:0:
448,192,80515,1,0,0:0:0:0:
64,192,80646,1,0,0:0:0:0:
192,192,80646,1,0,0:0:0:0:
320,192,80646,1,0,0:0:0:0:
192,192,80776,1,0,0:0:0:0:
448,192,80776,1,0,0:0:0:0:
320,192,80907,1,0,0:0:0:0:
448,192,80907,1,0,0:0:0:0:
64,192,81037,1,0,0:0:0:0:
192,192,81168,1,0,0:0:0:0:
320,192,81168,1,0,0:0:0:0:
64,192,81298,1,0,0:0:0:0:
192,192,81298,1,0,0:0:0:0:
448,192,81298,1,0,0:0:0:0:
64,192,81428,1,0,0:0:0:0:
320,192,81428,1,0,0:0:0:0:
448,192,81428,1,0,0:0:0:0:
192,192,81559,1,0,0:0:0:0:
320,192,81689,1,0,0:0:0:0:
448,192,81689,1,0,0:0:0:0:
64,192,81820,1,0,0:0:0:0:
320,192,81820,1,0,0:0:0:0:
192,192,81950,1,0,0:0:0:0:
320,192,81950,1,0,0:0:0:0:
64,192,82081,1,0,0:0:0:0:
448,192,82081,1,0,0:0:0:0:
64,192,82211,1,0,0:0:0:0:
192,192,82211,1,0,0:0:0:0:
320,192,82211,1,0,0:0:0:0:
448,192,82211,1,0,0:0:0:0:
320,192,82342,1,0,0:0:0:0:
64,192,82472,1,0,0:0:0:0:
192,192,82472,1,0,0:0:0:0:
192,192,82602,1,0,0:0:0:0:
320,192,82602,1,0,0:0:0:0:
64,192,82733,1,0,0:0:0:0:
320,192,82733,1,0,0:0:0:0:
448,192,82733,1,0,0:0:0:0:
64,192,82863,1,0,0:0:0:0:
192,192,82863,1,0,0:0:0:0:
192,192,82994,1,0,0:0:0:0:
448,192,82994,1,0,0:0:0:0:
320,192,83124,1,0,0:0:0:0:
192,192,83255,1,0,0:0:0:0:
448,192,83255,1,0,0:0:0:0:
64,192,83385,1,0,0:0:0:0:
192,192,83385,1,0,0:0:0:0:
320,192,83385,1,0,0:0:0:0:
320,192,83515,1,0,0:0:0:0:
448,192,83515,1,0,0:0:0:0:
192,192,83646,1,0,0:0:0:0:
448,192,83646,1,0,0:0:0:0:
64,192,83776,1,0,0:0:0:0:
320,192,83776,1,0,0:0:0:0:
192,192,83907,1,0,0:0:0:0:
320,192,83907,1,0,0:0:0:0:
64,192,84037,1,0,0:0:0:0:
448,192,84037,1,0,0:0:0:0:
320,192,84168,1,0,0:0:0:0:
64,192,84298,1,0,0:0:0:0:
192,192,84298,1,0,0:0:0:0:
320,192,84298,1,0,0:0:0:0:
64,192,84429,1,0,0:0:0:0:
192,192,84429,1,0,0:0:0:0:
192,192,84559,1,0,0:0:0:0:
448,192,84559,1,0,0:0:0:0:
64,192,84689,1,0,0:0:0:0:
320,192,84689,1,0,0:0:0:0:
320,192,84820,1,0,0:0:0:0:
448,192,84820,1,0,0:0:0:0:
192,192,84950,1,0,0:0:0:0:
448,192,84950,1,0,0:0:0:0:
64,192,85081,1,0,0:0:0:0:
320,192,85081,1,0,0:0:0:0:
64,192,85211,1,0,0:0:0:0:
192,192,85211,1,0,0:0:0:0:
320,192,85211,1,0,0:0:0:0:
320,192,85342,1,0,0:0:0:0:
448,192,85342,1,0,0:0:0:0:
192,192,85407,1,0,0:0:0:0:
320,192,85472,1,0,0:0:0:0:
448,192,85472,1,0,0:0:0:0:
64,192,85537,1,0,0:0:0:0:
192,192,85602,1,0,0:0:0:0:
448,192,85602,1,0,0:0:0:0:
320,192,85668,1,0,0:0:0:0:
64,192,85733,1,0,0:0:0:0:
192,192,85798,1,0,0:0:0:0:
320,192,85863,1,0,0:0:0:0:
448,192,85863,1,0,0:0:0:0:
192,192,85929,1,0,0:0:0:0:
64,192,85994,1,0,0:0:0:0:
320,192,85994,1,0,0:0:0:0:
448,192,86059,1,0,0:0:0:0:
192,192,86124,1,0,0:0:0:0:
320,192,86189,1,0,0:0:0:0:
64,192,86255,1,0,0:0:0:0:
192,192,86320,1,0,0:0:0:0:
64,192,86385,1,0,0:0:0:0:
320,192,86385,1,0,0:0:0:0:
448,192,86385,1,0,0:0:0:0:
