osu file format v12

[General]
AudioFilename: OP.mp3
AudioLeadIn: 2
PreviewTime: 51947
Countdown: 0
SampleSet: None
StackLeniency: 0.7
Mode: 3
LetterboxInBreaks: 0
SpecialStyle: 0
WidescreenStoryboard: 0

[Editor]
DistanceSpacing: 0.8
BeatDivisor: 4
GridSize: 8
TimelineZoom: 1

[Metadata]
Title:Kuusou Mesorogii
TitleUnicode:空想メソロギヰ
Artist:Yousei Teikoku
ArtistUnicode:妖精帝國
Creator:MasterSonic10
Version:4k HD
Source:Stepmania
Tags:Stepmania
BeatmapID:429857
BeatmapSetID:169893

[Difficulty]
HPDrainRate:5
CircleSize:4
OverallDifficulty:7
ApproachRate:10
SliderMultiplier:1.4
SliderTickRate:1

[Events]
//Background and Video events
0,0,"background.jpg",0,0
//Break Periods
//Storyboard Layer 0 (Background)
//Storyboard Layer 1 (Fail)
//Storyboard Layer 2 (Pass)
//Storyboard Layer 3 (Foreground)
//Storyboard Sound Samples
//Background Colour Transformations
3,100,163,162,255

[TimingPoints]
300,260.8696,4,2,0,15,1,0
68647.71,60000000000000,4,2,0,15,1,0
68647.71,60000000000000,4,2,0,15,1,0
68647.71,60000000000000,4,2,0,15,1,0
68647.71,60000000000000,4,2,0,15,1,0
68907.71,260.8696,4,2,0,15,1,0
68907.71,260.8696,4,2,0,15,1,0
68907.71,260.8696,4,2,0,15,1,0
68907.71,260.8696,4,2,0,15,1,0
69038.15,60000000000000,4,2,0,15,1,0
69038.15,60000000000000,4,2,0,15,1,0
69038.15,60000000000000,4,2,0,15,1,0
69038.15,60000000000000,4,2,0,15,1,0
69298.15,260.8696,4,2,0,15,1,0
69298.15,260.8696,4,2,0,15,1,0
69298.15,260.8696,4,2,0,15,1,0
69298.15,260.8696,4,2,0,15,1,0

[HitObjects]
64,192,821,5,0,0:0:0:0:
192,192,952,1,0,0:0:0:0:
64,192,1082,1,0,0:0:0:0:
320,192,1213,1,0,0:0:0:0:
192,192,1343,1,0,0:0:0:0:
448,0,1343,128,0,1865:1:0:0:0:
64,192,1865,1,0,0:0:0:0:
320,0,1865,128,0,2386:1:0:0:0:
192,192,2386,1,0,0:0:0:0:
320,192,2517,1,0,0:0:0:0:
64,192,2647,1,0,0:0:0:0:
320,192,2778,1,0,0:0:0:0:
448,192,2908,1,0,0:0:0:0:
192,0,2908,128,0,3430:1:0:0:0:
320,192,3430,1,0,0:0:0:0:
448,192,3691,1,0,0:0:0:0:
320,192,3952,1,0,0:0:0:0:
64,0,3952,128,0,4473:1:0:0:0:
192,192,4473,1,0,0:0:0:0:
448,0,4473,128,0,4995:1:0:0:0:
64,0,4995,128,0,6560:1:0:0:0:
320,0,4995,128,0,6560:1:0:0:0:
192,192,7082,1,0,0:0:0:0:
320,192,7082,1,0,0:0:0:0:
64,192,7604,1,0,0:0:0:0:
320,192,7604,1,0,0:0:0:0:
192,192,7865,1,0,0:0:0:0:
64,192,8126,1,0,0:0:0:0:
448,192,8126,1,0,0:0:0:0:
320,192,8386,1,0,0:0:0:0:
64,192,8647,1,0,0:0:0:0:
192,192,8647,1,0,0:0:0:0:
448,192,8908,1,0,0:0:0:0:
64,192,9169,1,0,0:0:0:0:
448,192,9169,1,0,0:0:0:0:
192,192,9300,1,0,0:0:0:0:
448,192,9430,1,0,0:0:0:0:
192,192,9691,1,0,0:0:0:0:
320,192,9691,1,0,0:0:0:0:
64,192,9821,1,0,0:0:0:0:
192,192,9952,1,0,0:0:0:0:
320,192,10082,1,0,0:0:0:0:
192,192,10213,1,0,0:0:0:0:
448,192,10213,1,0,0:0:0:0:
320,192,10343,1,0,0:0:0:0:
64,192,10604,1,0,0:0:0:0:
192,192,10865,1,0,0:0:0:0:
448,192,10995,1,0,0:0:0:0:
64,192,11256,1,0,0:0:0:0:
448,192,11256,1,0,0:0:0:0:
320,192,11386,1,0,0:0:0:0:
192,192,11517,1,0,0:0:0:0:
320,192,11778,1,0,0:0:0:0:
448,192,11778,1,0,0:0:0:0:
192,192,11908,1,0,0:0:0:0:
64,192,12039,1,0,0:0:0:0:
320,192,12169,1,0,0:0:0:0:
192,192,12299,1,0,0:0:0:0:
448,192,12299,1,0,0:0:0:0:
64,192,12560,1,0,0:0:0:0:
320,192,12691,1,0,0:0:0:0:
192,192,12952,1,0,0:0:0:0:
320,192,13082,1,0,0:0:0:0:
448,192,13082,1,0,0:0:0:0:
64,192,13343,1,0,0:0:0:0:
320,192,13343,1,0,0:0:0:0:
192,192,13473,1,0,0:0:0:0:
64,192,13604,1,0,0:0:0:0:
448,192,13865,1,0,0:0:0:0:
320,192,13995,1,0,0:0:0:0:
192,192,14256,1,0,0:0:0:0:
320,192,14256,1,0,0:0:0:0:
64,192,14517,1,0,0:0:0:0:
192,192,14778,1,0,0:0:0:0:
192,192,15039,1,0,0:0:0:0:
64,192,15169,1,0,0:0:0:0:
448,192,15169,1,0,0:0:0:0:
192,192,15430,1,0,0:0:0:0:
320,192,15430,1,0,0:0:0:0:
64,192,15560,1,0,0:0:0:0:
320,192,15691,1,0,0:0:0:0:
448,192,15952,1,0,0:0:0:0:
64,192,16082,1,0,0:0:0:0:
192,192,16213,1,0,0:0:0:0:
448,192,16343,1,0,0:0:0:0:
320,192,16473,1,0,0:0:0:0:
64,192,16734,1,0,0:0:0:0:
448,192,16865,1,0,0:0:0:0:
320,192,17126,1,0,0:0:0:0:
64,192,17256,1,0,0:0:0:0:
192,192,17256,1,0,0:0:0:0:
64,192,17517,1,0,0:0:0:0:
320,192,17517,1,0,0:0:0:0:
192,192,17778,1,0,0:0:0:0:
448,192,17778,1,0,0:0:0:0:
192,192,18039,1,0,0:0:0:0:
320,192,18039,1,0,0:0:0:0:
64,192,18300,1,0,0:0:0:0:
448,192,18300,1,0,0:0:0:0:
192,192,18560,1,0,0:0:0:0:
448,192,18560,1,0,0:0:0:0:
320,192,18691,1,0,0:0:0:0:
64,192,18952,1,0,0:0:0:0:
192,192,18952,1,0,0:0:0:0:
192,192,19343,1,0,0:0:0:0:
320,192,19343,1,0,0:0:0:0:
64,192,19604,1,0,0:0:0:0:
448,192,19604,1,0,0:0:0:0:
64,192,19865,1,0,0:0:0:0:
320,192,19865,1,0,0:0:0:0:
192,192,20126,1,0,0:0:0:0:
448,192,20126,1,0,0:0:0:0:
320,192,20386,1,0,0:0:0:0:
448,192,20386,1,0,0:0:0:0:
64,192,20647,1,0,0:0:0:0:
192,192,20647,1,0,0:0:0:0:
64,192,20778,1,0,0:0:0:0:
320,192,21169,1,0,0:0:0:0:
448,192,21169,1,0,0:0:0:0:
448,192,21300,1,0,0:0:0:0:
192,192,21430,1,0,0:0:0:0:
64,192,21691,1,0,0:0:0:0:
192,192,21691,1,0,0:0:0:0:
320,192,21952,1,0,0:0:0:0:
448,192,21952,1,0,0:0:0:0:
64,192,22213,1,0,0:0:0:0:
320,192,22213,1,0,0:0:0:0:
64,192,22473,1,0,0:0:0:0:
192,192,22473,1,0,0:0:0:0:
448,192,22734,1,0,0:0:0:0:
192,192,22865,1,0,0:0:0:0:
64,192,23126,1,0,0:0:0:0:
320,192,23517,1,0,0:0:0:0:
64,192,23778,1,0,0:0:0:0:
320,192,23778,1,0,0:0:0:0:
192,192,24039,1,0,0:0:0:0:
448,192,24039,1,0,0:0:0:0:
192,192,24300,1,0,0:0:0:0:
320,192,24300,1,0,0:0:0:0:
64,192,24560,1,0,0:0:0:0:
448,192,24560,1,0,0:0:0:0:
192,192,24821,1,0,0:0:0:0:
320,192,24821,1,0,0:0:0:0:
192,192,24952,1,0,0:0:0:0:
192,192,25343,1,0,0:0:0:0:
320,192,25343,1,0,0:0:0:0:
320,192,25473,1,0,0:0:0:0:
64,192,25865,1,0,0:0:0:0:
320,192,25995,1,0,0:0:0:0:
192,192,26126,1,0,0:0:0:0:
448,192,26126,1,0,0:0:0:0:
64,192,26386,1,0,0:0:0:0:
320,192,26517,1,0,0:0:0:0:
448,192,26647,1,0,0:0:0:0:
192,192,26778,1,0,0:0:0:0:
320,192,26908,1,0,0:0:0:0:
64,0,26908,128,0,27952:1:0:0:0:
192,192,27430,1,0,0:0:0:0:
192,192,27952,1,0,0:0:0:0:
448,192,27952,1,0,0:0:0:0:
64,192,28213,1,0,0:0:0:0:
320,192,28213,1,0,0:0:0:0:
192,192,28473,1,0,0:0:0:0:
320,192,28734,1,0,0:0:0:0:
448,192,28734,1,0,0:0:0:0:
64,192,28995,1,0,0:0:0:0:
192,192,28995,1,0,0:0:0:0:
320,192,29256,1,0,0:0:0:0:
192,192,29517,1,0,0:0:0:0:
448,192,29517,1,0,0:0:0:0:
320,192,29778,1,0,0:0:0:0:
448,192,29778,1,0,0:0:0:0:
64,192,30039,1,0,0:0:0:0:
320,192,30169,1,0,0:0:0:0:
448,192,30300,1,0,0:0:0:0:
320,192,30560,1,0,0:0:0:0:
192,192,30691,1,0,0:0:0:0:
448,192,30821,1,0,0:0:0:0:
64,192,31082,1,0,0:0:0:0:
448,0,31082,128,0,32126:1:0:0:0:
192,192,31604,1,0,0:0:0:0:
64,192,32126,1,0,0:0:0:0:
320,192,32126,1,0,0:0:0:0:
64,192,32387,1,0,0:0:0:0:
192,192,32387,1,0,0:0:0:0:
320,192,32647,1,0,0:0:0:0:
192,192,32908,1,0,0:0:0:0:
448,192,32908,1,0,0:0:0:0:
320,192,33169,1,0,0:0:0:0:
448,192,33169,1,0,0:0:0:0:
64,192,33430,1,0,0:0:0:0:
192,192,33691,1,0,0:0:0:0:
320,192,33691,1,0,0:0:0:0:
64,192,33952,1,0,0:0:0:0:
448,192,33952,1,0,0:0:0:0:
320,192,34213,1,0,0:0:0:0:
192,192,34343,1,0,0:0:0:0:
64,192,34473,1,0,0:0:0:0:
320,192,34734,1,0,0:0:0:0:
64,192,34865,1,0,0:0:0:0:
192,192,34995,1,0,0:0:0:0:
320,192,35256,1,0,0:0:0:0:
192,192,35386,1,0,0:0:0:0:
64,192,35647,1,0,0:0:0:0:
320,192,35908,1,0,0:0:0:0:
448,192,36039,1,0,0:0:0:0:
64,192,36169,1,0,0:0:0:0:
192,192,36430,1,0,0:0:0:0:
448,192,36430,1,0,0:0:0:0:
64,192,36821,1,0,0:0:0:0:
320,192,36821,1,0,0:0:0:0:
448,192,37082,1,0,0:0:0:0:
64,192,37343,1,0,0:0:0:0:
192,192,37343,1,0,0:0:0:0:
192,192,37604,1,0,0:0:0:0:
320,192,37604,1,0,0:0:0:0:
64,192,37865,1,0,0:0:0:0:
320,192,37865,1,0,0:0:0:0:
192,192,38126,1,0,0:0:0:0:
320,192,38386,1,0,0:0:0:0:
448,192,38386,1,0,0:0:0:0:
64,192,38647,1,0,0:0:0:0:
320,192,38647,1,0,0:0:0:0:
192,192,38778,1,0,0:0:0:0:
448,192,38908,1,0,0:0:0:0:
320,192,39169,1,0,0:0:0:0:
448,192,39169,1,0,0:0:0:0:
64,192,39430,1,0,0:0:0:0:
192,192,39430,1,0,0:0:0:0:
320,192,39560,1,0,0:0:0:0:
448,192,39691,1,0,0:0:0:0:
192,192,39952,1,0,0:0:0:0:
64,192,40082,1,0,0:0:0:0:
320,192,40213,1,0,0:0:0:0:
192,192,40343,1,0,0:0:0:0:
320,192,40604,1,0,0:0:0:0:
448,192,40604,1,0,0:0:0:0:
64,192,40995,1,0,0:0:0:0:
320,192,40995,1,0,0:0:0:0:
192,192,41256,1,0,0:0:0:0:
320,192,41647,1,0,0:0:0:0:
448,192,41778,1,0,0:0:0:0:
192,192,41908,1,0,0:0:0:0:
64,192,42169,1,0,0:0:0:0:
192,192,42299,1,0,0:0:0:0:
320,192,42430,1,0,0:0:0:0:
192,192,42691,1,0,0:0:0:0:
448,192,42691,1,0,0:0:0:0:
64,192,43082,1,0,0:0:0:0:
320,192,43082,1,0,0:0:0:0:
64,192,43604,1,0,0:0:0:0:
448,192,43604,1,0,0:0:0:0:
192,192,43734,1,0,0:0:0:0:
448,192,43865,1,0,0:0:0:0:
320,192,43995,1,0,0:0:0:0:
448,192,44126,1,0,0:0:0:0:
64,192,44386,1,0,0:0:0:0:
192,0,44386,128,0,44908:1:0:0:0:
320,192,44908,1,0,0:0:0:0:
64,192,45169,1,0,0:0:0:0:
192,192,45169,1,0,0:0:0:0:
320,192,45430,1,0,0:0:0:0:
448,192,45430,1,0,0:0:0:0:
64,192,45691,1,0,0:0:0:0:
320,192,45691,1,0,0:0:0:0:
192,192,45952,1,0,0:0:0:0:
320,192,46082,1,0,0:0:0:0:
448,192,46213,1,0,0:0:0:0:
320,192,46343,1,0,0:0:0:0:
64,192,46473,1,0,0:0:0:0:
448,192,46734,1,0,0:0:0:0:
320,192,46865,1,0,0:0:0:0:
448,192,46995,1,0,0:0:0:0:
64,192,47256,1,0,0:0:0:0:
320,192,47256,1,0,0:0:0:0:
192,192,47386,1,0,0:0:0:0:
64,192,47517,1,0,0:0:0:0:
320,192,47778,1,0,0:0:0:0:
448,192,47778,1,0,0:0:0:0:
192,192,48039,1,0,0:0:0:0:
64,192,48299,1,0,0:0:0:0:
320,192,48299,1,0,0:0:0:0:
64,192,48560,1,0,0:0:0:0:
192,192,48560,1,0,0:0:0:0:
320,192,48821,1,0,0:0:0:0:
448,192,48821,1,0,0:0:0:0:
192,192,49082,1,0,0:0:0:0:
64,192,49343,1,0,0:0:0:0:
320,192,49343,1,0,0:0:0:0:
64,192,49604,1,0,0:0:0:0:
192,192,49604,1,0,0:0:0:0:
192,192,49865,1,0,0:0:0:0:
448,192,49865,1,0,0:0:0:0:
64,192,50126,1,0,0:0:0:0:
320,192,50386,1,0,0:0:0:0:
448,192,50386,1,0,0:0:0:0:
192,192,50647,1,0,0:0:0:0:
448,192,50647,1,0,0:0:0:0:
64,192,50908,1,0,0:0:0:0:
192,192,51169,1,0,0:0:0:0:
320,192,51299,1,0,0:0:0:0:
448,192,51430,1,0,0:0:0:0:
192,192,51560,1,0,0:0:0:0:
320,192,51691,1,0,0:0:0:0:
64,192,51821,1,0,0:0:0:0:
192,192,51952,1,0,0:0:0:0:
448,192,51952,1,0,0:0:0:0:
320,0,52473,128,0,52995:1:0:0:0:
64,192,52995,1,0,0:0:0:0:
192,192,52995,1,0,0:0:0:0:
448,192,53256,1,0,0:0:0:0:
192,192,53386,1,0,0:0:0:0:
64,192,53647,1,0,0:0:0:0:
320,192,53778,1,0,0:0:0:0:
64,192,54039,1,0,0:0:0:0:
192,192,54299,1,0,0:0:0:0:
448,192,54299,1,0,0:0:0:0:
192,192,54560,1,0,0:0:0:0:
320,192,54560,1,0,0:0:0:0:
64,192,54821,1,0,0:0:0:0:
448,192,54821,1,0,0:0:0:0:
192,192,55082,1,0,0:0:0:0:
448,192,55082,1,0,0:0:0:0:
320,192,55343,1,0,0:0:0:0:
192,192,55473,1,0,0:0:0:0:
64,192,55604,1,0,0:0:0:0:
192,192,55865,1,0,0:0:0:0:
448,192,55995,1,0,0:0:0:0:
64,192,56125,1,0,0:0:0:0:
448,192,56386,1,0,0:0:0:0:
192,192,56647,1,0,0:0:0:0:
320,192,56647,1,0,0:0:0:0:
192,192,56908,1,0,0:0:0:0:
64,192,57169,1,0,0:0:0:0:
448,192,57169,1,0,0:0:0:0:
192,192,57430,1,0,0:0:0:0:
320,192,57560,1,0,0:0:0:0:
448,192,57821,1,0,0:0:0:0:
192,192,57952,1,0,0:0:0:0:
64,192,58212,1,0,0:0:0:0:
192,192,58212,1,0,0:0:0:0:
192,192,58473,1,0,0:0:0:0:
448,192,58473,1,0,0:0:0:0:
320,192,58734,1,0,0:0:0:0:
64,192,58995,1,0,0:0:0:0:
448,192,58995,1,0,0:0:0:0:
192,192,59256,1,0,0:0:0:0:
320,192,59256,1,0,0:0:0:0:
64,192,59517,1,0,0:0:0:0:
448,192,59647,1,0,0:0:0:0:
192,192,59778,1,0,0:0:0:0:
448,192,60039,1,0,0:0:0:0:
192,192,60169,1,0,0:0:0:0:
64,192,60299,1,0,0:0:0:0:
320,192,60560,1,0,0:0:0:0:
64,192,60821,1,0,0:0:0:0:
192,192,60821,1,0,0:0:0:0:
320,192,61082,1,0,0:0:0:0:
192,192,61343,1,0,0:0:0:0:
448,192,61343,1,0,0:0:0:0:
192,192,61604,1,0,0:0:0:0:
64,0,61734,128,0,62647:1:0:0:0:
320,192,61865,1,0,0:0:0:0:
192,192,62125,1,0,0:0:0:0:
320,192,62386,1,0,0:0:0:0:
448,192,62647,1,0,0:0:0:0:
192,192,62908,1,0,0:0:0:0:
320,192,62908,1,0,0:0:0:0:
64,192,63169,1,0,0:0:0:0:
448,192,63169,1,0,0:0:0:0:
192,192,63430,1,0,0:0:0:0:
448,192,63430,1,0,0:0:0:0:
320,192,63691,1,0,0:0:0:0:
448,0,63821,128,0,64995:1:0:0:0:
64,192,63952,1,0,0:0:0:0:
192,192,64212,1,0,0:0:0:0:
64,192,64473,1,0,0:0:0:0:
320,192,64734,1,0,0:0:0:0:
192,192,64995,1,0,0:0:0:0:
64,192,65256,1,0,0:0:0:0:
448,192,65517,1,0,0:0:0:0:
192,192,65647,1,0,0:0:0:0:
320,192,65778,1,0,0:0:0:0:
64,192,65908,1,0,0:0:0:0:
192,192,66299,1,0,0:0:0:0:
320,192,66430,1,0,0:0:0:0:
64,192,66560,1,0,0:0:0:0:
448,192,66560,1,0,0:0:0:0:
192,192,66821,1,0,0:0:0:0:
320,192,66952,1,0,0:0:0:0:
448,192,67082,1,0,0:0:0:0:
64,192,67343,1,0,0:0:0:0:
192,192,67343,1,0,0:0:0:0:
320,192,67604,1,0,0:0:0:0:
448,192,67604,1,0,0:0:0:0:
64,192,67865,1,0,0:0:0:0:
192,192,68125,1,0,0:0:0:0:
448,192,68125,1,0,0:0:0:0:
320,192,68386,1,0,0:0:0:0:
64,192,68647,1,0,0:0:0:0:
320,192,68647,1,0,0:0:0:0:
320,192,69038,1,0,0:0:0:0:
448,192,69038,1,0,0:0:0:0:
64,192,69428,1,0,0:0:0:0:
192,192,69428,1,0,0:0:0:0:
320,192,69689,1,0,0:0:0:0:
448,192,69689,1,0,0:0:0:0:
64,192,69950,1,0,0:0:0:0:
448,192,70211,1,0,0:0:0:0:
192,192,70341,1,0,0:0:0:0:
320,192,70472,1,0,0:0:0:0:
192,192,70602,1,0,0:0:0:0:
64,192,70732,1,0,0:0:0:0:
320,192,70863,1,0,0:0:0:0:
448,192,70993,1,0,0:0:0:0:
192,192,71254,1,0,0:0:0:0:
320,192,71385,1,0,0:0:0:0:
64,192,71515,1,0,0:0:0:0:
192,192,71776,1,0,0:0:0:0:
448,192,71776,1,0,0:0:0:0:
64,192,72037,1,0,0:0:0:0:
448,192,72298,1,0,0:0:0:0:
320,192,72428,1,0,0:0:0:0:
192,192,72559,1,0,0:0:0:0:
320,192,72689,1,0,0:0:0:0:
64,192,72819,1,0,0:0:0:0:
192,192,72950,1,0,0:0:0:0:
320,192,73080,1,0,0:0:0:0:
448,192,73211,1,0,0:0:0:0:
64,192,73341,1,0,0:0:0:0:
448,192,73602,1,0,0:0:0:0:
192,192,73863,1,0,0:0:0:0:
320,192,73863,1,0,0:0:0:0:
192,192,74124,1,0,0:0:0:0:
64,192,74385,1,0,0:0:0:0:
448,192,74515,1,0,0:0:0:0:
192,192,74646,1,0,0:0:0:0:
320,192,74776,1,0,0:0:0:0:
64,192,74906,1,0,0:0:0:0:
192,192,75037,1,0,0:0:0:0:
320,192,75167,1,0,0:0:0:0:
64,192,75298,1,0,0:0:0:0:
192,192,75428,1,0,0:0:0:0:
320,192,75559,1,0,0:0:0:0:
448,192,75689,1,0,0:0:0:0:
192,192,75820,1,0,0:0:0:0:
64,192,75950,1,0,0:0:0:0:
320,192,75950,1,0,0:0:0:0:
448,192,76211,1,0,0:0:0:0:
192,192,76472,1,0,0:0:0:0:
320,192,76472,1,0,0:0:0:0:
64,192,76733,1,0,0:0:0:0:
320,192,76733,1,0,0:0:0:0:
448,192,76993,1,0,0:0:0:0:
320,192,77167,1,0,0:0:0:0:
192,192,77341,1,0,0:0:0:0:
64,192,77515,1,0,0:0:0:0:
192,192,77689,1,0,0:0:0:0:
320,192,77863,1,0,0:0:0:0:
192,192,78037,1,0,0:0:0:0:
448,192,78037,1,0,0:0:0:0:
64,192,78298,1,0,0:0:0:0:
192,192,78559,1,0,0:0:0:0:
448,192,78559,1,0,0:0:0:0:
320,192,78819,1,0,0:0:0:0:
320,192,79080,1,0,0:0:0:0:
448,192,79080,1,0,0:0:0:0:
64,192,79341,1,0,0:0:0:0:
448,192,79602,1,0,0:0:0:0:
320,192,79733,1,0,0:0:0:0:
192,192,79863,1,0,0:0:0:0:
64,192,79993,1,0,0:0:0:0:
320,192,80124,1,0,0:0:0:0:
448,192,80124,1,0,0:0:0:0:
320,192,80385,1,0,0:0:0:0:
64,192,80646,1,0,0:0:0:0:
192,192,80646,1,0,0:0:0:0:
320,192,80906,1,0,0:0:0:0:
192,192,81167,1,0,0:0:0:0:
448,192,81167,1,0,0:0:0:0:
64,192,81428,1,0,0:0:0:0:
448,192,81689,1,0,0:0:0:0:
192,192,81819,1,0,0:0:0:0:
320,192,81950,1,0,0:0:0:0:
64,192,82080,1,0,0:0:0:0:
320,192,82211,1,0,0:0:0:0:
448,192,82211,1,0,0:0:0:0:
64,192,82472,1,0,0:0:0:0:
192,192,82472,1,0,0:0:0:0:
320,192,82733,1,0,0:0:0:0:
192,192,82993,1,0,0:0:0:0:
448,192,82993,1,0,0:0:0:0:
64,192,83254,1,0,0:0:0:0:
192,192,83515,1,0,0:0:0:0:
320,192,83515,1,0,0:0:0:0:
64,192,83776,1,0,0:0:0:0:
192,192,83906,1,0,0:0:0:0:
448,192,84037,1,0,0:0:0:0:
320,192,84167,1,0,0:0:0:0:
64,192,84298,1,0,0:0:0:0:
192,192,84298,1,0,0:0:0:0:
192,192,84559,1,0,0:0:0:0:
448,192,84559,1,0,0:0:0:0:
320,192,84820,1,0,0:0:0:0:
64,192,85080,1,0,0:0:0:0:
192,192,85080,1,0,0:0:0:0:
448,192,85341,1,0,0:0:0:0:
64,192,85602,1,0,0:0:0:0:
320,192,85602,1,0,0:0:0:0:
192,192,85863,1,0,0:0:0:0:
320,192,85993,1,0,0:0:0:0:
64,192,86124,1,0,0:0:0:0:
192,192,86124,1,0,0:0:0:0:
64,192,86385,1,0,0:0:0:0:
320,192,86385,1,0,0:0:0:0:
448,192,86385,1,0,0:0:0:0:
