osu file format v13

[General]
AudioFilename: Kuraki Sekai no Doukoku.mp3
AudioLeadIn: 0
PreviewTime: 61053
Countdown: 0
SampleSet: Soft
StackLeniency: 0.6
Mode: 0
LetterboxInBreaks: 0
WidescreenStoryboard: 1

[Editor]
DistanceSpacing: 1
BeatDivisor: 4
GridSize: 4
TimelineZoom: 1

[Metadata]
Title:Kuraki Sekai no Doukoku (Short Ver.)
TitleUnicode:昏き世界の慟哭 (Short Ver.)
Artist:Yousei Teikoku
ArtistUnicode:妖精帝國
Creator:Saten
Version:Insane
Source:fortissimo EXS//Akkord:nächsten Phase
Tags:Saten-san Opening La'cryma OnosakiHito
BeatmapID:454036
BeatmapSetID:190700

[Difficulty]
HPDrainRate:7
CircleSize:4
OverallDifficulty:8
ApproachRate:9
SliderMultiplier:0.7
SliderTickRate:2

[Events]
//Background and Video events
0,0,"guishen_1110ff_cg_nagisa_22a.jpg",0,0
Video,0,"aaa.avi"
//Break Periods
//Storyboard Layer 0 (Background)
//Storyboard Layer 1 (Fail)
//Storyboard Layer 2 (Pass)
//Storyboard Layer 3 (Foreground)
//Storyboard Sound Samples
//Background Colour Transformations
3,100,163,162,255

[TimingPoints]
1428,187.5,4,2,1,50,1,0
13428,-50,4,1,1,60,0,0
25428,-100,4,2,1,60,0,0
31428,-50,4,1,1,60,0,0
43428,-100,4,1,1,80,0,0
43615,-100,4,1,1,60,0,0
46428,-100,4,1,1,80,0,0
46615,-100,4,1,1,60,0,0
49428,-100,4,1,1,40,0,0
49615,-100,4,1,1,60,0,0
49803,-98.0392156862745,4,1,1,60,0,0
50178,-96.1538461538461,4,1,1,60,0,0
50553,-92.5925925925926,4,1,1,60,0,0
50928,-90.9090909090909,4,1,1,60,0,0
51303,-89.2857142857143,4,1,1,60,0,0
51678,-87.719298245614,4,1,1,60,0,0
52053,-86.2068965517241,4,1,1,60,0,0
52428,-84.7457627118644,4,1,1,60,0,0
52803,-83.3333333333333,4,1,1,60,0,0
53178,-81.9672131147541,4,1,1,60,0,0
53553,-80.6451612903226,4,1,1,60,0,0
53928,-79.3650793650794,4,1,1,60,0,0
54303,-78.125,4,1,1,60,0,0
54678,-76.9230769230769,4,1,1,60,0,0
55053,-75.7575757575758,4,1,1,60,0,0
55428,-74.6268656716418,4,1,1,60,0,0
55803,-73.5294117647059,4,1,1,60,0,0
56178,-72.463768115942,4,1,1,60,0,0
56553,-71.4285714285714,4,1,1,60,0,0
56928,-70.4225352112676,4,1,1,60,0,0
57303,-69.4444444444444,4,1,1,60,0,0
57678,-68.4931506849315,4,1,1,60,0,0
58053,-67.5675675675676,4,1,1,60,0,0
58428,-66.6666666666667,4,1,1,60,0,0
58803,-65.7894736842105,4,1,1,60,0,0
59178,-64.9350649350649,4,1,1,60,0,0
59553,-64.1025641025641,4,1,1,60,0,0
59928,-64.9350649350649,4,1,1,60,0,0
59974,-65.7894736842105,4,1,1,60,0,0
60021,-66.6666666666667,4,1,1,60,0,0
60068,-67.5675675675676,4,1,1,60,0,0
60115,-68.4931506849315,4,1,1,60,0,0
60162,-69.4444444444444,4,1,1,60,0,0
60209,-70.4225352112676,4,1,1,60,0,0
60256,-71.4285714285714,4,1,1,60,0,0
60303,-72.463768115942,4,1,1,60,0,0
60349,-73.5294117647059,4,1,1,60,0,0
60396,-74.6268656716418,4,1,1,60,0,0
60443,-75.7575757575758,4,1,1,60,0,0
60490,-76.9230769230769,4,1,1,60,0,0
60537,-78.125,4,1,1,60,0,0
60584,-79.3650793650794,4,1,1,60,0,0
60631,-80.6451612903226,4,1,1,60,0,0
60678,-100,4,1,1,60,0,0
61053,-66.6666666666667,4,1,1,80,0,0
61240,-66.6666666666667,4,1,1,60,0,0
61428,-50,4,1,1,60,0,1
74928,-100,4,1,1,60,0,0
76240,-66.6666666666667,4,1,1,60,0,0
76428,-50,4,1,1,60,0,1
85428,-50,4,2,1,30,0,0
86928,-66.6666666666667,4,1,1,60,0,0
92928,-50,4,1,1,60,0,0
104928,-200,4,2,1,50,0,0
105115,-200,4,2,1,40,0,0
111021,-200,4,2,1,5,0,0

[Colours]
Combo1 : 255,255,45
Combo2 : 255,159,64
Combo3 : 83,169,255
Combo4 : 255,83,255

[HitObjects]
256,192,13428,6,0,P|300:140|368:128,1,140,4|8,0:0|0:0,0:0:0:0:
436,252,13803,1,0,0:0:0:0:
404,276,13896,1,0,0:0:0:0:
368,296,13990,1,8,0:0:0:0:
256,380,14178,2,0,P|184:348|156:296,1,140,0|8,0:0|0:0,0:0:0:0:
156,156,14553,2,0,P|228:124|256:72,1,140,0|8,0:0|0:0,0:0:0:0:
124,28,14928,5,0,0:0:0:0:
88,48,15021,1,0,0:0:0:0:
64,84,15115,2,0,L|64:224,1,140,8|0,0:0|0:0,0:0:0:0:
160,324,15490,1,8,0:0:0:0:
256,224,15678,2,0,P|328:208|392:224,1,140,0|8,0:0|0:0,0:0:0:0:
391,223,15959,2,0,P|368:144|380:88,1,140
412,64,16240,1,8,0:0:0:0:
452,60,16334,1,0,0:0:0:0:
488,80,16428,1,4,0:0:0:0:
504,220,16615,5,8,0:0:0:0:
396,308,16803,2,0,L|432:368,2,70,0|0|8,0:0|0:0|0:0,0:0:0:0:
256,288,17178,1,0,0:0:0:0:
116,308,17365,1,8,0:0:0:0:
116,308,17459,2,0,P|88:244|100:176,1,140
99,176,17740,2,0,P|164:204|232:192,1,140,8|0,0:0|0:0,0:0:0:0:
256,56,18115,5,8,0:0:0:0:
280,192,18303,1,0,0:0:0:0:
308,56,18490,1,8,0:0:0:0:
332,192,18678,2,0,B|320:260|320:260|284:320,1,140,0|8,0:0|0:0,0:0:0:0:
228,320,18959,2,0,B|192:260|192:260|180:192,1,140
144,172,19240,1,8,0:0:0:0:
104,180,19334,1,0,0:0:0:0:
68,200,19428,1,4,0:0:0:0:
4,76,19615,5,8,0:0:0:0:
132,20,19803,2,0,L|200:36,2,70,0|0|8,0:0|0:0|0:0,0:0:0:0:
4,76,20178,2,0,L|8:216,1,140,0|8,0:0|0:0,0:0:0:0:
7,215,20459,2,0,L|128:140,1,140
126,141,20740,2,0,L|256:192,1,140,8|0,0:0|0:0,0:0:0:0:
256,332,21115,5,8,0:0:0:0:
116,352,21303,1,0,0:0:0:0:
76,336,21396,1,0,0:0:0:0:
44,308,21490,1,8,0:0:0:0:
60,168,21678,2,0,P|88:104|148:68,1,140,0|8,0:0|0:0,0:0:0:0:
160,116,21959,2,0,P|220:152|288:152,1,140
324,116,22240,2,0,P|380:160|404:224,1,140,8|4,0:0|0:0,0:0:0:0:
336,344,22615,5,8,0:0:0:0:
256,228,22803,2,0,L|256:156,2,70,0|0|8,0:0|0:0|0:0,0:0:0:0:
116,252,23178,1,0,0:0:0:0:
44,132,23365,2,0,P|68:72|132:36,1,140,8|0,0:0|0:0,0:0:0:0:
131,36,23646,1,0,0:0:0:0:
131,36,23740,1,8,0:0:0:0:
256,100,23928,5,0,0:0:0:0:
148,192,24115,1,8,0:0:0:0:
273,256,24303,1,0,0:0:0:0:
164,348,24490,1,8,0:0:0:0:
36,292,24678,2,0,P|4:232|8:160,1,140,0|8,0:0|0:0,0:0:0:0:
92,48,25053,2,0,L|160:28,1,70,8|0,0:0|0:0,0:0:0:0:
186,68,25240,2,0,L|256:68,1,70,8|0,0:0|0:0,0:0:0:0:
300,76,25428,6,4,P|346:296|148:192,2,560,4|4|4,0:0|0:0|0:0,0:0:0:0:
256,192,29178,5,4,0:0:0:0:
256,196,29928,5,4,0:0:0:0:
256,200,30303,1,4,0:0:0:0:
256,204,30678,1,4,0:0:0:0:
256,208,30865,5,0,1:0:0:0:
256,212,30959,1,0,1:0:0:0:
256,216,31053,1,0,1:0:0:0:
256,220,31146,1,0,1:0:0:0:
256,224,31240,1,0,1:0:0:0:
256,228,31334,1,0,1:0:0:0:
256,232,31428,6,0,P|208:280|136:288,1,140,4|8,0:0|0:0,0:0:0:0:
36,192,31803,2,0,P|68:132|56:64,1,140,0|8,0:0|0:0,0:0:0:0:
192,28,32178,2,0,L|332:28,1,140,0|8,0:0|0:0,0:0:0:0:
348,76,32459,2,0,L|208:96,1,140
216,144,32740,2,0,L|356:144,1,140,8|0,0:0|0:0,0:0:0:0:
392,280,33115,5,8,0:0:0:0:
256,316,33303,1,0,0:0:0:0:
120,280,33490,1,8,0:0:0:0:
256,316,33678,2,0,P|295:261|288:192,1,140,0|8,0:0|0:0,0:0:0:0:
240,192,33959,2,0,P|176:156|152:96,1,140
196,76,34240,2,0,P|264:60|312:12,1,140,8|0,0:0|0:0,0:0:0:0:
432,84,34615,5,8,0:0:0:0:
344,192,34803,1,0,0:0:0:0:
432,300,34990,1,8,0:0:0:0:
344,192,35178,2,0,P|276:208|228:256,1,140,0|8,0:0|0:0,0:0:0:0:
228,256,35459,2,0,P|180:208|112:192,1,140
111,192,35740,2,0,P|98:124|133:65,1,140,8|0,0:0|0:0,0:0:0:0:
256,132,36115,5,8,0:0:0:0:
378,65,36303,1,0,0:0:0:0:
256,132,36490,1,8,0:0:0:0:
133,65,36678,2,0,L|72:192,1,140,0|8,0:0|0:0,0:0:0:0:
72,192,36959,2,0,L|133:318,1,140
172,336,37240,1,8,0:0:0:0:
216,340,37334,1,0,0:0:0:0:
256,320,37428,2,0,L|256:180,1,140,4|8,0:0|0:0,0:0:0:0:
356,80,37803,5,0,0:0:0:0:
388,108,37896,1,0,0:0:0:0:
420,136,37990,1,8,0:0:0:0:
452,164,38084,1,0,0:0:0:0:
484,192,38178,2,0,P|464:264|412:300,1,140,0|8,0:0|0:0,0:0:0:0:
380,272,38459,2,0,P|324:232|256:232,1,140
216,252,38740,2,0,P|160:208|152:144,1,140,8|0,0:0|0:0,0:0:0:0:
256,48,39115,5,8,0:0:0:0:
116,28,39303,1,0,0:0:0:0:
76,40,39396,1,0,0:0:0:0:
44,64,39490,1,8,0:0:0:0:
24,100,39584,1,0,0:0:0:0:
20,144,39678,2,0,P|76:184|148:192,1,140,0|8,0:0|0:0,0:0:0:0:
180,160,39959,2,0,P|228:112|296:100,1,140
332,132,40240,2,0,P|396:164|464:164,1,140,8|0,0:0|0:0,0:0:0:0:
468,304,40615,5,8,0:0:0:0:
340,364,40803,1,0,0:0:0:0:
300,348,40896,1,0,0:0:0:0:
280,312,40990,1,8,0:0:0:0:
240,296,41084,1,0,0:0:0:0:
216,264,41178,2,0,P|232:196|280:148,1,140,0|8,0:0|0:0,0:0:0:0:
300,104,41459,2,0,P|252:52|188:32,1,140
164,76,41740,2,0,P|104:112|36:112,1,140,8|0,0:0|0:0,0:0:0:0:
12,252,42115,5,8,0:0:0:0:
132,324,42303,1,0,0:0:0:0:
172,308,42396,1,0,0:0:0:0:
204,280,42490,1,8,0:0:0:0:
256,148,42678,2,0,P|228:84|172:44,1,140,0|8,0:0|0:0,0:0:0:0:
188,88,42959,2,0,P|128:128|60:140,1,140
92,100,43240,2,0,P|124:40|188:8,1,140,8|4,0:0|0:0,0:0:0:0:
256,148,43615,5,0,0:0:0:0:
324,8,43803,1,8,0:0:0:0:
256,148,43990,2,0,P|308:196|376:212,1,140
256,312,44553,1,8,0:0:0:0:
138,211,44740,2,0,P|204:196|256:148,1,140
148,32,45303,5,8,0:0:0:0:
16,112,45490,1,0,0:0:0:0:
16,112,45584,1,0,0:0:0:0:
16,112,45678,2,0,L|28:180,1,70,8|0,0:0|0:0,0:0:0:0:
184,164,46053,2,0,L|172:96,1,70,8|0,0:0|0:0,0:0:0:0:
320,48,46428,5,4,0:0:0:0:
420,192,46615,1,0,0:0:0:0:
320,336,46803,1,8,0:0:0:0:
420,192,46990,2,0,P|369:135|306:122,1,140
256,292,47553,1,8,0:0:0:0:
92,192,47740,2,0,P|142:135|205:122,1,140
256,292,48303,5,8,0:0:0:0:
308,122,48490,1,0,0:0:0:0:
256,292,48678,1,0,0:0:0:0:
216,284,48771,1,0,0:0:0:0:
176,276,48865,1,0,0:0:0:0:
136,268,48959,1,0,0:0:0:0:
96,260,49053,1,0,0:0:0:0:
256,192,49240,1,4,0:0:0:0:
96,124,49428,6,0,L|136:64,1,70,4|0,0:0|0:0,0:0:0:0:
240,84,49803,2,0,L|200:144,1,71.400000435791
308,164,50178,2,0,L|348:104,1,72.7999995556641
460,124,50553,2,0,L|417:187,1,75.6000018457032,8|0,0:0|0:0,0:0:0:0:
388,300,50928,6,0,L|432:364,1,77.0000023498536
312,372,51303,2,0,L|268:308,1,78.4000009570313
148,316,51678,2,0,L|192:381,1,79.7999990258789
72,384,52053,2,0,L|27:318,1,79.7999990258789,12|0,0:0|0:0,0:0:0:0:
8,192,52428,6,0,L|40:116,1,82.5999971011354,4|0,0:0|0:0,0:0:0:0:
136,36,52803,2,0,L|168:113,1,83.9999974365235
256,208,53178,2,0,L|289:128,1,85.3999964816286
388,44,53553,2,0,L|424:131,1,86.7999965563966,8|0,0:0|0:0,0:0:0:0:
476,244,53928,6,0,L|432:320,1,88.1999973083497
348,216,54303,2,0,L|302:137,1,89.6
200,228,54678,2,0,L|153:308,1,90.9999958343508
56,208,55053,2,0,L|9:127,1,92.3999997180176,12|0,0:0|0:0,0:0:0:0:
124,48,55428,6,0,L|216:24,1,93.7999955630495,4|0,0:0|0:0,0:0:0:0:
400,60,55803,2,0,L|424:152,1,95.2000005810547,0|0,0:0|0:0,0:0:0:0:
388,336,56178,2,0,L|294:360,1,96.6000001473999,0|0,0:0|0:0,0:0:0:0:
112,323,56553,2,0,L|86:228,1,97.9999970092774,0|0,0:0|0:0,0:0:0:0:
127,30,56928,6,0,L|87:122,1,99.3999949948123,0|0,0:0|0:0,0:0:0:0:
94,320,57303,2,0,L|186:360,1,100.800002460938,0|0,0:0|0:0,0:0:0:0:
384,353,57678,2,0,L|424:260,1,102.200002807007,0|0,0:0|0:0,0:0:0:0:
417,63,58053,2,0,L|321:21,1,103.600002529297,12|0,0:0|0:0,0:0:0:0:
184,100,58428,6,0,L|164:204,1,105.000004005432,4|0,0:0|0:0,0:0:0:0:
328,284,58803,2,0,L|348:180,1,106.399998701172
126,176,59178,2,0,L|192:273,1,107.799997861633
385,207,59553,2,0,L|319:110,1,109.200003665772,8|0,0:0|0:0,0:0:0:0:
256,256,59928,5,0,0:0:0:0:
232,280,60021,1,0,0:0:0:0:
200,292,60115,1,0,0:0:0:0:
164,296,60209,1,0,0:0:0:0:
128,292,60303,1,0,0:0:0:0:
96,276,60396,1,0,0:0:0:0:
72,252,60490,1,0,0:0:0:0:
56,220,60584,1,0,0:0:0:0:
52,184,60678,2,0,P|72:112|124:76,1,140,0|8,0:0|0:0,0:0:0:0:
256,152,61240,1,0,0:0:0:0:
388,76,61428,6,0,P|440:112|460:184,1,140,4|8,0:0|0:0,0:0:0:0:
360,280,61803,1,0,0:0:0:0:
324,296,61896,1,0,0:0:0:0:
280,296,61990,1,8,0:0:0:0:
176,204,62178,2,0,L|132:148,2,70,0|0|8,0:0|0:0|0:0,0:0:0:0:
316,196,62553,1,0,0:0:0:0:
388,76,62740,1,8,0:0:0:0:
468,192,62928,6,0,P|468:264|432:320,1,140,0|8,0:0|0:0,0:0:0:0:
432,319,63209,1,0,0:0:0:0:
432,319,63303,1,0,0:0:0:0:
292,308,63490,1,8,0:0:0:0:
292,308,63584,2,0,L|288:168,1,140
288,168,63865,2,0,P|220:196|184:252,1,140,8|0,0:0|0:0,0:0:0:0:
184,249,64146,1,0,0:0:0:0:
184,249,64240,1,8,0:0:0:0:
56,192,64428,6,0,P|60:120|100:64,1,140,0|8,0:0|0:0,0:0:0:0:
228,116,64803,1,0,0:0:0:0:
356,64,64990,1,8,0:0:0:0:
356,64,65084,2,0,P|392:128|384:192,1,140
336,192,65365,2,0,P|324:264|364:316,1,140,8|0,0:0|0:0,0:0:0:0:
492,260,65740,1,8,0:0:0:0:
476,120,65928,6,0,P|423:75|356:64,1,140,0|8,0:0|0:0,0:0:0:0:
256,164,66303,1,0,0:0:0:0:
216,180,66396,1,0,0:0:0:0:
172,180,66490,1,8,0:0:0:0:
132,164,66584,2,0,P|96:104|104:36,1,140
144,64,66865,2,0,P|216:80|276:56,1,140,8|0,0:0|0:0,0:0:0:0:
275,56,67146,1,0,0:0:0:0:
275,56,67240,1,8,0:0:0:0:
392,132,67428,5,4,0:0:0:0:
352,264,67615,1,8,0:0:0:0:
256,164,67803,1,0,0:0:0:0:
220,180,67896,1,0,0:0:0:0:
188,208,67990,1,8,0:0:0:0:
176,248,68084,2,0,P|112:276|44:268,1,140
43,267,68365,1,8,0:0:0:0:
20,128,68553,1,0,0:0:0:0:
40,92,68646,1,0,0:0:0:0:
76,68,68740,1,8,0:0:0:0:
212,108,68928,6,0,L|256:164,2,70,0|0|8,0:0|0:0|0:0,0:0:0:0:
328,28,69303,1,0,0:0:0:0:
368,40,69396,1,0,0:0:0:0:
396,72,69490,1,8,0:0:0:0:
404,112,69584,2,0,P|360:168|296:192,1,140
256,220,69865,2,0,P|268:288|320:332,1,140,8|0,0:0|0:0,0:0:0:0:
320,332,70146,1,0,0:0:0:0:
320,332,70240,1,8,0:0:0:0:
448,276,70428,5,4,0:0:0:0:
336,192,70615,1,8,0:0:0:0:
463,135,70803,1,0,0:0:0:0:
444,96,70896,1,0,0:0:0:0:
408,72,70990,1,8,0:0:0:0:
368,60,71084,2,0,B|328:60|300:76|272:92|232:92,1,140
188,112,71365,2,0,P|172:180|208:236,1,140,8|0,0:0|0:0,0:0:0:0:
207,235,71646,1,0,0:0:0:0:
207,235,71740,1,8,0:0:0:0:
136,356,71928,5,0,0:0:0:0:
4,304,72115,1,8,0:0:0:0:
12,164,72303,1,0,0:0:0:0:
36,128,72396,1,0,0:0:0:0:
72,108,72490,1,8,0:0:0:0:
112,104,72584,1,0,0:0:0:0:
152,112,72678,1,0,0:0:0:0:
188,132,72771,1,8,0:0:0:0:
228,144,72865,1,8,0:0:0:0:
272,140,72959,1,0,0:0:0:0:
304,116,73053,6,0,L|332:76,5,46.6666666666667
364,56,73428,6,0,P|432:64|484:112,1,140,4|8,0:0|0:0,0:0:0:0:
448,248,73803,1,0,0:0:0:0:
412,272,73896,1,0,0:0:0:0:
368,276,73990,1,8,0:0:0:0:
256,192,74178,2,0,L|256:120,2,70,0|0|8,0:0|0:0|0:0,0:0:0:0:
144,276,74553,1,0,0:0:0:0:
32,192,74740,5,8,0:0:0:0:
32,192,74834,1,0,0:0:0:0:
32,192,74928,2,0,P|60:148|108:124,1,105,4|4,0:0|0:0,0:0:0:0:
256,344,75490,1,8,0:0:0:0:
480,192,75678,2,0,P|452:148|404:124,1,105,4|12,0:0|0:0,0:0:0:0:
256,344,76240,5,0,0:0:0:0:
244,348,76303,1,0,0:0:0:0:
232,352,76365,1,0,0:0:0:0:
220,356,76428,2,0,P|140:316|120:272,1,140,4|8,0:0|0:0,0:0:0:0:
144,136,76803,1,0,0:0:0:0:
176,108,76896,1,0,0:0:0:0:
216,100,76990,1,8,0:0:0:0:
256,104,77084,2,0,L|256:244,1,140
256,244,77365,2,0,P|324:272|388:256,1,140,8|0,0:0|0:0,0:0:0:0:
386,256,77646,1,0,0:0:0:0:
386,256,77740,1,8,0:0:0:0:
460,136,77928,5,0,0:0:0:0:
360,40,78115,1,8,0:0:0:0:
256,132,78303,1,0,0:0:0:0:
220,152,78396,1,0,0:0:0:0:
180,160,78490,1,8,0:0:0:0:
140,156,78584,2,0,P|96:212|96:280,1,140
95,278,78865,1,8,0:0:0:0:
228,328,79053,1,0,0:0:0:0:
268,328,79146,1,0,0:0:0:0:
308,316,79240,1,8,0:0:0:0:
392,204,79428,5,4,0:0:0:0:
256,236,79615,1,8,0:0:0:0:
120,204,79803,1,0,0:0:0:0:
88,176,79896,1,0,0:0:0:0:
80,136,79990,1,8,0:0:0:0:
88,96,80084,2,0,P|156:80|208:32,1,140
256,44,80365,2,0,L|256:184,1,140,8|0,0:0|0:0,0:0:0:0:
256,184,80646,1,0,0:0:0:0:
256,184,80740,1,8,0:0:0:0:
360,276,80928,1,0,0:0:0:0:
388,140,81115,1,8,0:0:0:0:
256,184,81303,6,0,P|200:228|184:292,1,140,0|8,0:0|0:0,0:0:0:0:
184,292,81584,2,0,P|112:296|56:260,1,140
56,260,81865,2,0,P|100:200|100:136,1,140,8|0,0:0|0:0,0:0:0:0:
100,136,82146,1,0,0:0:0:0:
100,136,82240,1,8,0:0:0:0:
200,40,82428,6,0,P|266:60|304:116,1,140,4|8,0:0|0:0,0:0:0:0:
256,248,82803,1,0,0:0:0:0:
276,284,82896,1,0,0:0:0:0:
312,308,82990,1,8,0:0:0:0:
352,316,83084,2,0,P|416:288|448:228,1,140
447,228,83365,1,8,0:0:0:0:
328,160,83553,5,0,0:0:0:0:
308,124,83646,1,0,0:0:0:0:
308,80,83740,1,8,0:0:0:0:
176,36,83928,2,0,P|128:100|128:160,2,140,0|12|0,0:0|0:0|0:0,0:0:0:0:
216,40,84396,1,0,0:0:0:0:
248,68,84490,1,0,0:0:0:0:
248,112,84584,1,0,0:0:0:0:
228,148,84678,5,0,0:0:0:0:
96,312,84959,1,0,0:0:0:0:
416,312,85240,1,0,0:0:0:0:
256,192,85428,6,0,L|256:172,64,17.5,0|0|0|0|0|0|0|0|0|0|0|0|0|0|0|0|0|0|0|0|0|0|0|0|0|0|0|0|0|0|0|0|0|0|0|0|0|0|0|0|0|0|0|0|0|0|0|0|0|0|0|0|0|0|0|0|0|0|0|0|0|0|0|0|4,0:0|0:0|0:0|0:0|0:0|0:0|0:0|0:0|0:0|0:0|0:0|0:0|0:0|0:0|0:0|0:0|0:0|0:0|0:0|0:0|0:0|0:0|0:0|0:0|0:0|0:0|0:0|0:0|0:0|0:0|0:0|0:0|0:0|0:0|0:0|0:0|0:0|0:0|0:0|0:0|0:0|0:0|0:0|0:0|0:0|0:0|0:0|0:0|0:0|0:0|0:0|0:0|0:0|0:0|0:0|0:0|0:0|0:0|0:0|0:0|0:0|0:0|0:0|0:0|0:0,0:0:0:0:
364,372,87115,5,0,0:0:0:0:
476,192,87303,1,0,0:0:0:0:
364,12,87490,1,0,0:0:0:0:
256,192,88053,5,0,0:0:0:0:
256,192,88146,1,0,0:0:0:0:
256,192,88240,1,0,0:0:0:0:
148,372,88428,5,4,0:0:0:0:
36,192,88616,1,0,0:0:0:0:
148,12,88803,1,0,0:0:0:0:
36,192,88990,1,0,0:0:0:0:
476,192,89553,5,4,0:0:0:0:
100,332,89928,5,4,0:0:0:0:
256,192,90115,1,0,0:0:0:0:
412,332,90303,1,0,0:0:0:0:
256,192,90490,1,0,0:0:0:0:
256,360,91053,5,0,0:0:0:0:
256,360,91146,1,0,0:0:0:0:
256,360,91240,1,0,0:0:0:0:
68,120,91428,5,4,0:0:0:0:
256,24,91615,1,0,0:0:0:0:
444,120,91803,1,0,0:0:0:0:
256,24,91990,1,0,0:0:0:0:
256,360,92553,5,0,0:0:0:0:
256,192,92740,1,0,0:0:0:0:
256,192,92834,1,0,0:0:0:0:
256,192,92928,2,0,P|200:148|132:144,1,140,4|8,0:0|0:0,0:0:0:0:
28,240,93303,1,0,0:0:0:0:
40,280,93396,1,0,0:0:0:0:
72,308,93490,1,8,0:0:0:0:
212,288,93678,2,0,P|280:272|348:284,1,140,0|8,0:0|0:0,0:0:0:0:
392,288,93959,1,0,0:0:0:0:
432,272,94053,1,0,0:0:0:0:
456,240,94146,1,0,0:0:0:0:
460,196,94240,1,8,0:0:0:0:
348,108,94428,5,0,0:0:0:0:
256,212,94615,1,8,0:0:0:0:
164,108,94803,1,0,0:0:0:0:
124,112,94896,1,0,0:0:0:0:
88,136,94990,1,8,0:0:0:0:
68,172,95084,1,0,0:0:0:0:
56,212,95178,2,0,P|76:284|128:328,1,140,0|8,0:0|0:0,0:0:0:0:
168,308,95459,2,0,P|232:280|300:288,1,140
300,288,95740,1,8,0:0:0:0:
400,192,95928,5,4,0:0:0:0:
264,164,96115,1,8,0:0:0:0:
184,48,96303,1,0,0:0:0:0:
220,28,96396,1,0,0:0:0:0:
264,28,96490,1,8,0:0:0:0:
396,76,96678,2,0,P|375:143|328:192,1,140,0|8,0:0|0:0,0:0:0:0:
280,192,96959,2,0,P|228:240|208:304,1,140
188,352,97240,2,0,P|120:364|60:328,1,140,8|0,0:0|0:0,0:0:0:0:
28,192,97615,5,8,0:0:0:0:
128,96,97803,2,0,L|200:96,2,70,0|0|8,0:0|0:0|0:0,0:0:0:0:
28,192,98178,2,0,P|84:240|148:240,1,140,0|8,0:0|0:0,0:0:0:0:
188,216,98459,2,0,P|256:248|280:304,1,140
280,304,98740,1,8,0:0:0:0:
412,348,98928,5,4,0:0:0:0:
488,228,99115,1,8,0:0:0:0:
400,120,99303,1,0,0:0:0:0:
360,108,99396,1,0,0:0:0:0:
316,112,99490,1,8,0:0:0:0:
256,240,99678,2,0,P|188:260|124:232,1,140,0|8,0:0|0:0,0:0:0:0:
126,234,99959,2,0,P|64:264|28:324,1,140
28,322,100240,1,8,0:0:0:0:
156,380,100428,5,0,0:0:0:0:
284,328,100615,1,8,0:0:0:0:
316,192,100803,2,0,L|280:132,2,70,0|0|8,0:0|0:0|0:0,0:0:0:0:
456,192,101178,2,0,P|464:120|428:64,1,140,0|8,0:0|0:0,0:0:0:0:
396,40,101459,1,0,0:0:0:0:
352,56,101553,1,0,0:0:0:0:
312,48,101646,1,0,0:0:0:0:
272,60,101740,1,8,0:0:0:0:
256,200,101928,5,4,0:0:0:0:
172,88,102115,1,8,0:0:0:0:
152,228,102303,1,0,0:0:0:0:
164,268,102396,1,0,0:0:0:0:
196,296,102490,1,8,0:0:0:0:
332,268,102678,2,0,P|344:200|392:148,1,140,0|8,0:0|0:0,0:0:0:0:
390,148,102959,2,0,P|356:88|292:64,1,140
293,64,103240,2,0,P|248:120|184:136,1,140,8|0,0:0|0:0,0:0:0:0:
76,48,103615,5,8,0:0:0:0:
24,180,103803,1,0,0:0:0:0:
32,220,103896,1,0,0:0:0:0:
52,256,103990,1,8,0:0:0:0:
88,280,104084,1,0,0:0:0:0:
128,288,104178,1,0,0:0:0:0:
256,232,104365,5,8,0:0:0:0:
488,180,104553,1,8,0:0:0:0:
480,220,104646,1,8,0:0:0:0:
460,256,104740,1,8,0:0:0:0:
424,280,104834,1,8,0:0:0:0:
384,288,104928,1,4,0:0:0:0:
256,192,105021,12,4,110928,0:0:0:0:
