osu file format v13

[General]
AudioFilename: EXS.mp3
AudioLeadIn: 0
PreviewTime: 134421
Countdown: 0
SampleSet: Soft
StackLeniency: 0.7
Mode: 0
LetterboxInBreaks: 0
EpilepsyWarning: 1
WidescreenStoryboard: 1

[Editor]
DistanceSpacing: 1
BeatDivisor: 4
GridSize: 4
TimelineZoom: 5.4

[Metadata]
Title:Kuraki Sekai no Doukoku
TitleUnicode:昏き世界の慟哭
Artist:Yousei Teikoku
ArtistUnicode:妖精帝國
Creator:Saten
Version:The Dark World's Lament
Source:fortissimo EXS//Akkord:nächsten Phase
Tags:Saten-san Opening La'cryma OnosakiHito
BeatmapID:454024
BeatmapSetID:64631

[Difficulty]
HPDrainRate:7
CircleSize:4
OverallDifficulty:9
ApproachRate:10
SliderMultiplier:1
SliderTickRate:2

[Events]
//Background and Video events
0,0,"guishen_0988ff_cg_nagisa_07j.jpg",0,0
//Break Periods
2,91496,102846
//Storyboard Layer 0 (Background)
Sprite,Background,Centre,"guishen_1105ff_cg_nagisa_20a.jpg",320,240 S,0,-204,,0.8404109 F,0,-204,1296,0,1 M,0,-204,13296,320,-29,320,508 F,0,1296,12546,1,0.996 F,0,12546,13296,0.996,0
Sprite,Background,Centre,"guishen_0979ff_cg_nagisa_07a.jpg",320,240 S,0,13296,,0.63 F,0,13296,61296,1
Sprite,Background,Centre,"guishen_0980ff_cg_nagisa_07b.jpg",320,240 S,0,61296,,0.63 F,0,61296,85296,1 F,0,85296,88296,1,0
Sprite,Background,Centre,"guishen_0979ff_cg_nagisa_07a.jpg",320,240 S,0,85296,,0.63 F,0,85296,103296,1 F,0,103296,104796,1,0.2596441
Sprite,Background,Centre,"guishen_0979ff_cg_nagisa_07a.jpg",320,240 S,0,104796,,0.63 F,0,104796,109296,1 F,0,109296,110796,1,0.1913167
Sprite,Background,Centre,"guishen_0979ff_cg_nagisa_07a.jpg",320,240 S,0,110796,,0.63 F,0,110796,116796,1
Sprite,Background,Centre,"guishen_0980ff_cg_nagisa_07b.jpg",320,240 S,0,116796,,0.63 F,0,116796,123546,1
Sprite,Background,Centre,"guishen_0982ff_cg_nagisa_07d.jpg",320,240 S,0,122796,,0.63 F,0,122796,123546,0,1 F,0,123546,134421,1
Sprite,Background,Centre,"guishen_0983ff_cg_nagisa_07e.jpg",320,240 S,0,123546,,0.63 F,0,123546,124296,0 F,0,124296,125046,0,1 F,0,125046,125796,1,0 F,0,125796,126546,0,1 F,0,126546,127296,1,0 F,0,127296,128046,0,1 F,0,128046,128796,1,0 F,0,128796,129546,0,1 F,0,129546,130296,1,0 F,0,130296,131046,0,1 F,0,131046,131796,1,0 F,0,131796,132546,0,1 F,0,132546,133296,1,0 F,0,133296,134046,0,1 F,0,134046,134796,1
Sprite,Background,Centre,"guishen_0985ff_cg_nagisa_07g.jpg",320,240 S,0,134796,,0.63 F,0,134796,158796,1
Sprite,Background,Centre,"guishen_0985ff_cg_nagisa_07g.jpg",320,240 S,0,158796,,0.63 F,0,158796,176796,1
Sprite,Background,Centre,"guishen_0987ff_cg_nagisa_07i.jpg",320,240 S,0,226296,,0.63 F,0,226296,227796,1
Sprite,Background,Centre,"guishen_0987ff_cg_nagisa_07i.jpg",320,240 S,0,199296,,0.63 F,0,199296,202296,1
Sprite,Background,Centre,"guishen_0988ff_cg_nagisa_07j.jpg",320,240 F,0,201921,202296,0,1 S,0,202296,,0.63 F,0,202296,226296,1 F,0,226296,227796,1,0
Sprite,Background,Centre,"guishen_1070ff_cg_nagisa_14b.jpg",320,240 S,0,176796,,0.7562466 F,0,176796,187296,1 M,0,176796,188796,402,240,235,240 F,0,187296,188796,1,0
//Storyboard Layer 1 (Fail)
//Storyboard Layer 2 (Pass)
//Storyboard Layer 3 (Foreground)
Sprite,Foreground,Centre,"guishen_0980ff_cg_nagisa_07b.jpg",320,240 S,0,13296,,0.63 F,0,13296,14796,1,0.001333356
Sprite,Foreground,Centre,"guishen_0980ff_cg_nagisa_07b.jpg",320,240 S,0,31296,,0.63 F,0,31296,32796,1,0
Sprite,Foreground,Centre,"guishen_0980ff_cg_nagisa_07b.jpg",320,240 S,0,37296,,0.63 F,0,37296,38796,1,0
Sprite,Foreground,Centre,"guishen_0980ff_cg_nagisa_07b.jpg",320,240 S,0,43296,,0.63 F,0,43296,44796,1,0 F,0,44796,46296,0 F,0,46296,47796,1,0 F,0,47796,49296,0 F,0,49296,50046,0,1 F,0,50046,50796,1,0 F,0,50796,51546,0,1 F,0,51546,52296,1,0 F,0,52296,53046,0,1 F,0,53046,53796,1,0 F,0,53796,54546,0,1 F,0,54546,55296,1,0 F,0,55296,56046,0,1 F,0,56046,56796,1,0 F,0,56796,57546,0,1 F,0,57546,58296,1,0 F,0,58296,59046,0,1 F,0,59046,,1 F,0,59046,60921,1,0 F,0,60921,61296,0,1
Sprite,Foreground,Centre,"guishen_0981ff_cg_nagisa_07c.jpg",320,240 S,0,61296,,0.63 F,0,61296,62796,1,0 F,0,62796,64296,1,0 F,0,64296,65796,1,0 F,0,65796,67296,1,0 F,0,67296,68796,1,0 F,0,68796,70296,1,0 F,0,70296,71796,1,0 F,0,71796,73296,1,0 F,0,71796,73296,1,0 F,0,73296,74796,1,0 F,0,76296,77796,1,0 F,0,77796,79296,1,0 F,0,79296,80796,1,0 F,0,80796,82296,1,0 F,0,82296,83796,1,0 F,0,83796,85296,1,0 F,0,85296,86796,1,0
Sprite,Foreground,Centre,"guishen_0979ff_cg_nagisa_07a.jpg",320,240 S,0,74796,,0.63 F,0,74796,76296,0,1
Sprite,Foreground,Centre,"guishen_0981ff_cg_nagisa_07c.jpg",320,240 S,0,91296,,0.63 F,0,91296,92796,1,0
Sprite,Foreground,Centre,"guishen_0981ff_cg_nagisa_07c.jpg",320,240 S,0,104796,,0.63 F,0,104796,106296,1,0
Sprite,Foreground,Centre,"guishen_0980ff_cg_nagisa_07b.jpg",320,240 S,0,107796,,0.63 F,0,107796,109296,1,0
Sprite,Foreground,Centre,"guishen_0984ff_cg_nagisa_07f.jpg",320,240 S,0,134421,,0.63 F,0,134421,134796,0,1
Sprite,Foreground,Centre,"guishen_0981ff_cg_nagisa_07c.jpg",320,240 S,0,116796,,0.63 F,0,116796,118296,1,0 F,0,119796,121296,1,0
Sprite,Foreground,Centre,"guishen_0981ff_cg_nagisa_07c.jpg",320,240 S,0,110796,,0.63 F,0,110796,112296,1,0
Sprite,Foreground,Centre,"guishen_0986ff_cg_nagisa_07h.jpg",320,240 S,0,134796,,0.63 F,0,134796,136296,1,0 F,0,136296,137796,1,0 F,0,137796,139296,1,0 F,0,139296,140796,1,0 F,0,140796,142296,1,0 F,0,142296,143796,1,0 F,0,143796,145296,1,0 F,0,145296,146796,1,0 F,0,146796,148296,1,0 F,0,149796,151296,1,0 F,0,151296,152796,1,0 F,0,152796,154296,1,0 F,0,154296,155796,1,0 F,0,155796,157296,1,0 F,0,157296,158796,1,0 F,0,158796,160296,1,0
Sprite,Foreground,Centre,"guishen_0980ff_cg_nagisa_07b.jpg",320,240 S,0,148296,,0.63 F,0,148296,149796,0,1
Sprite,Foreground,Centre,"guishen_0986ff_cg_nagisa_07h.jpg",320,240 S,0,164796,,0.63 F,0,164796,166296,1,0
Sprite,Foreground,Centre,"guishen_1110ff_cg_nagisa_22a.jpg",320,240 F,0,188796,188803,0 F,0,188803,190296,0,1 S,0,190296,,0.63 F,0,190296,199296,1 F,0,199296,200796,1,0 F,0,200796,200804,0
Sprite,Foreground,Centre,"guishen_1071ff_cg_nagisa_14c.jpg",320,240 S,0,176796,,0.7562465 F,0,176796,178296,1,0 M,0,176796,188796,403,239,234,240 F,0,182796,184296,1,0 F,0,184296,185796,0 F,0,185796,187296,1,0 F,0,187296,188796,1,0
Sprite,Foreground,Centre,"guishen_1111ff_cg_nagisa_22b.jpg",320,240 S,0,190296,,0.63 F,0,190296,191796,0.7,0 F,0,193296,194796,0.7,0 F,0,196296,197796,0.7,0
Sprite,Foreground,Centre,"guishen_1112ff_cg_nagisa_22c.jpg",320,240 S,0,192921,,0.63 F,0,192921,193671,0.7,0 F,0,195921,196671,0.7,0 F,0,198921,199671,0.7,0
Sprite,Foreground,Centre,"guishen_0992ff_cg_nagisa_07n.jpg",320,240 S,0,199296,,0.63 F,0,199296,200796,0.7,0
Sprite,Foreground,Centre,"guishen_0989ff_cg_nagisa_07k.jpg",320,240 S,0,202296,,0.63 F,0,202296,203796,1,0 F,0,203796,205296,1,0 F,0,205296,206796,1,0 F,0,206796,208296,1,0 F,0,208296,209796,1,0 F,0,209796,211296,1,0 F,0,211296,212796,1,0 F,0,212796,214296,1,0 F,0,214296,215796,1,0 F,0,217296,218796,1,0 F,0,218796,220296,1,0 F,0,220296,221796,1,0 F,0,221796,223296,1,0 F,0,223296,224796,1,0 F,0,224796,226296,1,0
Sprite,Foreground,Centre,"guishen_0987ff_cg_nagisa_07i.jpg",320,240 S,0,215796,,0.63 F,0,215796,217296,0,1
Sprite,Foreground,Centre,"guishen_0999ff_cg_nagisa_08d.jpg",320,240 S,0,227796,,0.63 F,0,227796,229296,1
Sprite,Foreground,Centre,"guishen_0997ff_cg_nagisa_08b.jpg",320,240 S,0,227796,,0.63 F,0,227796,229296,1,0
Sprite,Foreground,Centre,"guishen_0995ff_cg_nagisa_07q.jpg",320,240 S,0,229296,,0.63 F,0,229296,230796,1
Sprite,Foreground,Centre,"guishen_0992ff_cg_nagisa_07n.jpg",320,240 S,0,229296,,0.63 F,0,229296,230796,1,0
Sprite,Foreground,Centre,"guishen_1074ff_cg_nagisa_15c.jpg",320,240 S,0,230796,,0.63 F,0,230796,232296,1
Sprite,Foreground,Centre,"guishen_1075ff_cg_nagisa_15d.jpg",320,240 S,0,230796,,0.63 F,0,230796,232296,1,0
Sprite,Foreground,Centre,"guishen_0965ff_cg_nagisa_06m.jpg",320,240 S,0,232296,,0.63 F,0,232296,233796,1
Sprite,Foreground,Centre,"guishen_0969ff_cg_nagisa_06r.jpg",320,240 S,0,232296,,0.63 F,0,232296,233796,1,0
Sprite,Foreground,Centre,"guishen_1076ff_cg_nagisa_16a.jpg",320,240 S,0,233796,,0.8405 M,0,233796,245796,320,-46,320,524 F,0,233796,245796,1 F,0,245796,248796,1 F,0,248796,251796,1,0.3074733
Sprite,Foreground,Centre,"guishen_1077ff_cg_nagisa_16b.jpg",320,240 S,0,233796,,0.8405 F,0,233796,235296,1,0 M,0,233796,245796,320,-46,320,524 F,0,239796,241296,1,0 F,0,245796,247296,1,0 F,0,251796,256296,1,0
Sprite,Foreground,Centre,"guishen_0981ff_cg_nagisa_07c.jpg",320,240 S,0,97296,,0.63 F,0,97296,98796,1,0
Sprite,Foreground,Centre,"guishen_0986ff_cg_nagisa_07h.jpg",320,240 S,0,170796,,0.63 F,0,170796,172296,1,0
Sprite,Foreground,Centre,"white 1610.jpg",320,240 F,0,1296,2796,0.8462633,0 F,0,7296,8796,0.7916015,0 S,0,13296,,2.69895 F,0,13296,14796,0.870178,0 F,0,19296,20796,0.7164412,0 F,0,25296,26796,0.6241992,0 F,0,26796,28296,0.7301067,0 F,0,28296,29046,0.658363,0 F,0,29046,29796,0.6002846,0 F,0,29796,30546,0.6959431,0 F,0,31296,32796,0.7232741,0 F,0,37296,38796,0.6412811,0 F,0,43296,44796,0.6378648,0 F,0,46296,47796,0.5182918,0 F,0,51921,52296,0.4232706,0 F,0,52296,53046,0.555872,0 F,0,54921,55296,0.4431317,0 F,0,55296,56046,0.4977936,0 F,0,57921,58296,0.3098932,0 F,0,58296,59046,0.5524556,0 F,0,61296,62796,0.7540214,0 F,0,73296,74796,0.7130249,0 F,0,76296,77796,0.7574376,0 F,0,85296,86796,0.7471886,0 F,0,86796,88296,0.8018506,0 F,0,88296,89796,0.7676868,0 F,0,89796,91296,0.7779361,0 F,0,91296,92796,0.7813523,0 F,0,97296,98796,0.7471886,0 F,0,104796,106296,0.7676868,0 F,0,107796,109296,0.566121,0 F,0,110796,112296,0.7437723,0 F,0,116796,118296,0.7198577,0 F,0,119796,121296,0.7779359,0 F,0,125421,125796,0.5046263,0 F,0,125796,126546,0.7130249,0 F,0,128421,128796,0.5866193,0 F,0,128796,129546,0.6276157,0 F,0,131421,131796,0.5524556,0 F,0,131796,132546,0.7061922,0 F,0,134796,136296,0.7881851,0 F,0,146796,148296,0.6925267,0 F,0,149796,151296,0.6891102,0 F,0,158796,160296,0.7198576,0 F,0,160296,161796,0.798434,0 F,0,161796,163296,0.8565124,0 F,0,163296,164796,0.8360143,0 F,0,164796,166296,0.777936,0 F,0,170796,172296,0.8325979,0 F,0,176796,178296,0.8496797,0 F,0,182796,184296,0.7369395,0 F,0,185796,187296,0.7711032,0 F,0,187296,188796,0.8565124,0 F,0,190296,191796,0.7096086,0 F,0,192921,193296,0.5900357,0 F,0,193296,194796,0.7574378,0 F,0,195921,196296,0.4875446,0 F,0,196296,197796,0.7608539,0 F,0,198921,199296,0.5251245,0 F,0,199296,200796,0.6651957,0 F,0,202296,203796,0.8496796,0 F,0,214296,215796,0.8086833,0 F,0,217296,218796,0.8120996,0 F,0,227796,229296,0.8257651,0 F,0,229296,230796,0.8701779,0 F,0,230796,232296,0.8428469,0 F,0,232296,233796,0.8428469,0 F,0,233796,235296,0.8120997,0 F,0,239796,241296,0.8940924,0 F,0,245796,247296,0.8530961,0
//Storyboard Sound Samples
//Background Colour Transformations
3,100,0,0,0

[TimingPoints]
1296,187.5,4,2,1,50,1,0
13296,-50,4,1,1,60,0,0
25296,-76.9230769230769,4,2,1,50,0,0
28296,-71.4285714285714,4,2,1,50,0,0
29046,-66.6666666666667,4,2,1,50,0,0
29796,-62.5,4,2,1,50,0,0
30171,-58.8235294117647,4,2,1,50,0,0
30546,-55.5555555555556,4,2,1,50,0,0
30733,-52.6315789473684,4,1,1,50,0,0
31296,-50,4,1,1,60,0,0
43296,-100,4,1,1,90,0,0
43483,-100,4,1,1,50,0,0
46296,-100,4,1,1,90,0,0
46483,-100,4,1,1,50,0,0
49296,-100,4,1,1,30,0,0
49483,-100,4,1,1,50,0,0
60921,-66.6666666666667,4,1,1,70,0,0
61108,-50,4,1,1,50,0,0
61296,-50,4,1,1,60,0,1
74796,-100,4,1,1,60,0,0
76108,-66.6666666666667,4,1,1,60,0,0
76296,-50,4,1,1,60,0,1
85296,-66.6666666666667,4,1,1,60,0,0
91296,-50,4,1,1,60,0,0
103296,-200,4,2,1,40,0,0
104796,-100,4,2,1,70,0,0
110046,-66.6666666666667,4,1,1,70,0,0
110233,-57.1428571428571,4,1,1,70,0,0
110796,-50,4,1,1,70,0,0
116796,-100,4,1,1,90,0,0
116983,-100,4,1,1,50,0,0
119796,-100,4,1,1,90,0,0
119983,-100,4,1,1,50,0,0
122796,-100,4,1,1,50,0,0
122983,-100,4,1,1,50,0,0
134421,-66.6666666666667,4,1,1,70,0,0
134608,-66.6666666666667,4,1,1,50,0,0
134796,-50,4,1,1,60,0,1
148296,-100,4,1,1,60,0,0
149608,-66.6666666666667,4,1,1,60,0,0
149796,-50,4,1,1,60,0,1
158796,-66.6666666666667,4,1,1,60,0,0
164421,-66.6666666666667,4,1,1,40,0,0
164796,-50,4,1,1,60,0,0
176421,-50,4,1,1,30,0,0
176796,-50,4,1,1,60,0,1
188796,-166.666666666667,4,2,1,60,0,0
190296,-100,4,2,1,60,0,0
193296,-90.9090909090909,4,2,1,60,0,0
196296,-83.3333333333333,4,2,1,60,0,0
199296,-76.9230769230769,4,2,1,60,0,0
200796,-71.4285714285714,4,2,1,60,0,0
201921,-66.6666666666667,4,1,1,60,0,0
202296,-47.6190476190476,4,1,1,60,0,1
215796,-100,4,1,1,60,0,0
217108,-66.6666666666667,4,1,1,60,0,0
217296,-45.4545454545455,4,1,1,60,0,1
226296,-100,4,2,1,50,0,0
226319,-100,4,2,1,20,0,0
227608,-100,4,2,1,30,0,0
227796,-66.6666666666667,4,1,1,60,0,0
233796,-50,4,1,1,60,0,0
245796,-200,4,2,1,50,0,0
245983,-200,4,2,1,40,0,0
251796,-200,4,2,1,50,0,0
251889,-200,4,2,1,5,0,0

[Colours]
Combo1 : 255,255,45
Combo2 : 255,159,64
Combo3 : 83,169,255
Combo4 : 255,83,255

[HitObjects]
256,248,12921,6,0,B|256:223,7,25
256,192,13296,6,0,B|320:116|320:116|420:96,1,200,4|8,0:0|0:0,0:0:0:0:
504,152,13577,1,0,0:0:0:0:
452,236,13671,2,0,B|352:256,1,100
320,160,13858,2,0,B|420:140,1,100,8|0,0:0|0:0,0:0:0:0:
468,228,14046,6,0,B|408:308|408:308|312:336,1,200,0|8,0:0|0:0,0:0:0:0:
212,324,14327,1,0,0:0:0:0:
164,236,14421,2,0,B|152:184|180:140,1,100
272,96,14608,2,0,B|284:148|256:192,1,100,8|0,0:0|0:0,0:0:0:0:
172,252,14796,6,0,B|80:208|80:208|32:120,1,200,0|8,0:0|0:0,0:0:0:0:
88,40,15077,1,0,0:0:0:0:
188,40,15171,2,0,B|272:96,1,100
256,196,15358,2,0,B|172:140,1,100,8|0,0:0|0:0,0:0:0:0:
156,240,15546,6,0,B|240:296|240:296|340:312,1,200,0|8,0:0|0:0,0:0:0:0:
425,262,15827,1,0,0:0:0:0:
440,165,15921,1,0,0:0:0:0:
374,89,16014,1,0,0:0:0:0:
273,96,16108,1,8,0:0:0:0:
216,178,16202,1,0,0:0:0:0:
244,273,16296,6,0,B|164:332|164:332|64:332,1,200,4|8,0:0|0:0,0:0:0:0:
8,248,16577,1,0,0:0:0:0:
32,152,16671,2,0,B|92:72,1,100
184,112,16858,2,0,B|124:192,1,100,8|0,0:0|0:0,0:0:0:0:
168,284,17046,6,0,B|268:264|268:264|336:192,1,200,0|8,0:0|0:0,0:0:0:0:
324,92,17327,1,0,0:0:0:0:
232,48,17421,2,0,B|132:32,1,100
116,132,17608,2,0,B|216:148,1,100,8|0,0:0|0:0,0:0:0:0:
256,240,17796,6,0,B|168:284|168:284|68:272,1,200,0|8,0:0|0:0,0:0:0:0:
36,176,18077,1,0,0:0:0:0:
76,84,18171,2,0,B|168:44,1,100
364,12,18358,2,0,B|404:104,1,100,8|0,0:0|0:0,0:0:0:0:
436,300,18546,2,0,B|344:340,1,100
148,372,18733,2,0,B|108:280,1,100,8|0,0:0|0:0,0:0:0:0:
112,180,18921,5,0,0:0:0:0:
184,112,19014,1,0,0:0:0:0:
284,120,19108,1,8,0:0:0:0:
336,208,19202,1,0,0:0:0:0:
296,300,19296,6,0,B|196:320|196:320|104:280,1,200,4|8,0:0|0:0,0:0:0:0:
40,204,19577,1,0,0:0:0:0:
64,108,19671,2,0,B|92:64|144:48,1,100
232,96,19858,2,0,B|207:142|218:193,1,100,8|0,0:0|0:0,0:0:0:0:
304,248,20046,6,0,B|357:262|413:233|423:171|393:125,1,200,0|8,0:0|0:0,0:0:0:0:
312,64,20327,1,0,0:0:0:0:
212,72,20421,2,0,B|164:97|157:150,1,100
244,200,20608,2,0,B|283:163|335:174,1,100,8|0,0:0|0:0,0:0:0:0:
372,272,20796,6,0,B|360:325|309:362|249:343|222:296,1,200,0|8,0:0|0:0,0:0:0:0:
172,212,21077,1,0,0:0:0:0:
76,184,21171,2,0,B|24:200|4:248,1,100
52,336,21358,2,0,B|72:288|124:272,1,100,8|0,0:0|0:0,0:0:0:0:
224,296,21546,6,0,B|277:310|333:281|342:219|313:173,1,200,0|8,0:0|0:0,0:0:0:0:
224,128,21827,1,0,0:0:0:0:
133,171,21921,1,0,0:0:0:0:
111,268,22015,1,0,0:0:0:0:
173,347,22109,1,8,0:0:0:0:
273,347,22202,1,0,0:0:0:0:
336,268,22296,6,0,B|336:208|376:180|416:148|416:88,1,200,4|8,0:0|0:0,0:0:0:0:
340,24,22577,1,0,0:0:0:0:
244,44,22671,2,0,B|168:108,1,100
232,212,22858,2,0,B|308:148,1,100,8|0,0:0|0:0,0:0:0:0:
224,32,23046,6,0,B|148:96|148:96|120:192,1,200,0|8,0:0|0:0,0:0:0:0:
176,276,23327,1,0,0:0:0:0:
276,276,23421,2,0,B|304:180,1,100
424,192,23608,2,0,B|396:288,1,100,8|0,0:0|0:0,0:0:0:0:
256,264,23796,6,0,B|284:168|284:168|364:108,1,200,0|8,0:0|0:0,0:0:0:0:
460,132,24077,1,0,0:0:0:0:
492,228,24171,2,0,B|464:324,1,100
316,308,24358,2,0,B|344:212,1,100,8|0,0:0|0:0,0:0:0:0:
196,196,24546,2,0,B|168:292,1,100
20,276,24733,2,0,B|48:180,1,100,8|0,0:0|0:0,0:0:0:0:
128,116,24921,5,8,0:0:0:0:
228,100,25014,1,8,0:0:0:0:
308,160,25108,1,8,0:0:0:0:
296,260,25202,1,8,0:0:0:0:
212,316,25296,6,4,B|196:240|28:264|4:72|128:-40|256:72|256:72|384:-40|508:72|484:264|316:240|256:360,2,1039.99995239258,4|4|4,0:0|0:0|0:0,0:0:0:0:
256,192,29046,5,4,0:0:0:0:
256,196,29796,5,4,0:0:0:0:
256,200,30171,1,4,0:0:0:0:
256,204,30546,1,4,0:0:0:0:
256,208,30733,5,0,0:0:0:0:
256,212,30827,1,0,0:0:0:0:
256,216,30921,1,0,0:0:0:0:
256,220,31014,1,0,0:0:0:0:
256,224,31108,1,0,0:0:0:0:
256,228,31202,1,0,0:0:0:0:
256,232,31296,6,0,B|164:272|164:272|68:244,1,200,4|8,0:0|0:0,0:0:0:0:
16,156,31577,1,0,0:0:0:0:
68,72,31671,2,0,B|160:32,1,100
216,116,31858,2,0,B|124:156,1,100,8|0,0:0|0:0,0:0:0:0:
68,56,32046,6,0,B|160:16|160:16|256:40,1,200,0|8,0:0|0:0,0:0:0:0:
352,136,32327,2,0,B|256:164|256:164|160:136,1,200
256,40,32608,2,0,B|352:16|352:16|444:56,1,200,8|0,0:0|0:0,0:0:0:0:
484,148,32889,5,0,0:0:0:0:
412,220,32983,1,8,0:0:0:0:
312,200,33077,1,0,0:0:0:0:
216,228,33171,2,0,B|168:248|140:296,1,100
216,360,33358,2,0,B|255:326|307:324,1,100,8|0,0:0|0:0,0:0:0:0:
388,264,33546,6,0,B|348:230|296:228,1,100
388,132,33733,2,0,B|436:152|462:196,1,100,8|0,0:0|0:0,0:0:0:0:
456,296,33921,1,0,0:0:0:0:
368,344,34014,1,0,0:0:0:0:
272,312,34108,1,8,0:0:0:0:
216,228,34202,1,0,0:0:0:0:
124,192,34296,6,0,B|68:200|32:244|24:296|56:344,2,200,0|8|0,0:0|0:0|0:0,0:0:0:0:
216,224,34764,1,0,0:0:0:0:
312,192,34858,1,8,0:0:0:0:
332,92,34952,1,0,0:0:0:0:
264,20,35046,6,0,B|164:20,1,100
116,108,35233,2,0,B|216:108,1,100,8|0,0:0|0:0,0:0:0:0:
168,196,35421,2,0,B|68:196,1,100
20,284,35608,2,0,B|120:284,1,100,8|0,0:0|0:0,0:0:0:0:
216,256,35796,6,0,B|256:164,1,100
352,192,35983,2,0,B|312:284,1,100,8|0,0:0|0:0,0:0:0:0:
160,192,36171,2,0,B|200:100,1,100
360,200,36358,2,0,B|320:292,1,100,8|0,0:0|0:0,0:0:0:0:
148,184,36546,6,0,B|188:92|188:92|280:52,1,200,0|8,0:0|0:0,0:0:0:0:
430,137,36827,2,0,B|335:103|335:103|244:144,1,200
208,312,37108,6,0,B|248:220|248:220|340:180,2,200,8|4|8,0:0|0:0|0:0,0:0:0:0:
116,356,37577,1,0,0:0:0:0:
24,312,37671,1,0,0:0:0:0:
28,212,37764,1,0,0:0:0:0:
112,160,37858,1,8,0:0:0:0:
204,196,37952,1,0,0:0:0:0:
292,240,38046,6,0,B|344:228|388:196|400:144|372:92,1,200,0|8,0:0|0:0,0:0:0:0:
256,172,38327,2,0,B|204:160|160:128|148:76|176:24,1,200
256,172,38608,2,0,B|308:160|352:128|364:76|336:24,1,200,8|0,0:0|0:0,0:0:0:0:
256,84,38889,5,0,0:0:0:0:
312,168,38983,1,8,0:0:0:0:
408,196,39077,1,0,0:0:0:0:
488,140,39171,2,0,B|512:40,1,100
392,32,39358,2,0,B|368:132,1,100,8|0,0:0|0:0,0:0:0:0:
256,172,39546,6,0,B|160:144|160:144|100:64,1,200,0|8,0:0|0:0,0:0:0:0:
44,148,39827,2,0,B|104:228|104:228|200:256,1,200
468,148,40108,6,0,B|408:228|408:228|312:256,2,200,8|0|8,0:0|0:0|0:0,0:0:0:0:
416,64,40577,1,0,0:0:0:0:
316,52,40671,2,0,B|256:132,1,100
140,108,40858,2,0,B|200:28,1,100,8|0,0:0|0:0,0:0:0:0:
332,76,41046,6,0,B|272:156|272:156|176:188,1,200,0|8,0:0|0:0,0:0:0:0:
240,264,41327,2,0,B|334:232|334:232|394:152,1,200
452,236,41608,6,0,B|392:316|392:316|297:347,2,200,8|0|8,0:0|0:0|0:0,0:0:0:0:
428,140,42077,1,0,0:0:0:0:
336,104,42171,1,0,0:0:0:0:
240,128,42264,1,0,0:0:0:0:
192,216,42358,1,8,0:0:0:0:
224,312,42452,1,0,0:0:0:0:
320,340,42546,6,0,B|384:264,1,100
192,264,42733,2,0,B|128:188,1,100,8|8,0:0|0:0,0:0:0:0:
320,220,42921,2,0,B|384:144,1,100
192,144,43108,2,0,B|128:68,1,100
256,24,43296,5,4,2:0:0:0:
400,56,43483,1,0,0:0:0:0:
432,204,43671,1,8,0:0:0:0:
332,316,43858,6,0,B|276:316|244:272|212:228|156:228,1,200
256,112,44421,1,8,0:0:0:0:
354,228,44608,2,0,B|300:228|268:272|236:316|180:316,1,200
96,192,45171,5,8,0:0:0:0:
152,52,45358,1,0,0:0:0:0:
300,36,45546,1,0,0:0:0:0:
300,36,45639,1,0,0:0:0:0:
300,36,45733,2,0,B|368:112,1,100,8|8,0:0|0:0,0:0:0:0:
392,260,46108,1,0,0:0:0:0:
256,324,46296,5,4,2:0:0:0:
120,260,46483,1,0,0:0:0:0:
120,108,46671,1,8,0:0:0:0:
256,44,46858,6,0,B|256:100|300:132|344:164|344:218,1,200
256,344,47421,1,8,0:0:0:0:
168,218,47608,2,0,B|168:164|212:132|256:100|256:44,1,200
392,108,48171,5,8,0:0:0:0:
392,260,48359,1,0,0:0:0:0:
256,324,48546,5,8,0:0:0:0:
256,286,48639,1,0,0:0:0:0:
256,248,48733,1,8,0:0:0:0:
256,210,48827,1,0,0:0:0:0:
256,172,48921,1,0,0:0:0:0:
256,135,49014,1,0,0:0:0:0:
256,97,49108,1,12,0:0:0:0:
196,268,49296,5,4,0:0:0:0:
255,92,49483,1,0,0:0:0:0:
311,270,49671,1,0,0:0:0:0:
162,158,49858,1,0,0:0:0:0:
347,161,50046,5,0,0:0:0:0:
185,267,50233,1,0,0:0:0:0:
264,86,50421,1,8,0:0:0:0:
307,280,50608,1,0,0:0:0:0:
159,148,50796,5,0,0:0:0:0:
356,168,50983,1,0,0:0:0:0:
173,266,51171,1,0,0:0:0:0:
275,80,51358,1,0,0:0:0:0:
303,291,51546,5,0,0:0:0:0:
157,136,51733,1,0,0:0:0:0:
365,176,51921,1,12,0:0:0:0:
161,264,52108,1,0,0:0:0:0:
287,74,52296,5,4,0:0:0:0:
297,302,52483,1,0,0:0:0:0:
156,123,52671,1,0,0:0:0:0:
374,186,52858,1,0,0:0:0:0:
148,260,53046,5,0,0:0:0:0:
300,69,53233,1,0,0:0:0:0:
288,313,53421,1,8,0:0:0:0:
156,110,53608,1,0,0:0:0:0:
382,196,53796,5,0,0:0:0:0:
134,254,53983,1,0,0:0:0:0:
315,66,54171,1,0,0:0:0:0:
279,325,54358,1,0,0:0:0:0:
157,95,54546,5,0,0:0:0:0:
390,209,54733,1,0,0:0:0:0:
121,247,54921,1,12,0:0:0:0:
330,63,55108,1,0,0:0:0:0:
269,336,55296,5,4,0:0:0:0:
159,79,55483,1,0,0:0:0:0:
397,222,55671,1,0,0:0:0:0:
107,238,55858,1,0,0:0:0:0:
347,61,56046,5,0,0:0:0:0:
256,347,56233,1,0,0:0:0:0:
164,63,56421,1,8,0:0:0:0:
404,237,56608,1,0,0:0:0:0:
93,228,56796,5,0,0:0:0:0:
365,61,56983,1,0,0:0:0:0:
242,357,57171,1,0,0:0:0:0:
169,46,57358,1,0,0:0:0:0:
409,254,57546,5,0,0:0:0:0:
78,214,57733,1,0,0:0:0:0:
384,64,57921,1,12,0:0:0:0:
225,367,58108,1,0,0:0:0:0:
177,28,58296,5,4,0:0:0:0:
413,273,58483,1,0,0:0:0:0:
64,200,58671,1,0,0:0:0:0:
405,67,58858,1,0,0:0:0:0:
206,376,59046,5,0,0:0:0:0:
188,10,59233,1,0,0:0:0:0:
416,293,59421,1,8,0:0:0:0:
51,183,59608,1,0,0:0:0:0:
426,72,59796,5,0,0:0:0:0:
449,119,59889,1,0,0:0:0:0:
440,167,59983,1,0,0:0:0:0:
403,198,60077,1,0,0:0:0:0:
355,201,60171,1,0,0:0:0:0:
312,176,60264,1,0,0:0:0:0:
284,136,60358,1,0,0:0:0:0:
241,115,60452,1,0,0:0:0:0:
193,106,60546,2,0,B|133:113|100:161|103:221|146:254,1,200,0|8,0:0|0:0,0:0:0:0:
296,256,61108,1,0,0:0:0:0:
373,126,61296,6,0,B|360:72|324:36|272:20|217:31,1,200,4|8,0:0|0:0,0:0:0:0:
132,80,61577,1,0,0:0:0:0:
124,180,61671,1,0,0:0:0:0:
196,248,61764,1,0,0:0:0:0:
296,256,61858,2,0,B|308:156,1,100,8|0,0:0|0:0,0:0:0:0:
408,168,62046,2,0,B|396:268,1,100
328,340,62233,5,8,0:0:0:0:
228,332,62327,1,0,0:0:0:0:
148,272,62421,2,0,B|112:232|124:180,1,100
224,192,62608,2,0,B|260:152|248:100,1,100,8|0,0:0|0:0,0:0:0:0:
132,80,62796,6,0,B|52:140|52:140|24:236,1,200,0|8,0:0|0:0,0:0:0:0:
134,369,63077,2,0,B|97:276|97:276|124:180,1,200
204,116,63358,1,8,0:0:0:0:
308,116,63452,1,0,0:0:0:0:
388,180,63546,6,0,B|414:276|414:276|377:369,1,200,0|8,0:0|0:0,0:0:0:0:
488,236,63827,2,0,B|460:140|460:140|380:80,1,200
280,96,64108,1,8,0:0:0:0:
256,192,64202,1,0,0:0:0:0:
300,280,64296,6,0,B|360:360,1,100
440,300,64483,2,0,B|380:220,1,100,8|0,0:0|0:0,0:0:0:0:
212,280,64671,2,0,B|152:360,1,100
72,300,64858,2,0,B|132:220,1,100,8|0,0:0|0:0,0:0:0:0:
212,156,65046,6,0,B|232:104|208:60,1,100
116,20,65233,2,0,B|96:72|120:116,1,100,8|0,0:0|0:0,0:0:0:0:
392,116,65421,2,0,B|416:72|396:20,1,100
304,60,65608,2,0,B|280:104|300:156,1,100,8|0,0:0|0:0,0:0:0:0:
360,240,65796,5,0,0:0:0:0:
348,340,65889,1,0,0:0:0:0:
256,376,65983,1,8,0:0:0:0:
164,340,66077,1,0,0:0:0:0:
152,240,66171,2,0,B|184:144|184:144|256:76,1,200,0|8,0:0|0:0,0:0:0:0:
360,240,66452,2,0,B|328:144|328:144|256:76,1,200
256,192,66733,6,0,B|256:292,1,100,8|0,0:0|0:0,0:0:0:0:
428,208,66921,2,0,B|396:112,1,100
115,113,67108,2,0,B|84:208,1,100,8|0,0:0|0:0,0:0:0:0:
256,292,67296,6,0,B|256:92,1,200,4|8,0:0|0:0,0:0:0:0:
336,36,67577,1,0,0:0:0:0:
436,56,67671,1,0,0:0:0:0:
472,148,67764,1,0,0:0:0:0:
436,240,67858,1,8,0:0:0:0:
344,280,67952,2,0,B|284:280|256:236|228:192|168:192,1,200
170,279,68233,6,0,B|228:280|256:236|284:192|344:192,1,200,8|0,0:0|0:0,0:0:0:0:
428,244,68514,1,0,0:0:0:0:
416,344,68608,1,8,0:0:0:0:
320,368,68702,1,0,0:0:0:0:
256,292,68796,2,0,B|256:88,1,200,0|8,0:0|0:0,0:0:0:0:
168,48,69077,1,0,0:0:0:0:
72,80,69171,6,0,B|44:176,1,100
172,208,69358,2,0,B|200:112,1,100,8|0,0:0|0:0,0:0:0:0:
64,68,69546,2,0,B|36:164,1,100
164,196,69733,6,0,B|192:100|192:100|272:40,1,200,8|0,0:0|0:0,0:0:0:0:
368,64,70014,1,0,0:0:0:0:
404,156,70108,1,8,0:0:0:0:
352,240,70202,1,0,0:0:0:0:
256,272,70296,6,0,B|172:217|172:217|133:125,1,200,4|8,0:0|0:0,0:0:0:0:
64,56,70577,1,0,0:0:0:0:
4,136,70671,1,0,0:0:0:0:
4,236,70764,1,0,0:0:0:0:
72,308,70858,1,8,0:0:0:0:
172,304,70952,6,0,B|260:257|260:257|307:167,1,200
205,168,71233,2,0,B|251:257|251:257|340:304,1,200,8|0,0:0|0:0,0:0:0:0:
436,280,71514,1,0,0:0:0:0:
492,196,71608,1,8,0:0:0:0:
468,100,71702,1,0,0:0:0:0:
380,52,71796,6,0,P|328:52|288:76,1,100
132,332,71983,2,0,P|184:332|224:308,1,100,8|0,0:0|0:0,0:0:0:0:
391,63,72171,6,0,P|339:58|297:79,1,100
120,320,72358,2,0,P|172:325|214:304,1,100,8|0,0:0|0:0,0:0:0:0:
402,75,72546,6,0,P|351:66|307:83,1,100,0|8,0:0|0:0,0:0:0:0:
109,308,72733,2,0,P|160:317|204:300,1,100,8|0,0:0|0:0,0:0:0:0:
256,212,72921,5,0,0:0:0:0:
244,168,72983,1,0,0:0:0:0:
208,136,73046,1,0,0:0:0:0:
164,124,73108,1,0,0:0:0:0:
116,132,73171,1,0,0:0:0:0:
84,164,73233,1,0,0:0:0:0:
68,208,73296,6,0,P|162:210|206:127,1,200,4|8,0:0|0:0,0:0:0:0:
256,40,73577,1,0,0:0:0:0:
356,20,73671,1,0,0:0:0:0:
432,84,73764,1,0,0:0:0:0:
423,184,73858,2,0,P|347:241|255:211,1,200,8|0,0:0|0:0,0:0:0:0:
168,164,74139,5,0,0:0:0:0:
72,196,74233,1,8,0:0:0:0:
44,292,74327,1,0,0:0:0:0:
116,360,74421,2,0,L|216:380,1,100
396,360,74608,2,0,L|296:380,1,100,8|0,0:0|0:0,0:0:0:0:
256,288,74796,5,4,0:0:0:0:
484,96,75077,1,4,0:0:0:0:
256,288,75358,1,0,0:0:0:0:
256,88,75546,5,4,0:0:0:0:
80,328,75827,1,4,0:0:0:0:
256,88,76108,5,0,0:0:0:0:
256,88,76171,1,0,0:0:0:0:
256,88,76233,1,0,0:0:0:0:
256,88,76296,2,0,P|308:88|352:108,1,100,4|0,0:0|0:0,0:0:0:0:
320,204,76483,2,0,P|268:204|224:184,1,100,8|0,0:0|0:0,0:0:0:0:
260,72,76671,6,0,P|312:72|356:92,1,100
316,220,76858,2,0,P|264:220|220:200,1,100,8|0,0:0|0:0,0:0:0:0:
260,48,77046,6,0,P|358:64|427:135,1,200,0|8,0:0|0:0,0:0:0:0:
440,232,77327,1,0,0:0:0:0:
388,320,77421,6,0,L|296:280,1,100
124,320,77608,2,0,L|216:280,1,100,8|0,0:0|0:0,0:0:0:0:
388,284,77796,6,0,L|296:244,1,100
124,284,77983,2,0,L|216:244,1,100,8|0,0:0|0:0,0:0:0:0:
256,152,78171,6,0,B|176:96|176:96|72:96,1,200,0|8,0:0|0:0,0:0:0:0:
32,188,78452,2,0,B|134:188|134:188|214:244,1,200
292,308,78733,5,8,0:0:0:0:
388,284,78827,1,0,0:0:0:0:
432,192,78921,2,0,L|448:92,1,100
271,53,79108,2,0,L|256:152,1,100,8|0,0:0|0:0,0:0:0:0:
460,216,79296,6,0,B|476:116|476:116|440:24,1,200,4|8,0:0|0:0,0:0:0:0:
340,28,79577,1,0,0:0:0:0:
300,120,79671,1,0,0:0:0:0:
332,216,79764,1,0,0:0:0:0:
292,308,79858,1,8,0:0:0:0:
192,324,79952,6,0,P|101:291|68:200,1,200
168,192,80233,2,0,P|259:159|292:68,1,200,8|0,0:0|0:0,0:0:0:0:
204,20,80514,5,0,0:0:0:0:
108,44,80608,1,8,0:0:0:0:
52,128,80702,1,0,0:0:0:0:
72,224,80796,2,0,L|128:308,1,100
224,276,80983,2,0,L|168:192,1,100,8|0,0:0|0:0,0:0:0:0:
264,160,81171,6,0,B|320:244|320:244|320:344,1,200,0|8,0:0|0:0,0:0:0:0:
416,316,81452,2,0,B|416:216|416:216|360:132,1,200
456,108,81733,2,0,B|512:192|512:192|512:292,1,200,8|0,0:0|0:0,0:0:0:0:
416,316,82014,5,0,0:0:0:0:
324,280,82108,1,8,0:0:0:0:
280,188,82202,1,0,0:0:0:0:
308,92,82296,6,0,L|388:32,1,100,4|0,0:0|0:0,0:0:0:0:
456,108,82483,2,0,L|376:168,1,100,8|0,0:0|0:0,0:0:0:0:
204,92,82671,2,0,L|124:32,1,100
56,108,82858,2,0,L|136:168,1,100,8|0,0:0|0:0,0:0:0:0:
220,224,83046,5,0,0:0:0:0:
240,320,83139,1,0,0:0:0:0:
160,380,83233,2,0,B|64:348|64:348|12:264,1,200,8|0,0:0|0:0,0:0:0:0:
64,176,83514,1,0,0:0:0:0:
152,124,83608,1,8,0:0:0:0:
248,156,83702,1,0,0:0:0:0:
276,252,83796,6,0,P|360:304|448:272,2,200,0|12|0,0:0|0:0|0:0,0:0:0:0:
252,156,84264,1,0,0:0:0:0:
284,60,84358,1,8,0:0:0:0:
380,36,84452,1,0,0:0:0:0:
460,96,84546,5,0,0:0:0:0:
256,316,84827,1,8,0:0:0:0:
52,96,85108,1,8,0:0:0:0:
256,236,85296,5,4,0:0:0:0:
452,192,85483,1,8,0:0:0:0:
256,148,85671,1,0,0:0:0:0:
60,104,85858,1,8,0:0:0:0:
256,60,86421,5,0,0:0:0:0:
256,60,86514,1,0,0:0:0:0:
256,60,86608,1,0,0:0:0:0:
256,260,86796,5,4,0:0:0:0:
380,104,86983,1,8,0:0:0:0:
256,260,87171,1,0,0:0:0:0:
132,104,87358,1,8,0:0:0:0:
256,344,87921,5,4,0:0:0:0:
256,60,88296,5,4,0:0:0:0:
256,344,88483,1,8,0:0:0:0:
256,60,88671,1,0,0:0:0:0:
256,344,88858,1,8,0:0:0:0:
256,192,89421,5,0,0:0:0:0:
256,192,89514,1,0,0:0:0:0:
256,192,89608,1,0,0:0:0:0:
456,192,89796,5,4,0:0:0:0:
56,192,89983,1,8,0:0:0:0:
456,192,90171,1,0,0:0:0:0:
56,192,90358,1,8,0:0:0:0:
256,60,90921,5,0,0:0:0:0:
256,192,91108,5,0,0:0:0:0:
256,192,91202,1,0,0:0:0:0:
256,192,91296,1,4,0:0:0:0:
212,156,103296,6,4,P|256:12|300:156,1,400,0|6,0:0|0:0,0:0:0:0:
220,280,104983,5,0,0:0:0:0:
484,272,105171,1,2,0:0:0:0:
356,348,105358,1,0,0:0:0:0:
472,124,105546,6,0,P|428:100|380:104,1,100,2|0,0:0|0:0,0:0:0:0:
360,204,105827,2,0,P|316:228|268:224,1,100,2|0,0:0|0:0,0:0:0:0:
196,152,106108,2,0,L|196:52,1,100,2|0,0:0|0:0,0:0:0:0:
348,40,106483,5,0,0:0:0:0:
408,280,106671,1,2,0:0:0:0:
460,140,106858,1,0,0:0:0:0:
280,360,107046,6,0,L|184:324,1,100,2|0,0:0|0:0,0:0:0:0:
216,228,107327,2,0,L|312:192,1,100,2|0,0:0|0:0,0:0:0:0:
280,96,107608,2,0,L|184:60,1,100,2|4,0:0|0:0,0:0:0:0:
48,144,107983,5,0,0:0:0:0:
156,364,108171,1,2,0:0:0:0:
24,292,108358,1,0,0:0:0:0:
296,312,108546,6,0,P|320:272|316:220,1,100,2|0,0:0|0:0,0:0:0:0:
216,228,108827,2,0,P|189:189|189:137,1,100,2|0,0:0|0:0,0:0:0:0:
280,96,109108,2,0,P|304:56|300:4,1,100,2|2,0:0|0:0,0:0:0:0:
108,68,109483,5,2,0:0:0:0:
404,192,109671,1,2,0:0:0:0:
108,316,109858,1,2,0:0:0:0:
404,376,110046,6,0,L|444:312,1,75.0000028610231,8|8,0:0|0:0,0:0:0:0:
296,280,110233,2,0,L|249:205,1,87.500000834465,8|8,0:0|0:0,0:0:0:0:
256,56,110421,5,0,0:0:0:0:
292,20,110483,1,0,0:0:0:0:
344,8,110546,1,0,0:0:0:0:
396,16,110608,1,0,0:0:0:0:
440,44,110671,1,0,0:0:0:0:
464,88,110733,1,0,0:0:0:0:
460,136,110796,6,0,B|402:237|292:212,1,200,4|8,0:0|0:0,0:0:0:0:
196,184,111077,1,0,0:0:0:0:
128,108,111171,2,0,L|192:32,1,100
260,108,111358,2,0,L|196:184,1,100,8|0,0:0|0:0,0:0:0:0:
260,264,111546,6,0,B|324:188|324:188|424:164,1,200,0|8,0:0|0:0,0:0:0:0:
468,256,111827,2,0,B|370:279|370:279|306:355,1,200
205,355,112108,2,0,B|141:279|141:279|44:256,1,200,8|0,0:0|0:0,0:0:0:0:
32,156,112389,5,0,0:0:0:0:
76,68,112483,1,8,0:0:0:0:
176,52,112577,1,0,0:0:0:0:
260,108,112671,2,0,L|300:200,1,100
396,180,112858,2,0,L|356:88,1,100,8|0,0:0|0:0,0:0:0:0:
456,68,113046,6,0,B|495:159|495:159|467:255,1,200,0|8,0:0|0:0,0:0:0:0:
348,260,113327,2,0,B|256:220|256:220|164:260,1,200
44,255,113608,2,0,B|16:159|16:159|56:68,1,200
152,40,113889,5,0,0:0:0:0:
244,76,113983,2,0,L|204:168,1,100,8|0,0:0|0:0,0:0:0:0:
268,308,114171,2,0,L|308:216,1,100
216,56,114358,2,0,L|176:148,1,100,8|0,0:0|0:0,0:0:0:0:
296,328,114546,6,0,B|336:236|336:236|308:140,1,200,0|8,0:0|0:0,0:0:0:0:
408,140,114827,2,0,B|436:236|436:236|396:328,1,200
268,308,115108,2,0,B|308:216|308:216|280:120,1,200,8|0,0:0|0:0,0:0:0:0:
184,88,115389,5,0,0:0:0:0:
96,136,115483,1,8,0:0:0:0:
68,232,115577,1,0,0:0:0:0:
112,324,115671,6,0,L|208:356,1,100,0|0,0:0|0:0,0:0:0:0:
400,324,115858,2,0,L|304:356,1,100,8|0,0:0|0:0,0:0:0:0:
92,280,116046,6,0,L|192:296,1,100
420,280,116233,2,0,L|320:296,1,100,8|8,0:0|0:0,0:0:0:0:
72,236,116421,6,0,L|172:240,1,100
440,236,116608,2,0,L|340:240,1,100,8|0,0:0|0:0,0:0:0:0:
256,164,116796,5,4,0:0:0:0:
316,28,116983,1,0,0:0:0:0:
464,48,117171,1,8,0:0:0:0:
512,192,117358,6,0,P|432:252|344:224,1,200
256,100,117921,1,8,0:0:0:0:
0,192,118108,2,0,P|80:252|168:224,1,200
256,100,118671,5,8,0:0:0:0:
256,248,118858,1,0,0:0:0:0:
256,100,119046,1,0,0:0:0:0:
256,100,119139,1,0,0:0:0:0:
256,100,119233,2,0,L|164:60,1,100,8|0,0:0|0:0,0:0:0:0:
20,104,119608,1,0,0:0:0:0:
32,252,119796,5,4,0:0:0:0:
168,312,119983,1,0,0:0:0:0:
256,192,120171,1,8,0:0:0:0:
388,120,120358,6,0,P|420:212|368:292,1,200
256,192,120921,1,8,0:0:0:0:
124,120,121108,2,0,P|92:212|144:292,1,200
256,192,121671,5,8,0:0:0:0:
256,44,121858,1,0,0:0:0:0:
256,192,122046,5,0,0:0:0:0:
256,223,122139,1,0,0:0:0:0:
256,255,122233,1,8,0:0:0:0:
256,287,122327,1,0,0:0:0:0:
256,319,122421,1,0,0:0:0:0:
256,351,122514,1,0,0:0:0:0:
256,383,122608,1,12,0:0:0:0:
337,192,122796,5,4,0:0:0:0:
173,192,122983,1,0,0:0:0:0:
313,249,123171,1,0,0:0:0:0:
197,133,123358,1,0,0:0:0:0:
256,273,123546,1,0,0:0:0:0:
256,109,123733,1,0,0:0:0:0:
197,249,123921,1,8,0:0:0:0:
313,133,124108,1,0,0:0:0:0:
162,192,124296,5,0,0:0:0:0:
348,192,124483,1,0,0:0:0:0:
189,125,124671,1,0,0:0:0:0:
321,257,124858,1,0,0:0:0:0:
256,98,125046,1,0,0:0:0:0:
256,284,125233,1,0,0:0:0:0:
321,125,125421,1,12,0:0:0:0:
189,257,125608,1,0,0:0:0:0:
362,192,125796,5,4,0:0:0:0:
147,192,125983,1,0,0:0:0:0:
331,267,126171,1,0,0:0:0:0:
179,115,126358,1,0,0:0:0:0:
256,298,126546,1,0,0:0:0:0:
256,83,126733,1,0,0:0:0:0:
179,267,126921,1,8,0:0:0:0:
331,115,127108,1,0,0:0:0:0:
131,192,127296,5,0,0:0:0:0:
379,192,127483,1,0,0:0:0:0:
167,103,127671,1,0,0:0:0:0:
343,279,127858,1,0,0:0:0:0:
256,67,128046,1,0,0:0:0:0:
256,315,128233,1,0,0:0:0:0:
343,103,128421,1,12,0:0:0:0:
167,279,128608,1,0,0:0:0:0:
397,192,128796,5,4,0:0:0:0:
113,192,128983,1,0,0:0:0:0:
356,292,129171,1,0,0:0:0:0:
154,90,129358,1,0,0:0:0:0:
256,333,129546,1,0,0:0:0:0:
256,49,129733,1,0,0:0:0:0:
154,292,129921,1,8,0:0:0:0:
356,90,130108,1,0,0:0:0:0:
91,192,130296,5,0,0:0:0:0:
419,192,130483,1,0,0:0:0:0:
140,76,130671,1,0,0:0:0:0:
370,306,130858,1,0,0:0:0:0:
256,27,131046,1,0,0:0:0:0:
256,355,131233,1,0,0:0:0:0:
370,76,131421,1,12,0:0:0:0:
140,306,131608,1,0,0:0:0:0:
442,192,131796,5,4,0:0:0:0:
68,192,131983,1,0,0:0:0:0:
387,323,132171,1,0,0:0:0:0:
123,59,132358,1,0,0:0:0:0:
256,378,132546,1,0,0:0:0:0:
256,4,132733,1,0,0:0:0:0:
123,323,132921,1,8,0:0:0:0:
387,59,133108,1,0,0:0:0:0:
256,192,133296,5,0,0:0:0:0:
220,228,133389,1,0,0:0:0:0:
172,236,133483,1,0,0:0:0:0:
124,224,133577,1,0,0:0:0:0:
88,188,133671,1,0,0:0:0:0:
76,140,133764,1,0,0:0:0:0:
96,96,133858,1,0,0:0:0:0:
132,60,133952,1,0,0:0:0:0:
180,52,134046,2,0,B|256:52|268:92|280:132|356:132,1,200,0|8,0:0|0:0,0:0:0:0:
256,336,134608,1,0,0:0:0:0:
156,132,134796,6,0,B|228:64|228:64|328:48,1,200,4|8,0:0|0:0,0:0:0:0:
424,68,135077,1,0,0:0:0:0:
452,164,135171,1,0,0:0:0:0:
388,240,135264,1,0,0:0:0:0:
288,252,135358,2,0,L|232:168,1,100,8|0,0:0|0:0,0:0:0:0:
300,92,135546,2,0,L|356:176,1,100
288,252,135733,5,8,0:0:0:0:
186,260,135827,1,0,0:0:0:0:
103,203,135921,1,0,0:0:0:0:
102,103,136014,1,0,0:0:0:0:
166,25,136108,1,8,0:0:0:0:
267,19,136202,1,0,0:0:0:0:
354,69,136296,6,0,B|343:168|343:168|286:250,1,200,0|8,0:0|0:0,0:0:0:0:
380,284,136577,2,0,B|436:201|436:201|447:102,1,200
354,69,136858,1,8,0:0:0:0:
256,40,136952,1,0,0:0:0:0:
158,69,137046,6,0,B|168:168|168:168|225:250,1,200,0|8,0:0|0:0,0:0:0:0:
132,284,137327,2,0,B|75:201|75:201|64:102,1,200
158,69,137608,1,8,0:0:0:0:
256,40,137702,1,0,0:0:0:0:
354,69,137796,6,0,L|354:168,1,100
452,192,137983,2,0,L|452:93,1,100,8|0,0:0|0:0,0:0:0:0:
158,69,138171,2,0,L|158:168,1,100
60,192,138358,2,0,L|60:93,1,100,8|0,0:0|0:0,0:0:0:0:
256,40,138546,6,0,L|256:240,1,200,0|8,0:0|0:0,0:0:0:0:
256,340,138827,1,0,0:0:0:0:
348,376,138921,2,0,P|364:328|344:284,1,100
164,376,139108,2,0,P|148:328|168:284,1,100,8|0,0:0|0:0,0:0:0:0:
256,240,139296,5,0,0:0:0:0:
204,156,139389,1,0,0:0:0:0:
104,140,139483,1,8,0:0:0:0:
20,192,139577,1,0,0:0:0:0:
8,292,139671,2,0,P|104:320|176:260,1,200,0|8,0:0|0:0,0:0:0:0:
504,292,139952,2,0,P|408:320|336:260,1,200
274,184,140233,5,8,0:0:0:0:
294,85,140327,1,0,0:0:0:0:
384,41,140421,1,0,0:0:0:0:
475,83,140514,1,0,0:0:0:0:
498,180,140608,1,8,0:0:0:0:
437,260,140702,1,0,0:0:0:0:
336,260,140796,6,0,B|280:260|248:216|216:172|162:172,1,200,4|8,0:0|0:0,0:0:0:0:
132,268,141077,1,0,0:0:0:0:
204,336,141171,1,0,0:0:0:0:
308,336,141264,1,0,0:0:0:0:
380,268,141358,1,8,0:0:0:0:
350,172,141452,2,0,B|296:172|264:216|232:260|176:260,1,200,0|0,0:0|0:0,0:0:0:0:
162,172,141733,6,0,B|216:172|248:216|280:260|336:260,1,200,8|0,0:0|0:0,0:0:0:0:
416,200,142014,1,0,0:0:0:0:
432,100,142108,1,8,0:0:0:0:
356,36,142202,1,0,0:0:0:0:
256,24,142296,2,0,L|256:224,1,200,0|8,0:0|0:0,0:0:0:0:
164,264,142577,1,0,0:0:0:0:
72,220,142671,6,0,L|40:124,1,100
128,76,142858,2,0,L|160:172,1,100,8|0,0:0|0:0,0:0:0:0:
440,220,143046,2,0,L|472:124,1,100
384,76,143233,2,0,L|352:172,1,100,8|0,0:0|0:0,0:0:0:0:
304,260,143421,1,0,0:0:0:0:
204,272,143514,1,0,0:0:0:0:
124,212,143608,1,8,0:0:0:0:
116,112,143702,1,0,0:0:0:0:
192,48,143796,6,0,B|268:48|272:96|308:128|372:128,1,200,4|8,0:0|0:0,0:0:0:0:
452,184,144077,1,0,0:0:0:0:
440,284,144171,1,0,0:0:0:0:
356,336,144264,1,0,0:0:0:0:
256,316,144358,1,8,0:0:0:0:
184,248,144452,6,0,B|184:184|220:156|256:132|256:64,1,200
160,36,144733,2,0,B|160:102|124:126|88:154|88:218,1,200,8|0,0:0|0:0,0:0:0:0:
128,308,145014,1,0,0:0:0:0:
224,288,145108,1,8,0:0:0:0:
256,192,145202,1,0,0:0:0:0:
288,96,145296,6,0,P|332:80|384:80,1,100
224,288,145483,2,0,P|180:304|128:304,1,100,8|0,0:0|0:0,0:0:0:0:
346,146,145671,2,0,P|388:166|425:203,1,100
165,237,145858,2,0,P|123:217|86:180,1,100,8|0,0:0|0:0,0:0:0:0:
72,80,146046,5,0,0:0:0:0:
160,36,146139,1,8,0:0:0:0:
256,64,146233,1,8,0:0:0:0:
276,164,146327,1,8,0:0:0:0:
224,248,146421,5,0,0:0:0:0:
208,300,146483,1,0,0:0:0:0:
220,352,146546,1,0,0:0:0:0:
268,376,146608,1,0,0:0:0:0:
320,376,146671,1,0,0:0:0:0:
368,352,146733,1,0,0:0:0:0:
384,300,146796,6,0,L|384:100,1,200,4|8,0:0|0:0,0:0:0:0:
308,36,147077,1,0,0:0:0:0:
208,56,147171,1,0,0:0:0:0:
148,136,147264,1,0,0:0:0:0:
164,236,147358,2,0,P|260:232|308:148,1,200,8|0,0:0|0:0,0:0:0:0:
256,64,147639,5,0,0:0:0:0:
156,68,147733,1,8,0:0:0:0:
84,136,147827,1,0,0:0:0:0:
88,236,147921,2,0,L|144:320,1,100
424,148,148108,2,0,L|368:64,1,100,8|0,0:0|0:0,0:0:0:0:
256,192,148296,5,4,0:0:0:0:
512,352,148577,1,4,0:0:0:0:
256,192,148858,1,0,0:0:0:0:
256,192,149046,5,4,0:0:0:0:
0,352,149327,1,4,0:0:0:0:
256,192,149608,5,0,0:0:0:0:
256,192,149671,1,0,0:0:0:0:
256,192,149733,1,0,0:0:0:0:
256,192,149796,2,0,P|300:216|320:260,1,100,4|0,0:0|0:0,0:0:0:0:
220,328,149983,2,0,P|176:304|156:260,1,100,8|0,0:0|0:0,0:0:0:0:
280,168,150171,6,0,P|324:192|344:236,1,100
196,352,150358,2,0,P|152:328|132:284,1,100,8|0,0:0|0:0,0:0:0:0:
308,140,150546,6,0,P|380:208|380:304,1,200,0|8,0:0|0:0,0:0:0:0:
296,356,150827,1,0,0:0:0:0:
196,352,150921,1,0,0:0:0:0:
128,280,151014,1,0,0:0:0:0:
132,180,151108,1,8,0:0:0:0:
212,116,151202,1,0,0:0:0:0:
308,140,151296,6,0,L|364:224,1,100
456,148,151483,2,0,L|400:64,1,100,8|0,0:0|0:0,0:0:0:0:
284,164,151671,2,0,B|340:248|340:248|432:288,1,200,0|8,0:0|0:0,0:0:0:0:
348,376,151952,2,0,B|257:336|257:336|201:252,1,200
168,156,152233,5,8,0:0:0:0:
224,72,152327,1,0,0:0:0:0:
324,56,152421,2,0,L|400:120,1,100
324,212,152608,2,0,L|248:148,1,100,8|0,0:0|0:0,0:0:0:0:
180,248,152796,6,0,B|256:312|256:312|356:312,1,200,4|8,0:0|0:0,0:0:0:0:
444,264,153077,1,0,0:0:0:0:
472,168,153171,1,0,0:0:0:0:
420,84,153264,1,0,0:0:0:0:
324,56,153358,1,8,0:0:0:0:
232,100,153452,6,0,L|232:300,1,200
132,320,153733,2,0,L|132:120,1,200,8|0,0:0|0:0,0:0:0:0:
172,28,154014,5,0,0:0:0:0:
272,28,154108,1,8,0:0:0:0:
324,116,154202,1,0,0:0:0:0:
268,200,154296,2,0,L|180:248,1,100
244,324,154483,2,0,L|332:276,1,100,8|0,0:0|0:0,0:0:0:0:
256,164,154671,6,0,B|168:212|168:212|116:296,1,200,0|8,0:0|0:0,0:0:0:0:
56,216,154952,2,0,B|108:132|108:132|196:84,1,200
456,216,155233,2,0,B|404:132|404:132|316:84,1,200,8|0,0:0|0:0,0:0:0:0:
256,164,155514,1,0,0:0:0:0:
232,260,155608,1,8,0:0:0:0:
284,344,155702,1,0,0:0:0:0:
384,356,155796,6,0,L|456:288,1,100,4|0,0:0|0:0,0:0:0:0:
384,156,155983,2,0,L|312:224,1,100,8|0,0:0|0:0,0:0:0:0:
128,356,156171,2,0,L|56:288,1,100
128,156,156358,2,0,L|200:224,1,100,8|0,0:0|0:0,0:0:0:0:
280,288,156546,5,0,0:0:0:0:
376,268,156639,1,0,0:0:0:0:
440,192,156733,2,0,P|420:96|336:48,1,200,8|0,0:0|0:0,0:0:0:0:
236,56,157014,1,0,0:0:0:0:
172,136,157108,1,8,0:0:0:0:
196,232,157202,1,0,0:0:0:0:
280,288,157296,6,0,P|364:236|368:140,2,200,0|12|8,0:0|0:0|0:0,0:0:0:0:
200,232,157764,1,0,0:0:0:0:
176,136,157858,1,0,0:0:0:0:
240,56,157952,1,0,0:0:0:0:
340,48,158046,5,0,0:0:0:0:
256,368,158327,1,0,0:0:0:0:
172,48,158608,1,0,0:0:0:0:
256,192,158796,5,4,0:0:0:0:
416,72,158983,1,0,0:0:0:0:
256,192,159171,1,0,0:0:0:0:
96,72,159358,1,0,0:0:0:0:
256,296,159921,5,0,0:0:0:0:
256,296,160014,1,0,0:0:0:0:
256,296,160108,1,0,0:0:0:0:
336,112,160296,5,4,0:0:0:0:
152,192,160483,1,0,0:0:0:0:
336,272,160671,1,0,0:0:0:0:
152,192,160858,1,0,0:0:0:0:
256,40,161421,5,4,0:0:0:0:
256,344,161796,5,4,0:0:0:0:
64,292,161983,1,0,0:0:0:0:
256,228,162171,1,0,0:0:0:0:
64,168,162358,1,0,0:0:0:0:
256,40,162921,5,0,0:0:0:0:
256,40,163014,1,0,0:0:0:0:
256,40,163108,1,0,0:0:0:0:
256,344,163296,5,4,0:0:0:0:
448,292,163483,1,0,0:0:0:0:
256,228,163671,1,0,0:0:0:0:
448,168,163858,1,0,0:0:0:0:
256,40,164421,6,0,L|256:80,7,37.5000014305115,0|0|0|0|8|0|8|0,0:0|0:0|0:0|0:0|0:0|0:0|0:0|0:0,0:0:0:0:
256,77,164796,6,0,B|200:160|200:160|104:192,1,200,4|8,0:0|0:0,0:0:0:0:
12,160,165077,1,0,0:0:0:0:
20,60,165171,2,0,L|116:28,1,100
176,132,165358,2,0,L|80:164,1,100,8|0,0:0|0:0,0:0:0:0:
144,268,165546,6,0,B|240:236|240:236|300:156,1,200,0|8,0:0|0:0,0:0:0:0:
368,84,165827,1,0,0:0:0:0:
464,108,165921,1,0,0:0:0:0:
500,200,166014,1,0,0:0:0:0:
448,284,166108,1,8,0:0:0:0:
348,304,166202,1,0,0:0:0:0:
256,264,166296,6,0,B|192:188|192:188|176:88,1,200,0|8,0:0|0:0,0:0:0:0:
256,28,166577,1,0,0:0:0:0:
335,88,166671,2,0,L|320:188,1,100
160,184,166858,2,0,L|144:84,1,100,8|0,0:0|0:0,0:0:0:0:
368,84,167046,6,0,B|352:184|352:184|280:252,1,200,0|8,0:0|0:0,0:0:0:0:
180,256,167327,1,0,0:0:0:0:
88,216,167421,2,0,P|71:167|72:116,1,100
224,92,167608,2,0,P|240:140|239:191,1,100,8|0,0:0|0:0,0:0:0:0:
72,240,167796,6,0,P|44:148|88:60,1,200,4|8,0:0|0:0,0:0:0:0:
188,56,168077,1,0,0:0:0:0:
268,116,168171,2,0,P|264:168|240:208,1,100
88,216,168358,2,0,P|92:164|116:124,1,100,8|0,0:0|0:0,0:0:0:0:
296,108,168546,6,0,P|288:204|216:272,1,200,0|8,0:0|0:0,0:0:0:0:
116,280,168827,1,0,0:0:0:0:
52,204,168921,2,0,L|32:104,1,100
184,92,169108,2,0,L|204:192,1,100,8|0,0:0|0:0,0:0:0:0:
351,178,169296,6,0,B|332:80|332:80|256:16,1,200,0|8,0:0|0:0,0:0:0:0:
156,28,169577,1,0,0:0:0:0:
92,108,169671,1,0,0:0:0:0:
112,204,169764,1,0,0:0:0:0:
192,264,169858,1,8,0:0:0:0:
292,260,169952,1,0,0:0:0:0:
351,178,170046,6,0,L|332:80,1,100
184,92,170233,2,0,L|203:190,1,100,8|0,0:0|0:0,0:0:0:0:
280,256,170421,1,0,0:0:0:0:
380,248,170514,1,0,0:0:0:0:
428,160,170608,1,8,0:0:0:0:
384,72,170702,1,0,0:0:0:0:
284,60,170796,6,0,B|196:112|260:164|168:216,1,200,4|8,0:0|0:0,0:0:0:0:
68,204,171077,1,0,0:0:0:0:
16,116,171171,2,0,L|76:36,1,100
184,92,171358,2,0,L|124:172,1,100,8|0,0:0|0:0,0:0:0:0:
232,228,171546,6,0,B|292:148|292:148|388:116,1,200,0|8,0:0|0:0,0:0:0:0:
456,192,171827,1,0,0:0:0:0:
440,292,171921,2,0,L|356:352,1,100
288,276,172108,2,0,L|372:216,1,100,8|0,0:0|0:0,0:0:0:0:
292,152,172296,6,0,B|196:184|196:184|128:256,1,200,0|8,0:0|0:0,0:0:0:0:
152,352,172577,1,0,0:0:0:0:
248,376,172671,2,0,P|296:368|336:336,1,100
232,228,172858,2,0,P|184:220|144:188,1,100,8|0,0:0|0:0,0:0:0:0:
248,76,173046,2,0,P|296:68|336:36,1,100
437,26,173233,5,8,0:0:0:0:
493,107,173327,1,0,0:0:0:0:
483,206,173421,1,0,0:0:0:0:
413,276,173514,1,0,0:0:0:0:
314,285,173608,1,8,0:0:0:0:
232,228,173702,1,0,0:0:0:0:
207,131,173796,6,0,P|112:112|32:172,1,200,4|8,0:0|0:0,0:0:0:0:
16,268,174077,1,0,0:0:0:0:
84,344,174171,2,0,P|136:352|184:344,1,100
184,192,174358,2,0,P|132:184|84:192,1,100,8|0,0:0|0:0,0:0:0:0:
60,356,174546,6,0,P|157:363|248:320,1,200,0|8,0:0|0:0,0:0:0:0:
292,232,174827,1,0,0:0:0:0:
256,140,174921,2,0,L|164:100,1,100
108,220,175108,2,0,L|200:260,1,100,8|0,0:0|0:0,0:0:0:0:
256,124,175296,6,0,B|164:84|164:84|64:108,1,200,0|8,0:0|0:0,0:0:0:0:
40,204,175577,1,0,0:0:0:0:
108,280,175671,2,0,P|152:307|200:315,1,100
404,104,175858,2,0,P|359:76|311:68,1,100,8|0,0:0|0:0,0:0:0:0:
213,358,176046,2,0,P|264:346|304:318,1,100
298,25,176233,2,0,P|247:37|207:65,1,100,8|0,0:0|0:0,0:0:0:0:
256,192,176421,6,0,L|268:216,15,25
267,214,176796,6,0,L|352:268,1,100,4|0,0:0|0:0,0:0:0:0:
428,176,176983,2,0,L|343:122,1,100,8|0,0:0|0:0,0:0:0:0:
244,214,177171,2,0,L|160:268,1,100
84,176,177358,2,0,L|168:122,1,100,8|0,0:0|0:0,0:0:0:0:
284,184,177546,6,0,L|368:237,1,100
444,145,177733,2,0,L|359:91,1,100,8|0,0:0|0:0,0:0:0:0:
228,184,177921,2,0,L|143:237,1,100
68,145,178108,2,0,L|152:91,1,100,8|0,0:0|0:0,0:0:0:0:
300,156,178296,6,0,L|384:209,1,100
460,117,178483,2,0,L|375:63,1,100,8|0,0:0|0:0,0:0:0:0:
212,156,178671,2,0,L|127:209,1,100
52,117,178858,2,0,L|136:63,1,100,8|0,0:0|0:0,0:0:0:0:
316,128,179046,6,0,L|400:181,1,100
476,89,179233,2,0,L|391:35,1,100,8|0,0:0|0:0,0:0:0:0:
196,128,179421,2,0,L|111:181,1,100
36,89,179608,2,0,L|120:35,1,100,8|0,0:0|0:0,0:0:0:0:
256,88,179796,6,0,L|305:135,5,66.6666666666667,0|0|0|8|0|0,0:0|0:0|0:0|0:0|0:0|0:0,0:0:0:0:
392,236,180171,1,0,0:0:0:0:
384,292,180233,1,0,0:0:0:0:
337,331,180296,1,0,0:0:0:0:
276,338,180358,1,8,0:0:0:0:
228,302,180421,1,0,0:0:0:0:
218,243,180483,1,0,0:0:0:0:
244,188,180546,6,0,L|300:152,5,66.6666666666667,0|0|0|8|0|0,0:0|0:0|0:0|0:0|0:0|0:0,0:0:0:0:
296,288,180921,1,0,0:0:0:0:
274,343,180983,1,0,0:0:0:0:
226,381,181046,1,0,0:0:0:0:
166,380,181108,1,8,0:0:0:0:
110,355,181171,1,0,0:0:0:0:
88,301,181233,1,0,0:0:0:0:
76,244,181296,6,0,L|64:44,1,200,0|8,0:0|0:0,0:0:0:0:
164,64,181577,1,0,0:0:0:0:
256,24,181671,1,0,0:0:0:0:
348,64,181764,1,0,0:0:0:0:
448,44,181858,2,0,L|436:244,1,200,8|0,0:0|0:0,0:0:0:0:
364,284,182139,5,0,0:0:0:0:
264,280,182233,2,0,P|248:232|256:184,1,100,8|0,0:0|0:0,0:0:0:0:
160,68,182421,2,0,P|144:116|152:164,1,100
8,208,182608,2,0,P|-8:160|0:112,1,100,8|0,0:0|0:0,0:0:0:0:
72,40,182796,6,0,P|160:72|256:36,1,200,4|8,0:0|0:0,0:0:0:0:
352,68,183077,1,0,0:0:0:0:
416,144,183171,1,0,0:0:0:0:
404,244,183264,1,0,0:0:0:0:
324,304,183358,6,0,B|256:304|232:332|204:360|136:360,1,200,8|0,0:0|0:0,0:0:0:0:
60,296,183639,1,0,0:0:0:0:
8,208,183733,2,0,L|48:116,1,100,8|0,0:0|0:0,0:0:0:0:
191,125,183921,2,0,L|116:192,1,100
224,220,184108,2,0,L|320:190,1,100,8|0,0:0|0:0,0:0:0:0:
404,244,184296,6,0,P|353:325|256:340,1,200,4|8,0:0|0:0,0:0:0:0:
172,288,184577,1,0,0:0:0:0:
124,200,184671,6,0,L|156:104,1,100
388,184,184858,2,0,L|356:280,1,100,8|0,0:0|0:0,0:0:0:0:
98,173,185046,6,0,L|156:67,1,100,0|0,0:0|0:0,0:0:0:0:
413,210,185233,2,0,L|355:316,1,100,8|0,0:0|0:0,0:0:0:0:
73,137,185421,6,0,L|164:23,1,100,0|0,0:0|0:0,0:0:0:0:
438,246,185608,2,0,L|347:360,1,100,8|0,0:0|0:0,0:0:0:0:
256,192,185796,6,0,P|304:108|400:84,1,200,4|8,0:0|0:0,0:0:0:0:
476,152,186077,1,0,0:0:0:0:
438,246,186171,6,0,L|375:324,1,100
73,137,186358,2,0,L|135:58,1,100,8|0,0:0|0:0,0:0:0:0:
413,210,186546,6,0,L|364:297,1,100,0|0,0:0|0:0,0:0:0:0:
98,173,186733,2,0,L|146:85,1,100,8|0,0:0|0:0,0:0:0:0:
388,184,186921,6,0,L|356:278,1,100,0|0,0:0|0:0,0:0:0:0:
124,200,187108,2,0,L|155:105,1,100,8|0,0:0|0:0,0:0:0:0:
256,192,187296,6,0,P|208:276|112:300,1,200,4|8,0:0|0:0,0:0:0:0:
79,205,187577,1,0,0:0:0:0:
99,107,187671,1,0,0:0:0:0:
170,36,187764,1,0,0:0:0:0:
268,14,187858,1,8,0:0:0:0:
361,49,187952,1,0,0:0:0:0:
422,129,188046,1,0,0:0:0:0:
429,229,188139,1,0,0:0:0:0:
381,317,188233,1,8,0:0:0:0:
294,365,188327,1,0,0:0:0:0:
194,358,188421,1,0,0:0:0:0:
114,298,188514,1,0,0:0:0:0:
79,205,188608,1,8,0:0:0:0:
99,107,188702,1,0,0:0:0:0:
170,36,188796,6,6,B|296:16|359:172|256:192|153:212|216:368|342:348,1,479.999985351563,4|4,1:2|0:0,0:0:0:0:
432,308,190483,5,0,0:0:0:0:
476,220,190671,1,2,0:0:0:0:
440,128,190858,1,0,0:0:0:0:
440,128,190952,1,0,0:0:0:0:
440,128,191046,1,0,0:0:0:0:
440,128,191139,1,2,0:0:0:0:
440,128,191233,2,0,L|348:80,1,100,0|2,0:0|0:0,0:0:0:0:
256,56,191608,1,0,0:0:0:0:
256,328,191796,5,0,0:0:0:0:
168,108,191983,1,0,0:0:0:0:
344,276,192171,1,2,0:0:0:0:
256,192,192358,1,0,0:0:0:0:
224,184,192452,1,0,0:0:0:0:
188,184,192546,1,0,0:0:0:0:
156,200,192639,1,2,0:0:0:0:
128,224,192733,2,0,L|156:320,1,100,0|6,0:0|0:0,0:0:0:0:
356,64,193108,1,0,0:0:0:0:
156,320,193296,5,4,0:0:0:0:
256,192,193483,1,0,0:0:0:0:
356,320,193671,1,2,0:0:0:0:
256,192,193858,1,0,0:0:0:0:
284,164,193952,1,0,0:0:0:0:
320,148,194046,1,0,0:0:0:0:
360,148,194139,1,2,0:0:0:0:
396,164,194233,2,0,L|416:272,1,110.000003356934,0|2,0:0|0:0,0:0:0:0:
96,272,194608,1,0,0:0:0:0:
408,248,194796,5,0,0:0:0:0:
104,248,194983,1,0,0:0:0:0:
256,72,195171,1,2,0:0:0:0:
256,312,195358,1,0,0:0:0:0:
256,312,195452,1,0,0:0:0:0:
256,312,195546,1,0,0:0:0:0:
256,312,195639,1,2,0:0:0:0:
256,312,195733,2,0,P|300:324|364:316,1,110.000003356934,0|6,0:0|0:0,0:0:0:0:
452,192,196108,1,0,0:0:0:0:
352,92,196296,5,4,0:0:0:0:
256,252,196483,1,0,0:0:0:0:
160,92,196671,1,2,0:0:0:0:
256,252,196858,1,0,0:0:0:0:
224,280,196952,1,0,0:0:0:0:
184,292,197046,1,0,0:0:0:0:
144,288,197139,1,2,0:0:0:0:
104,272,197233,2,0,P|86:215|100:155,1,119.999996337891,0|2,0:0|0:0,0:0:0:0:
256,40,197608,1,0,0:0:0:0:
256,344,197796,5,0,0:0:0:0:
160,92,197983,1,0,0:0:0:0:
352,292,198171,1,2,0:0:0:0:
256,192,198358,1,0,0:0:0:0:
276,156,198452,1,0,0:0:0:0:
312,136,198546,1,0,0:0:0:0:
352,128,198639,1,2,0:0:0:0:
392,132,198733,2,0,P|425:182|423:240,1,119.999996337891,0|6,0:0|0:0,0:0:0:0:
256,344,199108,1,0,0:0:0:0:
256,40,199296,5,4,0:0:0:0:
176,300,199483,1,0,0:0:0:0:
336,84,199671,1,8,0:0:0:0:
176,300,199858,1,0,0:0:0:0:
143,330,199952,1,0,0:0:0:0:
99,335,200046,1,8,0:0:0:0:
57,320,200139,1,0,0:0:0:0:
28,284,200233,1,0,0:0:0:0:
23,240,200327,1,0,0:0:0:0:
44,200,200421,5,0,0:0:0:0:
48,196,200483,1,0,0:0:0:0:
52,192,200546,1,0,0:0:0:0:
56,188,200608,1,0,0:0:0:0:
60,184,200671,1,0,0:0:0:0:
64,180,200733,1,0,0:0:0:0:
68,176,200796,6,0,L|68:140,8,34.9999989318848,0|0|0|0|8|0|0|0|8,0:0|0:0|0:0|0:0|0:0|0:0|0:0|0:0|0:0,0:0:0:0:
256,32,201358,1,8,0:0:0:0:
444,141,201546,2,0,P|379:245|256:192,1,279.999991455078,8|8,0:0|0:0,0:0:0:0:
256,32,202108,1,0,0:0:0:0:
68,141,202296,6,0,B|80:245|80:245|155:318,1,209.999993591309,4|8,0:0|0:0,0:0:0:0:
256,348,202577,1,0,0:0:0:0:
360,324,202671,1,0,0:0:0:0:
424,244,202764,1,0,0:0:0:0:
443,139,202858,2,0,L|385:52,1,104.999996795654,8|0,0:0|0:0,0:0:0:0:
268,108,203046,2,0,L|326:195,1,104.999996795654
256,272,203233,5,8,0:0:0:0:
156,300,203327,1,0,0:0:0:0:
64,252,203421,2,0,L|6:165,1,104.999996795654
104,80,203608,2,0,L|162:167,1,104.999996795654,8|0,0:0|0:0,0:0:0:0:
256,216,203796,6,0,P|338:154|355:53,1,209.999993591309,0|8,0:0|0:0,0:0:0:0:
460,32,204077,2,0,P|521:114|509:215,1,209.999993591309
420,272,204358,1,8,0:0:0:0:
316,256,204452,1,0,0:0:0:0:
256,168,204546,6,0,P|173:229|156:330,1,209.999993591309,0|8,0:0|0:0,0:0:0:0:
52,352,204827,2,0,P|-9:269|2:168,1,209.999993591309
84,100,205108,1,8,0:0:0:0:
188,112,205202,1,0,0:0:0:0:
256,192,205296,6,0,L|226:292,1,104.999996795654,0|0,0:0|0:0,0:0:0:0:
356,308,205483,2,0,L|385:207,1,104.999996795654,8|0,0:0|0:0,0:0:0:0:
224,180,205671,2,0,L|194:280,1,104.999996795654
388,316,205858,2,0,L|417:215,1,104.999996795654,8|0,0:0|0:0,0:0:0:0:
192,168,206046,6,0,B|163:267|163:267|200:366,1,209.999993591309,0|8,0:0|0:0,0:0:0:0:
304,340,206327,1,0,0:0:0:0:
348,244,206421,1,0,0:0:0:0:
328,140,206514,1,0,0:0:0:0:
236,92,206608,1,8,0:0:0:0:
132,96,206702,1,0,0:0:0:0:
60,172,206796,6,0,P|72:226|105:259,1,104.999996795654,0|0,0:0|0:0,0:0:0:0:
239,256,206983,2,0,P|226:201|193:168,1,104.999996795654,8|0,0:0|0:0,0:0:0:0:
20,160,207171,2,0,P|40:259|128:313,1,209.999993591309,0|8,0:0|0:0,0:0:0:0:
491,160,207452,2,0,P|471:259|383:313,1,209.999993591309
284,288,207733,5,8,0:0:0:0:
244,192,207827,1,0,0:0:0:0:
284,92,207921,2,0,L|382:55,1,104.999996795654
416,180,208108,2,0,L|317:216,1,104.999996795654,8|0,0:0|0:0,0:0:0:0:
232,308,208296,6,0,B|316:372|316:372|424:376,1,209.999993591309,4|8,0:0|0:0,0:0:0:0:
504,292,208577,1,0,0:0:0:0:
500,188,208671,1,0,0:0:0:0:
432,108,208764,1,0,0:0:0:0:
328,108,208858,1,8,0:0:0:0:
256,184,208952,2,0,P|169:238|66:221,1,209.999993591309
256,184,209233,6,0,P|342:238|445:221,1,209.999993591309,8|0,0:0|0:0,0:0:0:0:
500,132,209514,1,0,0:0:0:0:
452,36,209608,1,8,0:0:0:0:
348,24,209702,1,0,0:0:0:0:
256,76,209796,2,0,L|256:287,1,209.999993591309,0|8,0:0|0:0,0:0:0:0:
154,313,210077,1,0,0:0:0:0:
68,252,210171,6,0,L|38:151,1,104.999996795654
160,68,210358,2,0,L|189:168,1,104.999996795654,8|0,0:0|0:0,0:0:0:0:
352,316,210546,2,0,L|322:215,1,104.999996795654
444,132,210733,2,0,L|473:232,1,104.999996795654,8|0,0:0|0:0,0:0:0:0:
320,328,210921,2,0,L|290:227,1,104.999996795654
192,56,211108,2,0,L|221:156,1,104.999996795654,8|0,0:0|0:0,0:0:0:0:
160,292,211296,6,0,P|58:267|17:177,1,209.999993591309,4|8,0:0|0:0,0:0:0:0:
68,88,211577,1,0,0:0:0:0:
164,44,211671,1,0,0:0:0:0:
260,80,211764,1,0,0:0:0:0:
296,180,211858,1,8,0:0:0:0:
256,276,211952,2,0,P|331:347|432:347,1,209.999993591309
256,276,212233,6,0,P|180:347|79:347,1,209.999993591309,8|0,0:0|0:0,0:0:0:0:
4,272,212514,1,0,0:0:0:0:
16,168,212608,1,8,0:0:0:0:
108,120,212702,1,0,0:0:0:0:
200,170,212796,6,0,L|179:277,1,104.999996795654
311,213,212983,2,0,L|332:106,1,104.999996795654,8|0,0:0|0:0,0:0:0:0:
131,188,213171,6,0,L|148:294,1,104.999996795654
378,194,213358,2,0,L|362:88,1,104.999996795654,8|0,0:0|0:0,0:0:0:0:
89,248,213546,6,0,L|140:342,1,104.999996795654,0|8,0:0|0:0,0:0:0:0:
421,134,213733,2,0,L|370:40,1,104.999996795654,8|0,0:0|0:0,0:0:0:0:
256,36,213921,5,8,0:0:0:0:
204,36,213983,1,0,0:0:0:0:
160,64,214046,1,0,0:0:0:0:
136,112,214108,1,0,0:0:0:0:
140,164,214171,1,0,0:0:0:0:
180,200,214233,1,0,0:0:0:0:
230,212,214296,6,0,B|301:212|327:246|352:275|427:275,1,209.999993591309,4|8,0:0|0:0,0:0:0:0:
508,208,214577,1,0,0:0:0:0:
508,104,214671,1,0,0:0:0:0:
428,36,214764,1,0,0:0:0:0:
323,32,214858,2,0,L|323:242,1,209.999993591309,8|0,0:0|0:0,0:0:0:0:
232,300,215139,5,0,0:0:0:0:
128,288,215233,1,8,0:0:0:0:
68,200,215327,1,0,0:0:0:0:
82,96,215421,2,0,L|169:38,1,104.999996795654
429,287,215608,2,0,L|342:345,1,104.999996795654,8|0,0:0|0:0,0:0:0:0:
256,192,215796,5,4,0:0:0:0:
512,32,216077,1,4,0:0:0:0:
256,108,216358,1,0,0:0:0:0:
256,108,216546,5,4,0:0:0:0:
0,32,216827,1,4,0:0:0:0:
256,24,217108,5,0,0:0:0:0:
256,92,217171,1,0,0:0:0:0:
256,160,217233,1,0,0:0:0:0:
256,228,217296,2,0,L|180:307,1,110.000003356934,4|0,0:0|0:0,0:0:0:0:
67,207,217483,2,0,L|143:128,1,110.000003356934,8|0,0:0|0:0,0:0:0:0:
256,240,217671,2,0,L|331:319,1,110.000003356934
444,220,217858,2,0,L|368:139,1,110.000003356934,8|0,0:0|0:0,0:0:0:0:
256,252,218046,2,0,B|180:332|180:332|71:349,1,220.000006713867,0|8,0:0|0:0,0:0:0:0:
8,260,218327,1,0,0:0:0:0:
36,152,218421,6,0,L|124:85,1,110.000003356934
279,267,218608,2,0,L|190:333,1,110.000003356934,8|0,0:0|0:0,0:0:0:0:
31,134,218796,2,0,B|120:67|120:67|230:54,1,220.000006713867,0|8,0:0|0:0,0:0:0:0:
332,96,219077,1,0,0:0:0:0:
344,204,219171,1,0,0:0:0:0:
256,268,219264,1,0,0:0:0:0:
146,249,219358,6,0,L|80:161,1,110.000003356934,8|0,0:0|0:0,0:0:0:0:
190,64,219546,2,0,L|256:152,1,110.000003356934
365,253,219733,2,0,L|431:165,1,110.000003356934,8|0,0:0|0:0,0:0:0:0:
321,68,219921,2,0,L|256:156,1,110.000003356934
146,257,220108,2,0,L|80:170,1,110.000003356934,8|0,0:0|0:0,0:0:0:0:
190,73,220296,6,0,B|256:161|256:161|256:271,1,220.000006713867,4|8,0:0|0:0,0:0:0:0:
192,364,220577,1,0,0:0:0:0:
80,360,220671,1,0,0:0:0:0:
8,276,220764,1,0,0:0:0:0:
28,168,220858,1,8,0:0:0:0:
120,108,220952,2,0,P|217:147|257:249,1,220.000006713867
394,108,221233,6,0,P|296:147|257:249,1,220.000006713867,8|0,0:0|0:0,0:0:0:0:
304,348,221514,1,0,0:0:0:0:
412,364,221608,1,8,0:0:0:0:
488,284,221701,1,0,0:0:0:0:
488,172,221796,2,0,L|396:108,1,110.000003356934
256,192,221983,2,0,L|348:256,1,110.000003356934
196,328,222171,6,0,B|106:264|106:264|62:162,1,220.000006713867,0|8,0:0|0:0,0:0:0:0:
175,254,222452,2,0,B|281:223|281:223|358:143,1,220.000006713867
222,190,222733,2,0,B|132:125|132:125|87:24,1,220.000006713867,8|0,0:0|0:0,0:0:0:0:
200,16,223014,1,0,0:0:0:0:
304,56,223108,1,8,0:0:0:0:
316,164,223202,1,0,0:0:0:0:
256,256,223296,6,0,L|183:337,1,110.000003356934,4|0,0:0|0:0,0:0:0:0:
49,247,223483,2,0,L|122:165,1,110.000003356934,8|0,0:0|0:0,0:0:0:0:
256,264,223671,2,0,L|328:346,1,110.000003356934,0|0,0:0|0:0,0:0:0:0:
462,256,223858,2,0,L|389:174,1,110.000003356934,8|0,0:0|0:0,0:0:0:0:
304,100,224046,5,0,0:0:0:0:
196,108,224139,1,0,0:0:0:0:
120,188,224233,2,0,P|36:125|48:20,1,220.000006713867,8|0,0:0|0:0,0:0:0:0:
156,16,224514,1,0,0:0:0:0:
244,80,224608,1,0,0:0:0:0:
216,188,224702,1,0,0:0:0:0:
128,256,224796,6,0,P|206:334|307:321,2,220.000006713867,0|12|8,0:0|0:0|0:0,0:0:0:0:
112,148,225264,1,0,0:0:0:0:
180,60,225358,1,0,0:0:0:0:
292,56,225452,1,0,0:0:0:0:
385,114,225546,5,0,0:0:0:0:
257,341,225827,1,0,0:0:0:0:
124,119,226108,1,0,0:0:0:0:
256,192,226296,6,4,L|256:204,64,12.5,2|0|0|0|0|0|0|0|0|0|0|0|0|0|0|0|0|0|0|0|0|0|0|0|0|0|0|0|0|0|0|0|0|0|0|0|0|0|0|0|0|0|0|0|0|0|0|0|0|0|0|0|0|0|0|0|0|0|0|0|0|0|0|0|4,0:0|0:0|0:0|0:0|0:0|0:0|0:0|0:0|0:0|0:0|0:0|0:0|0:0|0:0|0:0|0:0|0:0|0:0|0:0|0:0|0:0|0:0|0:0|0:0|0:0|0:0|0:0|0:0|0:0|0:0|0:0|0:0|0:0|0:0|0:0|0:0|0:0|0:0|0:0|0:0|0:0|0:0|0:0|0:0|0:0|0:0|0:0|0:0|0:0|0:0|0:0|0:0|0:0|0:0|0:0|0:0|0:0|0:0|0:0|0:0|0:0|0:0|0:0|0:0|0:0,0:0:0:0:
500,368,227983,5,0,0:0:0:0:
256,192,228171,1,0,0:0:0:0:
12,368,228358,1,0,0:0:0:0:
256,56,228921,5,0,0:0:0:0:
256,56,229014,1,0,0:0:0:0:
256,56,229108,1,0,0:0:0:0:
256,328,229296,5,4,0:0:0:0:
76,88,229483,1,0,0:0:0:0:
256,328,229671,1,0,0:0:0:0:
436,88,229858,1,0,0:0:0:0:
256,328,230421,5,4,0:0:0:0:
256,192,230796,5,4,0:0:0:0:
436,88,230983,1,0,0:0:0:0:
76,296,231171,1,0,0:0:0:0:
256,192,231358,1,0,0:0:0:0:
256,56,231921,5,0,0:0:0:0:
256,56,232014,1,0,0:0:0:0:
256,56,232108,1,0,0:0:0:0:
436,296,232296,5,4,0:0:0:0:
152,372,232483,1,0,0:0:0:0:
360,12,232671,1,0,0:0:0:0:
76,88,232858,1,0,0:0:0:0:
256,192,233421,6,0,L|256:232,7,37.5000014305115,0|0|0|0|8|0|8|0,0:0|0:0|0:0|0:0|0:0|0:0|0:0|0:0,0:0:0:0:
256,230,233796,6,0,P|176:285|80:261,1,200,4|8,0:0|0:0,0:0:0:0:
28,176,234077,1,0,0:0:0:0:
76,88,234171,2,0,L|168:48,1,100
304,116,234358,2,0,L|212:156,1,100,8|0,0:0|0:0,0:0:0:0:
348,224,234546,6,0,B|440:184|440:184|492:100,1,200,0|8,0:0|0:0,0:0:0:0:
428,20,234827,1,0,0:0:0:0:
328,24,234921,1,0,0:0:0:0:
256,92,235014,1,0,0:0:0:0:
256,192,235108,1,8,0:0:0:0:
204,276,235202,1,0,0:0:0:0:
108,300,235296,6,0,P|64:280|48:232,1,100
172,116,235483,2,0,P|150:160|167:205,1,100,8|0,0:0|0:0,0:0:0:0:
404,300,235671,2,0,P|448:280|464:233,1,100
340,116,235858,2,0,P|361:160|344:205,1,100,8|0,0:0|0:0,0:0:0:0:
252,292,236046,6,0,L|256:92,1,200,0|8,0:0|0:0,0:0:0:0:
328,24,236327,1,0,0:0:0:0:
428,20,236421,1,0,0:0:0:0:
500,88,236514,1,0,0:0:0:0:
492,188,236608,1,8,0:0:0:0:
408,240,236702,1,0,0:0:0:0:
312,216,236796,6,0,B|244:216|229:264|215:312|147:312,1,200,4|8,0:0|0:0,0:0:0:0:
64,256,237077,1,0,0:0:0:0:
44,156,237171,2,0,L|108:76,1,100
253,115,237358,2,0,L|164:160,1,100,8|0,0:0|0:0,0:0:0:0:
271,214,237546,6,0,B|372:216|372:216|448:152,1,200,0|8,0:0|0:0,0:0:0:0:
424,56,237827,1,0,0:0:0:0:
328,24,237921,2,0,L|228:24,1,100
184,168,238108,2,0,L|284:168,1,100,8|0,0:0|0:0,0:0:0:0:
240,312,238296,6,0,B|140:312|140:312|56:252,1,200,0|8,0:0|0:0,0:0:0:0:
44,156,238577,1,0,0:0:0:0:
96,72,238671,2,0,L|192:32,1,100
376,32,238858,2,0,L|416:128,1,100,8|0,0:0|0:0,0:0:0:0:
416,312,239046,2,0,L|320:352,1,100
136,352,239233,2,0,L|96:256,1,100,8|0,0:0|0:0,0:0:0:0:
128,164,239421,5,0,0:0:0:0:
176,144,239483,1,0,0:0:0:0:
228,144,239546,1,0,0:0:0:0:
272,172,239608,1,0,0:0:0:0:
300,216,239671,1,0,0:0:0:0:
304,268,239733,1,0,0:0:0:0:
280,316,239796,6,0,B|180:316|180:316|96:260,1,200,4|8,0:0|0:0,0:0:0:0:
56,168,240077,1,0,0:0:0:0:
92,76,240171,2,0,P|132:44|180:36,1,100
256,192,240358,2,0,P|216:160|168:152,1,100,8|0,0:0|0:0,0:0:0:0:
92,308,240546,6,0,P|180:268|268:308,1,200,0|8,0:0|0:0,0:0:0:0:
356,360,240827,1,0,0:0:0:0:
456,340,240921,1,0,0:0:0:0:
500,252,241014,1,0,0:0:0:0:
476,156,241108,1,8,0:0:0:0:
384,116,241202,1,0,0:0:0:0:
288,140,241296,6,0,B|288:240|288:240|228:320,1,200,0|8,0:0|0:0,0:0:0:0:
128,332,241577,1,0,0:0:0:0:
56,264,241671,2,0,L|20:168,1,100
168,136,241858,2,0,L|204:232,1,100,8|0,0:0|0:0,0:0:0:0:
350,195,242046,6,0,B|315:99|315:99|232:48,1,200,0|8,0:0|0:0,0:0:0:0:
136,84,242327,1,0,0:0:0:0:
112,180,242421,1,0,0:0:0:0:
176,256,242514,1,0,0:0:0:0:
276,264,242608,1,8,0:0:0:0:
350,196,242702,1,0,0:0:0:0:
344,96,242796,6,0,P|428:44|520:72,1,200,4|8,0:0|0:0,0:0:0:0:
508,172,243077,1,0,0:0:0:0:
436,240,243171,2,0,P|388:256|340:248,1,100
208,156,243358,2,0,P|256:144|304:156,1,100,8|0,0:0|0:0,0:0:0:0:
172,248,243546,6,0,P|76:240|28:156,1,200,0|8,0:0|0:0,0:0:0:0:
72,68,243827,1,0,0:0:0:0:
168,40,243921,2,0,L|264:68,1,100
256,200,244108,2,0,L|160:172,1,100,8|0,0:0|0:0,0:0:0:0:
152,304,244296,6,0,B|248:332|248:332|348:308,1,200,0|8,0:0|0:0,0:0:0:0:
408,232,244577,1,0,0:0:0:0:
432,136,244671,2,0,L|372:56,1,100
80,248,244858,2,0,L|140:328,1,100,8|0,0:0|0:0,0:0:0:0:
306,93,245046,2,0,L|207:79,1,100
205,290,245233,2,0,L|304:304,1,100,8|0,0:0|0:0,0:0:0:0:
200,16,245421,2,0,L|120:76,1,100,8|8,0:0|0:0,0:0:0:0:
312,368,245608,2,0,L|392:308,1,100,8|8,0:0|0:0,0:0:0:0:
256,192,245796,5,4,0:0:0:0:
256,192,245889,12,4,251796,0:0:0:0:
