osu file format v13

[General]
AudioFilename: EXS.mp3
AudioLeadIn: 0
PreviewTime: 134421
Countdown: 0
SampleSet: Normal
StackLeniency: 0.7
Mode: 0
LetterboxInBreaks: 0
EpilepsyWarning: 1
WidescreenStoryboard: 1

[Editor]
DistanceSpacing: 1.1
BeatDivisor: 4
GridSize: 4
TimelineZoom: 2.4

[Metadata]
Title:Kuraki Sekai no Doukoku
TitleUnicode:昏き世界の慟哭
Artist:Yousei Teikoku
ArtistUnicode:妖精帝國
Creator:Saten
Version:Insanity
Source:fortissimo EXS//Akkord:nächsten Phase
Tags:Saten-san Opening La'cryma OnosakiHito
BeatmapID:454023
BeatmapSetID:64631

[Difficulty]
HPDrainRate:7
CircleSize:4
OverallDifficulty:8
ApproachRate:9
SliderMultiplier:0.7
SliderTickRate:2

[Events]
//Background and Video events
0,0,"guishen_0988ff_cg_nagisa_07j.jpg",0,0
//Break Periods
//Storyboard Layer 0 (Background)
Sprite,Background,Centre,"guishen_1105ff_cg_nagisa_20a.jpg",320,240 S,0,-204,,0.8404109 F,0,-204,1296,0,1 M,0,-204,13296,320,-29,320,508 F,0,1296,12546,1,0.996 F,0,12546,13296,0.996,0
Sprite,Background,Centre,"guishen_0979ff_cg_nagisa_07a.jpg",320,240 S,0,13296,,0.63 F,0,13296,61296,1
Sprite,Background,Centre,"guishen_0980ff_cg_nagisa_07b.jpg",320,240 S,0,61296,,0.63 F,0,61296,85296,1 F,0,85296,88296,1,0
Sprite,Background,Centre,"guishen_0979ff_cg_nagisa_07a.jpg",320,240 S,0,85296,,0.63 F,0,85296,103296,1 F,0,103296,104796,1,0.2596441
Sprite,Background,Centre,"guishen_0979ff_cg_nagisa_07a.jpg",320,240 S,0,104796,,0.63 F,0,104796,109296,1 F,0,109296,110796,1,0.1913167
Sprite,Background,Centre,"guishen_0979ff_cg_nagisa_07a.jpg",320,240 S,0,110796,,0.63 F,0,110796,116796,1
Sprite,Background,Centre,"guishen_0980ff_cg_nagisa_07b.jpg",320,240 S,0,116796,,0.63 F,0,116796,123546,1
Sprite,Background,Centre,"guishen_0982ff_cg_nagisa_07d.jpg",320,240 S,0,122796,,0.63 F,0,122796,123546,0,1 F,0,123546,134421,1
Sprite,Background,Centre,"guishen_0983ff_cg_nagisa_07e.jpg",320,240 S,0,123546,,0.63 F,0,123546,124296,0 F,0,124296,125046,0,1 F,0,125046,125796,1,0 F,0,125796,126546,0,1 F,0,126546,127296,1,0 F,0,127296,128046,0,1 F,0,128046,128796,1,0 F,0,128796,129546,0,1 F,0,129546,130296,1,0 F,0,130296,131046,0,1 F,0,131046,131796,1,0 F,0,131796,132546,0,1 F,0,132546,133296,1,0 F,0,133296,134046,0,1 F,0,134046,134796,1
Sprite,Background,Centre,"guishen_0985ff_cg_nagisa_07g.jpg",320,240 S,0,134796,,0.63 F,0,134796,158796,1
Sprite,Background,Centre,"guishen_0985ff_cg_nagisa_07g.jpg",320,240 S,0,158796,,0.63 F,0,158796,176796,1
Sprite,Background,Centre,"guishen_0987ff_cg_nagisa_07i.jpg",320,240 S,0,226296,,0.63 F,0,226296,227796,1
Sprite,Background,Centre,"guishen_0987ff_cg_nagisa_07i.jpg",320,240 S,0,199296,,0.63 F,0,199296,202296,1
Sprite,Background,Centre,"guishen_0988ff_cg_nagisa_07j.jpg",320,240 F,0,201921,202296,0,1 S,0,202296,,0.63 F,0,202296,226296,1 F,0,226296,227796,1,0
Sprite,Background,Centre,"guishen_1070ff_cg_nagisa_14b.jpg",320,240 S,0,176796,,0.7562466 F,0,176796,187296,1 M,0,176796,188796,402,240,235,240 F,0,187296,188796,1,0
//Storyboard Layer 1 (Fail)
//Storyboard Layer 2 (Pass)
//Storyboard Layer 3 (Foreground)
Sprite,Foreground,Centre,"guishen_0980ff_cg_nagisa_07b.jpg",320,240 S,0,13296,,0.63 F,0,13296,14796,1,0.001333356
Sprite,Foreground,Centre,"guishen_0980ff_cg_nagisa_07b.jpg",320,240 S,0,31296,,0.63 F,0,31296,32796,1,0
Sprite,Foreground,Centre,"guishen_0980ff_cg_nagisa_07b.jpg",320,240 S,0,37296,,0.63 F,0,37296,38796,1,0
Sprite,Foreground,Centre,"guishen_0980ff_cg_nagisa_07b.jpg",320,240 S,0,43296,,0.63 F,0,43296,44796,1,0 F,0,44796,46296,0 F,0,46296,47796,1,0 F,0,47796,49296,0 F,0,49296,50046,0,1 F,0,50046,50796,1,0 F,0,50796,51546,0,1 F,0,51546,52296,1,0 F,0,52296,53046,0,1 F,0,53046,53796,1,0 F,0,53796,54546,0,1 F,0,54546,55296,1,0 F,0,55296,56046,0,1 F,0,56046,56796,1,0 F,0,56796,57546,0,1 F,0,57546,58296,1,0 F,0,58296,59046,0,1 F,0,59046,,1 F,0,59046,60921,1,0 F,0,60921,61296,0,1
Sprite,Foreground,Centre,"guishen_0981ff_cg_nagisa_07c.jpg",320,240 S,0,61296,,0.63 F,0,61296,62796,1,0 F,0,62796,64296,1,0 F,0,64296,65796,1,0 F,0,65796,67296,1,0 F,0,67296,68796,1,0 F,0,68796,70296,1,0 F,0,70296,71796,1,0 F,0,71796,73296,1,0 F,0,71796,73296,1,0 F,0,73296,74796,1,0 F,0,76296,77796,1,0 F,0,77796,79296,1,0 F,0,79296,80796,1,0 F,0,80796,82296,1,0 F,0,82296,83796,1,0 F,0,83796,85296,1,0 F,0,85296,86796,1,0
Sprite,Foreground,Centre,"guishen_0979ff_cg_nagisa_07a.jpg",320,240 S,0,74796,,0.63 F,0,74796,76296,0,1
Sprite,Foreground,Centre,"guishen_0981ff_cg_nagisa_07c.jpg",320,240 S,0,91296,,0.63 F,0,91296,92796,1,0
Sprite,Foreground,Centre,"guishen_0981ff_cg_nagisa_07c.jpg",320,240 S,0,104796,,0.63 F,0,104796,106296,1,0
Sprite,Foreground,Centre,"guishen_0980ff_cg_nagisa_07b.jpg",320,240 S,0,107796,,0.63 F,0,107796,109296,1,0
Sprite,Foreground,Centre,"guishen_0984ff_cg_nagisa_07f.jpg",320,240 S,0,134421,,0.63 F,0,134421,134796,0,1
Sprite,Foreground,Centre,"guishen_0981ff_cg_nagisa_07c.jpg",320,240 S,0,116796,,0.63 F,0,116796,118296,1,0 F,0,119796,121296,1,0
Sprite,Foreground,Centre,"guishen_0981ff_cg_nagisa_07c.jpg",320,240 S,0,110796,,0.63 F,0,110796,112296,1,0
Sprite,Foreground,Centre,"guishen_0986ff_cg_nagisa_07h.jpg",320,240 S,0,134796,,0.63 F,0,134796,136296,1,0 F,0,136296,137796,1,0 F,0,137796,139296,1,0 F,0,139296,140796,1,0 F,0,140796,142296,1,0 F,0,142296,143796,1,0 F,0,143796,145296,1,0 F,0,145296,146796,1,0 F,0,146796,148296,1,0 F,0,149796,151296,1,0 F,0,151296,152796,1,0 F,0,152796,154296,1,0 F,0,154296,155796,1,0 F,0,155796,157296,1,0 F,0,157296,158796,1,0 F,0,158796,160296,1,0
Sprite,Foreground,Centre,"guishen_0980ff_cg_nagisa_07b.jpg",320,240 S,0,148296,,0.63 F,0,148296,149796,0,1
Sprite,Foreground,Centre,"guishen_0986ff_cg_nagisa_07h.jpg",320,240 S,0,164796,,0.63 F,0,164796,166296,1,0
Sprite,Foreground,Centre,"guishen_1110ff_cg_nagisa_22a.jpg",320,240 F,0,188796,188803,0 F,0,188803,190296,0,1 S,0,190296,,0.63 F,0,190296,199296,1 F,0,199296,200796,1,0 F,0,200796,200804,0
Sprite,Foreground,Centre,"guishen_1071ff_cg_nagisa_14c.jpg",320,240 S,0,176796,,0.7562465 F,0,176796,178296,1,0 M,0,176796,188796,403,239,234,240 F,0,182796,184296,1,0 F,0,184296,185796,0 F,0,185796,187296,1,0 F,0,187296,188796,1,0
Sprite,Foreground,Centre,"guishen_1111ff_cg_nagisa_22b.jpg",320,240 S,0,190296,,0.63 F,0,190296,191796,0.7,0 F,0,193296,194796,0.7,0 F,0,196296,197796,0.7,0
Sprite,Foreground,Centre,"guishen_1112ff_cg_nagisa_22c.jpg",320,240 S,0,192921,,0.63 F,0,192921,193671,0.7,0 F,0,195921,196671,0.7,0 F,0,198921,199671,0.7,0
Sprite,Foreground,Centre,"guishen_0992ff_cg_nagisa_07n.jpg",320,240 S,0,199296,,0.63 F,0,199296,200796,0.7,0
Sprite,Foreground,Centre,"guishen_0989ff_cg_nagisa_07k.jpg",320,240 S,0,202296,,0.63 F,0,202296,203796,1,0 F,0,203796,205296,1,0 F,0,205296,206796,1,0 F,0,206796,208296,1,0 F,0,208296,209796,1,0 F,0,209796,211296,1,0 F,0,211296,212796,1,0 F,0,212796,214296,1,0 F,0,214296,215796,1,0 F,0,217296,218796,1,0 F,0,218796,220296,1,0 F,0,220296,221796,1,0 F,0,221796,223296,1,0 F,0,223296,224796,1,0 F,0,224796,226296,1,0
Sprite,Foreground,Centre,"guishen_0987ff_cg_nagisa_07i.jpg",320,240 S,0,215796,,0.63 F,0,215796,217296,0,1
Sprite,Foreground,Centre,"guishen_0999ff_cg_nagisa_08d.jpg",320,240 S,0,227796,,0.63 F,0,227796,229296,1
Sprite,Foreground,Centre,"guishen_0997ff_cg_nagisa_08b.jpg",320,240 S,0,227796,,0.63 F,0,227796,229296,1,0
Sprite,Foreground,Centre,"guishen_0995ff_cg_nagisa_07q.jpg",320,240 S,0,229296,,0.63 F,0,229296,230796,1
Sprite,Foreground,Centre,"guishen_0992ff_cg_nagisa_07n.jpg",320,240 S,0,229296,,0.63 F,0,229296,230796,1,0
Sprite,Foreground,Centre,"guishen_1074ff_cg_nagisa_15c.jpg",320,240 S,0,230796,,0.63 F,0,230796,232296,1
Sprite,Foreground,Centre,"guishen_1075ff_cg_nagisa_15d.jpg",320,240 S,0,230796,,0.63 F,0,230796,232296,1,0
Sprite,Foreground,Centre,"guishen_0965ff_cg_nagisa_06m.jpg",320,240 S,0,232296,,0.63 F,0,232296,233796,1
Sprite,Foreground,Centre,"guishen_0969ff_cg_nagisa_06r.jpg",320,240 S,0,232296,,0.63 F,0,232296,233796,1,0
Sprite,Foreground,Centre,"guishen_1076ff_cg_nagisa_16a.jpg",320,240 S,0,233796,,0.8405 M,0,233796,245796,320,-46,320,524 F,0,233796,245796,1 F,0,245796,248796,1 F,0,248796,251796,1,0.3074733
Sprite,Foreground,Centre,"guishen_1077ff_cg_nagisa_16b.jpg",320,240 S,0,233796,,0.8405 F,0,233796,235296,1,0 M,0,233796,245796,320,-46,320,524 F,0,239796,241296,1,0 F,0,245796,247296,1,0 F,0,251796,256296,1,0
Sprite,Foreground,Centre,"guishen_0981ff_cg_nagisa_07c.jpg",320,240 S,0,97296,,0.63 F,0,97296,98796,1,0
Sprite,Foreground,Centre,"guishen_0986ff_cg_nagisa_07h.jpg",320,240 S,0,170796,,0.63 F,0,170796,172296,1,0
Sprite,Foreground,Centre,"white 1610.jpg",320,240 F,0,1296,2796,0.8462633,0 F,0,7296,8796,0.7916015,0 S,0,13296,,2.69895 F,0,13296,14796,0.870178,0 F,0,19296,20796,0.7164412,0 F,0,25296,26796,0.6241992,0 F,0,26796,28296,0.7301067,0 F,0,28296,29046,0.658363,0 F,0,29046,29796,0.6002846,0 F,0,29796,30546,0.6959431,0 F,0,31296,32796,0.7232741,0 F,0,37296,38796,0.6412811,0 F,0,43296,44796,0.6378648,0 F,0,46296,47796,0.5182918,0 F,0,51921,52296,0.4232706,0 F,0,52296,53046,0.555872,0 F,0,54921,55296,0.4431317,0 F,0,55296,56046,0.4977936,0 F,0,57921,58296,0.3098932,0 F,0,58296,59046,0.5524556,0 F,0,61296,62796,0.7540214,0 F,0,73296,74796,0.7130249,0 F,0,76296,77796,0.7574376,0 F,0,85296,86796,0.7471886,0 F,0,86796,88296,0.8018506,0 F,0,88296,89796,0.7676868,0 F,0,89796,91296,0.7779361,0 F,0,91296,92796,0.7813523,0 F,0,97296,98796,0.7471886,0 F,0,104796,106296,0.7676868,0 F,0,107796,109296,0.566121,0 F,0,110796,112296,0.7437723,0 F,0,116796,118296,0.7198577,0 F,0,119796,121296,0.7779359,0 F,0,125421,125796,0.5046263,0 F,0,125796,126546,0.7130249,0 F,0,128421,128796,0.5866193,0 F,0,128796,129546,0.6276157,0 F,0,131421,131796,0.5524556,0 F,0,131796,132546,0.7061922,0 F,0,134796,136296,0.7881851,0 F,0,146796,148296,0.6925267,0 F,0,149796,151296,0.6891102,0 F,0,158796,160296,0.7198576,0 F,0,160296,161796,0.798434,0 F,0,161796,163296,0.8565124,0 F,0,163296,164796,0.8360143,0 F,0,164796,166296,0.777936,0 F,0,170796,172296,0.8325979,0 F,0,176796,178296,0.8496797,0 F,0,182796,184296,0.7369395,0 F,0,185796,187296,0.7711032,0 F,0,187296,188796,0.8565124,0 F,0,190296,191796,0.7096086,0 F,0,192921,193296,0.5900357,0 F,0,193296,194796,0.7574378,0 F,0,195921,196296,0.4875446,0 F,0,196296,197796,0.7608539,0 F,0,198921,199296,0.5251245,0 F,0,199296,200796,0.6651957,0 F,0,202296,203796,0.8496796,0 F,0,214296,215796,0.8086833,0 F,0,217296,218796,0.8120996,0 F,0,227796,229296,0.8257651,0 F,0,229296,230796,0.8701779,0 F,0,230796,232296,0.8428469,0 F,0,232296,233796,0.8428469,0 F,0,233796,235296,0.8120997,0 F,0,239796,241296,0.8940924,0 F,0,245796,247296,0.8530961,0
//Storyboard Sound Samples
//Background Colour Transformations
3,100,0,0,0

[TimingPoints]
1296,187.5,4,2,1,50,1,0
13296,-50,4,1,1,60,0,0
25296,-76.9230769230769,4,2,1,50,0,0
28296,-71.4285714285714,4,2,1,50,0,0
29046,-66.6666666666667,4,2,1,50,0,0
29796,-62.5,4,2,1,50,0,0
30171,-58.8235294117647,4,2,1,50,0,0
30546,-55.5555555555556,4,2,1,50,0,0
30733,-52.6315789473684,4,1,1,50,0,0
31296,-50,4,1,1,60,0,0
43296,-100,4,1,1,90,0,0
43483,-100,4,1,1,50,0,0
46296,-100,4,1,1,90,0,0
46483,-100,4,1,1,50,0,0
49296,-100,4,1,1,30,0,0
49483,-100,4,1,1,50,0,0
60921,-66.6666666666667,4,1,1,70,0,0
61108,-50,4,1,1,50,0,0
61296,-50,4,1,1,60,0,1
74796,-100,4,1,1,60,0,0
76108,-66.6666666666667,4,1,1,60,0,0
76296,-50,4,1,1,60,0,1
85296,-66.6666666666667,4,1,1,60,0,0
91296,-50,4,1,1,60,0,0
103296,-200,4,2,1,40,0,0
104796,-100,4,2,1,70,0,0
110046,-66.6666666666667,4,1,1,70,0,0
110796,-50,4,1,1,70,0,0
116796,-100,4,1,1,90,0,0
116983,-100,4,1,1,50,0,0
119796,-100,4,1,1,90,0,0
119983,-100,4,1,1,50,0,0
122796,-100,4,1,1,30,0,0
122983,-100,4,1,1,50,0,0
134421,-66.6666666666667,4,1,1,70,0,0
134608,-66.6666666666667,4,1,1,50,0,0
134796,-50,4,1,1,60,0,1
148296,-100,4,1,1,60,0,0
149608,-66.6666666666667,4,1,1,60,0,0
149796,-50,4,1,1,60,0,1
158796,-66.6666666666667,4,1,1,60,0,0
164421,-66.6666666666667,4,1,1,40,0,0
164796,-50,4,1,1,60,0,0
176421,-50,4,1,1,30,0,0
176796,-50,4,1,1,60,0,0
188796,-166.666666666667,4,2,1,60,0,0
190296,-100,4,2,1,60,0,0
193296,-90.9090909090909,4,2,1,60,0,0
196296,-83.3333333333333,4,2,1,60,0,0
199296,-76.9230769230769,4,2,1,60,0,0
200796,-71.4285714285714,4,2,1,60,0,0
201921,-66.6666666666667,4,1,1,60,0,0
202296,-50,4,1,1,60,0,1
215796,-100,4,1,1,60,0,0
217108,-66.6666666666667,4,1,1,60,0,0
217296,-50,4,1,1,60,0,1
226296,-100,4,2,1,20,0,0
227608,-100,4,2,1,30,0,0
227796,-100,4,1,1,60,0,0
233796,-50,4,1,1,60,0,0
245796,-200,4,2,1,50,0,0
245983,-200,4,2,1,40,0,0
251796,-200,4,2,1,50,0,0
251889,-200,4,2,1,5,0,0

[Colours]
Combo1 : 255,255,45
Combo2 : 255,159,64
Combo3 : 83,169,255
Combo4 : 255,83,255

[HitObjects]
256,192,13296,6,0,P|184:188|132:148,1,140,4|8,0:0|0:0,0:0:0:0:
216,36,13671,1,0,0:0:0:0:
256,36,13764,1,0,0:0:0:0:
300,36,13858,1,8,0:0:0:0:
408,124,14046,2,0,P|436:186|416:251,1,140,0|8,0:0|0:0,0:0:0:0:
357,203,14327,2,0,P|280:200|230:235,1,140
216,313,14608,2,0,P|157:277|136:210,1,140,8|0,0:0|0:0,0:0:0:0:
160,72,14983,5,8,0:0:0:0:
256,172,15171,2,0,L|256:244,2,70,0|0|8,0:0|0:0|0:0,0:0:0:0:
352,72,15546,1,0,0:0:0:0:
428,192,15733,1,8,0:0:0:0:
428,192,15827,2,0,P|408:264|364:312,1,140
364,311,16108,2,0,L|256:224,1,140,8|4,0:0|0:0,0:0:0:0:
256,84,16483,5,8,0:0:0:0:
124,40,16671,1,0,0:0:0:0:
100,76,16764,1,0,0:0:0:0:
76,112,16858,1,8,0:0:0:0:
84,252,17046,2,0,P|152:268|220:248,1,140,0|8,0:0|0:0,0:0:0:0:
256,180,17327,2,0,P|332:188|376:232,1,140
408,300,17608,2,0,P|452:244|456:176,1,140,8|0,0:0|0:0,0:0:0:0:
380,60,17983,5,8,0:0:0:0:
256,128,18171,1,0,0:0:0:0:
380,192,18358,1,8,0:0:0:0:
256,256,18546,1,0,0:0:0:0:
132,192,18733,1,8,0:0:0:0:
256,128,18921,1,0,0:0:0:0:
296,116,19014,1,0,0:0:0:0:
340,112,19108,1,8,0:0:0:0:
384,116,19202,1,0,0:0:0:0:
424,132,19296,6,0,P|448:200|432:264,1,140,4|8,0:0|0:0,0:0:0:0:
256,192,19671,1,0,0:0:0:0:
256,192,19764,1,0,0:0:0:0:
256,192,19858,1,8,0:0:0:0:
88,132,20046,6,0,P|64:200|80:264,1,140,0|8,0:0|0:0,0:0:0:0:
152,236,20327,2,0,P|216:260|256:316,1,140
332,332,20608,2,0,P|360:264|340:204,1,140,8|0,0:0|0:0,0:0:0:0:
172,180,20983,5,8,0:0:0:0:
339,156,21171,1,0,0:0:0:0:
173,131,21358,1,8,0:0:0:0:
340,107,21546,2,0,P|404:131|437:191,1,140,0|8,0:0|0:0,0:0:0:0:
392,256,21827,2,0,P|416:320|476:353,1,140,0|8,0:0|0:0,0:0:0:0:
512,284,22108,6,0,L|512:144,1,140,8|4,0:0|0:0,0:0:0:0:
376,184,22483,1,8,0:0:0:0:
256,112,22671,1,0,0:0:0:0:
264,80,22764,1,0,0:0:0:0:
292,56,22858,1,8,0:0:0:0:
328,52,22952,1,0,0:0:0:0:
360,68,23046,2,0,P|352:140|312:192,1,140,0|8,0:0|0:0,0:0:0:0:
156,192,23421,1,0,0:0:0:0:
36,96,23608,5,8,0:0:0:0:
48,64,23702,1,0,0:0:0:0:
76,44,23796,2,0,P|144:72|208:60,1,140,0|8,0:0|0:0,0:0:0:0:
436,44,24171,2,0,P|368:72|304:60,1,140,0|8,0:0|0:0,0:0:0:0:
256,192,24546,5,0,0:0:0:0:
348,296,24733,1,8,0:0:0:0:
472,232,24921,1,0,0:0:0:0:
472,196,25014,1,0,0:0:0:0:
472,160,25108,1,0,0:0:0:0:
468,124,25202,1,0,0:0:0:0:
464,90,25296,2,4,B|387:-50|229:0|163:148|256:192|348:235|282:383|124:434|47:293,2,727.999966674806
256,192,29046,5,4,0:0:0:0:
256,196,29796,5,4,0:0:0:0:
256,200,30171,1,4,0:0:0:0:
256,204,30546,1,4,0:0:0:0:
256,208,30733,5,0,1:0:0:0:
256,212,30827,1,0,1:0:0:0:
256,216,30921,1,0,1:0:0:0:
256,220,31014,1,0,1:0:0:0:
256,224,31108,1,0,1:0:0:0:
256,228,31202,1,0,1:0:0:0:
256,232,31296,6,0,P|328:208|368:160,1,140,4|8,0:0|0:0,0:0:0:0:
216,140,31671,2,0,P|148:100|128:44,1,140,0|8,0:0|0:0,0:0:0:0:
284,36,32046,2,0,L|424:36,1,140,0|8,0:0|0:0,0:0:0:0:
