osu file format v9

[General]
AudioFilename: 03 - Kokou no Sousei.mp3
AudioLeadIn: 1000
PreviewTime: 116144
Countdown: 0
SampleSet: Soft
StackLeniency: 0.4
Mode: 0
LetterboxInBreaks: 1

[Editor]
Bookmarks: 16644,32644,56644,80644,88644,100644,132644,148644,164644,180644,192644,200644,208644,216644,224644,230394,240644,244519,248644,258644,266644,274644,290644,298644,306519
DistanceSpacing: 0.5
BeatDivisor: 4
GridSize: 4

[Metadata]
Title:Kokou no Sousei
Artist:Yousei Teikoku
Creator:Saten-san
Version:Chaos
Source:
Tags:Gothic lolita Propaganda Teras Medi-chan OnosakiHito

[Difficulty]
HPDrainRate:7
CircleSize:4
OverallDifficulty:7
ApproachRate:9
SliderMultiplier:2
SliderTickRate:2

[Events]
//Background and Video events
0,0,"BG_01.jpg"
//Break Periods
2,136857,148057
2,188857,192057
//Storyboard Layer 0 (Background)
Sprite,Background,Centre,"BG_02.jpg",320,240 S,0,240657,,0.8086832 F,0,240657,258657,1
Sprite,Background,Centre,"Black.jpg",320,240 F,0,240407,240657,0,1 S,0,240407,248657,2.011245 F,0,240657,241657,1,0.9248399 F,0,240657,241657,1,0.9282563 F,0,241657,242657,0.9248399,1 F,0,242657,243657,1,0.897509 F,0,243657,244657,0.897509,1 F,0,244657,245657,1,0.8291814 F,0,245657,246657,0.8291814,1 F,0,246657,247657,1,0.7676868 F,0,247657,248657,0.7676868,1
Sprite,Background,Centre,"Black.jpg",320,240 M,0,100657,,320,240 S,0,100657,,2.024911 F,0,100657,102657,0,0.5729536 F,0,102657,104657,0.5729536,0 F,0,104657,106657,0,0.7834947 F,0,106657,108657,0.7834947,0 F,0,108657,110657,0,0.8986146 F,0,110657,112657,0.8986146,0 F,0,112657,,0 F,0,112657,114657,0,0.5192883 F,0,114657,116657,0.5192883,1
Sprite,Background,Centre,"Black.jpg",320,240 S,0,192657,,2.031744 F,0,192657,194657,0,0.5251245 F,0,194657,196657,0.5251245,0 F,0,196657,198657,0,0.830178 F,0,198657,200657,0.830178,0 F,0,200657,202657,0,0.9300829 F,0,202657,204657,0.9300829,0 F,0,204657,206657,0,0.6149466 F,0,206657,208657,0.6149466,1
Sprite,Background,Centre,"Black.jpg",320,240 S,0,206657,,2.018078 F,0,206657,208657,0,1
Sprite,Background,Centre,"Black.jpg",320,240 S,0,256657,,2.024911 F,0,256657,258657,0,1
Sprite,Background,Centre,"scroll 1.jpg",320,240 M,0,116157,,320,111 S,0,116157,,1.07516 M,0,116157,116657,320,111,320,449 F,0,116157,116657,0,0.194733
Sprite,Background,Centre,"scroll 2.png",320,240 S,0,208157,,1.07516 M,0,208157,208657,320,26,320,449 F,0,208157,208657,0,0.194733
Sprite,Background,Centre,"scroll 3.jpg",320,240 S,0,258157,,1.081993 M,0,258157,258657,320,24,320,455 F,0,258157,258657,0,0.194733
Sprite,Background,Centre,"White.jpg",320,240 M,0,116657,,320,240 S,0,116657,,2.004413 F,0,116657,116907,0.5422063,0 M,0,124657,,320,240 S,0,124657,,2.018078 F,0,124657,124907,0.6446975,0 S,0,208657,,2.018079 F,0,208657,208907,0.593452,0 M,0,216657,,320,240 S,0,216657,,2.018079 F,0,216657,216907,0.6617793,0 S,0,248657,,2.045409 F,0,248657,248907,0.5729539,0 M,0,258657,,320,240 S,0,258657,,2.031744 F,0,258657,258907,0.6822776,0 M,0,266657,,320,240 S,0,266657,,1.99758 F,0,266657,266907,0.6241992,0
//Storyboard Layer 1 (Fail)
//Storyboard Layer 2 (Pass)
//Storyboard Layer 3 (Foreground)
//Storyboard Sound Samples
//Background Colour Transformations
3,100,0,0,0

[TimingPoints]
657,250,4,2,1,80,1,0
15657,-76.9230769230769,4,2,1,80,0,0
16657,-76.9230769230769,4,2,1,100,0,0
32657,-100,4,2,1,100,0,0
48157,-76.9230769230769,4,2,1,60,0,0
48657,-76.9230769230769,4,2,1,100,0,0
56657,-100,4,2,1,80,0,0
72657,-133.333333333333,4,2,1,80,0,0
76657,-76.9230769230769,4,2,1,100,0,0
80657,-133.333333333333,4,2,1,80,0,0
84657,-76.9230769230769,4,2,1,100,0,0
100657,-100,4,2,1,80,0,0
116157,-50,4,2,1,60,0,0
116657,-76.9230769230769,4,2,1,100,0,1
132657,-76.9230769230769,4,2,1,50,0,0
148657,-100,4,2,1,80,0,0
164657,-133.333333333333,4,2,1,80,0,0
168657,-76.9230769230769,4,2,1,100,0,0
172657,-133.333333333333,4,2,1,80,0,0
176657,-76.9230769230769,4,2,1,100,0,0
192657,-100,4,2,1,80,0,0
208157,-50,4,2,1,50,0,0
208657,-76.9230769230769,4,2,1,100,0,1
216407,-76.9230769230769,4,2,1,60,0,1
216657,-76.9230769230769,4,2,1,100,0,1
224657,-76.9230769230769,4,2,1,50,0,1
226157,-76.9230769230769,4,2,1,80,0,0
240657,-100,4,2,2,50,0,1
240657,-100,4,2,1,80,0,1
241094,-100,4,2,2,80,0,1
241219,-100,4,2,1,50,0,1
242094,-100,4,2,2,80,0,1
242219,-100,4,2,1,50,0,1
243094,-100,4,2,2,80,0,1
243219,-100,4,2,1,50,0,1
244094,-100,4,2,2,80,0,1
244219,-100,4,2,1,50,0,1
245094,-100,4,2,2,60,0,1
245219,-100,4,2,1,50,0,1
246094,-100,4,2,2,60,0,1
246219,-100,4,2,1,50,0,1
247094,-100,4,2,2,50,0,1
247219,-100,4,2,1,50,0,1
248625,-100,4,2,1,80,0,0
248657,-100,4,2,2,80,0,1
249094,-100,4,2,2,100,0,1
249219,-100,4,2,2,80,0,1
250094,-100,4,2,2,100,0,1
250219,-100,4,2,2,80,0,1
251094,-100,4,2,2,100,0,1
251219,-100,4,2,2,80,0,1
252094,-100,4,2,2,100,0,1
252219,-100,4,2,2,80,0,1
253094,-100,4,2,2,100,0,1
253219,-100,4,2,2,80,0,1
254094,-100,4,2,2,100,0,1
254219,-100,4,2,2,80,0,1
255094,-100,4,2,2,100,0,1
255219,-100,4,2,2,80,0,1
256094,-100,4,2,2,100,0,1
256219,-100,4,2,2,80,0,1
256657,-133.333333333333,4,2,1,80,0,0
258157,-50,4,2,1,80,0,0
258657,-76.9230769230769,4,2,1,100,0,1
272657,-76.9230769230769,4,2,2,100,0,1
274657,-76.9230769230769,4,2,1,50,0,0
276532,-76.9230769230769,4,2,1,80,0,0
280907,-76.9230769230769,4,2,1,100,0,0
290657,-133.333333333333,4,2,1,80,0,0
290907,-133.333333333333,4,2,2,80,0,0
298594,-133.333333333333,4,2,2,80,0,0

[Colours]
Combo1 : 166,0,83
Combo2 : 100,255,100
Combo3 : 85,170,170
Combo4 : 157,60,255

[HitObjects]
256,340,657,2,0,B|156:296|132:192,1,200,12|2
196,112,1032,1,0
256,192,1157,2,0,B|292:152|300:104,1,100,0|2
364,180,1407,2,0,B|352:232|308:264,1,100,0|2
408,288,1657,6,0,B|484:212|464:96,1,200,8|2
384,44,2032,1,0
296,92,2157,2,0,B|220:156,1,100,0|2
220,56,2407,2,0,B|120:64,1,100,0|2
40,120,2657,6,0,B|36:228|112:300,1,200,8|2
208,324,3032,1,0
188,228,3157,1,0
276,276,3282,1,2
256,180,3407,1,0
344,228,3532,1,2
324,132,3657,6,0,B|432:132|492:224,1,200,8|2
420,292,4032,1,0
336,344,4157,2,0,B|220:328|188:228,1,200,8|8
492,24,4657,6,0,B|492:224,1,200,12|2
420,292,5032,1,0
344,228,5157,1,0
268,292,5282,1,2
192,228,5407,1,0
116,292,5532,1,2
40,228,5657,6,0,B|56:120|140:60,1,200,8|2
240,56,6032,2,0,B|328:104,2,100,0|0|2
172,128,6407,1,0
192,228,6532,1,2
268,292,6657,6,0,B|324:204|328:104,1,200,8|2
240,56,7032,1,0
140,60,7157,1,0
72,132,7282,1,2
40,228,7407,1,0
76,320,7532,1,2
176,331,7657,6,0,B|288:312|322:211,1,200,8|2
256,136,8032,1,0
189,211,8157,2,0,B|224:312|336:332,1,200,8|8
256,32,8657,6,0,B|156:32|156:32|68:76,1,200,12|2
96,172,9032,1,0
172,104,9157,1,0
156,204,9282,1,2
232,136,9407,1,0
216,236,9532,1,2
292,168,9657,6,0,B|356:248|336:360,1,200,8|2
236,352,10032,1,0
148,308,10157,2,0,B|216:236,1,100,0|2
116,240,10407,2,0,B|184:168,1,100,0|2
256,96,10657,6,0,B|168:36|60:44,1,200,8|2
4,120,11032,1,0
100,144,11157,1,0
12,188,11282,1,2
108,212,11407,1,0
20,256,11532,1,2
116,280,11657,6,0,B|232:272|255:160,1,200,8|2
256,60,12032,1,0
256,160,12157,2,0,B|280:272|396:280,1,200,8|8
512,20,12657,6,0,B|312:20,1,200,12|2
344,116,13032,1,0
256,160,13157,1,0
168,116,13282,1,2
256,60,13407,1,0
256,160,13532,1,2
200,244,13657,6,0,B|104:192|92:84,1,200,8|2
184,48,14032,1,0
328,48,14157,1,0
168,116,14282,1,2
344,116,14407,1,0
256,160,14532,1,2
312,244,14657,6,0,B|408:192|420:84,1,200,8|2
328,48,15032,1,0
236,92,15157,1,0
192,180,15282,1,2
212,276,15407,1,0
292,336,15532,1,2
392,296,15657,6,8,B|496:212,1,129.999997675419,8|8
364,228,15907,2,8,B|428:116,1,129.999997675419
312,176,16157,2,8,B|328:48,1,129.999997675419
244,148,16407,2,8,B|192:28,1,129.999997675419
60,48,16657,6,0,B|16:104|20:172,1,129.999997675419,6|0
452,336,16907,2,0,B|496:280|492:212,1,129.999997675419,10|0
128,68,17157,2,0,B|84:124|88:192,1,129.999997675419,0|2
384,316,17407,2,0,B|428:260|424:192,1,129.999997675419,8|2
320,120,17657,5,0
192,120,17782,1,0
320,192,17907,1,10
192,192,18032,1,0
320,264,18157,1,0
192,264,18282,1,0
256,376,18407,6,0,B|256:112,1,259.999995350838,10|0
160,28,18782,1,0
132,156,18907,1,10
128,284,19032,1,0
256,304,19157,6,0,B|392:292,1,129.999997675419,0|2
256,80,19407,2,0,B|120:92,1,129.999997675419,8|2
304,364,19657,2,0,B|440:352,1,129.999997675419
208,20,19907,2,0,B|72:32,1,129.999997675419,10|0
132,156,20157,6,0,B|216:208|296:176|380:228,2,259.999995350838,0|10|0
24,88,20782,1,0
152,84,20907,1,10
44,156,21032,1,0
88,32,21157,6,0,B|216:12,1,129.999997675419,0|2
424,32,21407,2,0,B|296:12,1,129.999997675419,8|2
216,112,21657,2,0,B|184:168|184:168|128:204,1,129.999997675419
296,112,21907,2,0,B|328:168|328:168|384:204,1,129.999997675419,10|0
208,256,22157,2,0,B|148:288|76:284,1,129.999997675419
304,256,22407,2,0,B|364:288|436:284,1,129.999997675419,10|0
496,172,22657,5,0
388,96,22782,1,0
440,216,22907,1,10
332,140,23032,1,0
180,140,23157,1,0
72,216,23282,1,2
124,96,23407,1,8
16,172,23532,1,2
48,300,23657,6,0,B|104:340|172:328,1,129.999997675419
464,300,23907,2,0,B|408:340|340:328,1,129.999997675419,10|0
256,228,24157,1,2
256,188,24219,1,2
256,148,24282,1,2
256,108,24344,1,2
256,68,24407,6,0,B|392:24|500:116,2,259.999995350838,10|0|10
168,164,25032,1,0
188,292,25157,2,0,B|238:334|238:334|299:364,1,129.999997675419,0|2
192,292,25407,2,0,B|257:302|257:302|324:296,1,129.999997675419,8|2
196,284,25657,2,0,B|258:262|258:262|315:225,1,129.999997675419
200,280,25907,2,0,B|242:229|242:229|271:168,1,129.999997675419,10|0
204,276,26157,2,0,B|210:210|210:210|200:142,1,129.999997675419
208,272,26407,2,0,B|176:213|176:213|131:163,1,129.999997675419,10|0
76,92,26657,5,0
192,32,26782,1,0
320,32,26907,1,10
436,92,27032,1,0
436,220,27157,5,0
320,280,27282,1,2
192,280,27407,1,8
76,220,27532,1,2
192,280,27657,6,0,B|132:308|132:308|68:308,1,129.999997675419
320,280,27907,2,0,B|380:308|380:308|444:308,1,129.999997675419,10|0
256,224,28157,1,2
256,184,28219,1,2
256,144,28282,1,2
256,104,28344,1,2
256,64,28407,6,0,B|116:36|12:124,2,259.999995350838,8|0|10
344,164,29032,1,0
324,292,29157,2,0,B|424:212,1,129.999997675419,0|2
188,292,29407,2,0,B|88:212,1,129.999997675419,8|2
344,164,29657,2,0,B|424:64,1,129.999997675419
168,164,29907,2,0,B|84:60,1,129.999997675419,10|0
300,96,30157,2,0,B|424:64,1,129.999997675419
212,96,30407,2,0,B|88:64,1,129.999997675419,10|0
60,192,30657,5,0
184,228,30782,1,0
56,256,30907,1,10
180,292,31032,1,0
332,292,31157,5,0
456,256,31282,1,2
328,228,31407,1,8
452,192,31532,1,2
212,96,31657,6,0,B|160:56|88:60,1,129.999997675419
300,96,31907,2,0,B|352:56|424:60,1,129.999997675419,10|0
256,192,32157,1,2
256,232,32219,1,2
256,272,32282,1,2
256,312,32344,1,2
256,352,32407,1,10
256,192,32532,1,0
255,31,32657,6,0,B|152:16|76:99,1,200,4|0
132,192,33032,1,0
76,284,33157,2,0,B|152:368|255:352,1,200,8|0
324,268,33532,1,0
188,268,33657,1,0
504,192,33907,1,0
8,192,34157,2,0,B|52:92|164:76,1,200,8|0
503,191,34657,6,0,B|460:92|351:76,1,200
256,132,35032,1,0
160,76,35157,2,0,B|52:92|8:191,1,200,8|0
108,236,35532,1,0
176,152,35657,1,0
256,356,35907,1,0
256,28,36157,1,8
256,132,36282,1,0
492,364,36657,6,0,B|524:260|472:168,1,200
392,244,37032,1,0
300,304,37157,2,0,B|268:200|320:108,1,200,8|0
420,72,37532,1,0
472,168,37657,2,0,B|396:244|288:204,1,200
40,168,38157,2,0,B|116:244|224:204,1,200,8|0
500,32,38657,6,0,B|404:8|300:24,1,200
232,108,39032,1,0
288,204,39157,2,0,B|204:260|96:260,1,200,8|0
40,168,39532,1,0
80,64,39657,1,0
432,64,39907,1,0
100,260,40157,1,8
100,260,40282,2,0,B|128:360|288:376|344:284,1,300,0|4
160,208,40907,5,0
352,176,41157,2,0,B|344:60|236:4|132:60,1,300,8|0
100,152,41657,1,0
412,232,41907,1,0
256,108,42157,6,0,B|276:216|224:308|108:332,1,300,8|0
64,240,42657,2,0,B|140:52,1,200
256,108,43157,2,0,B|236:216|288:308|404:332,1,300,8|0
448,240,43657,2,0,B|372:52,1,200
256,220,44157,2,0,B|256:320,1,100,8|0
72,36,44657,5,0
440,36,44907,1,0
48,120,45157,2,0,B|40:228|128:296,1,200,8|0
392,156,45657,1,0
120,156,45907,1,0
464,120,46157,2,0,B|472:228|384:296,1,200,8|0
90,20,46657,6,0,B|200:32|256:120,2,200,0|0|8
421,363,47408,2,0,B|312:352|256:264,2,200
256,192,48157,6,0,B|256:160,15,32.4999994188547,0|0|0|0|0|0|0|0|0|0|0|0|0|0|0|0
260,192,48657,6,0,B|324:208|388:192,1,129.999997675419,4|0
252,192,48907,2,0,B|188:208|124:192,1,129.999997675419,10|0
100,64,49157,1,0
44,180,49282,1,2
160,116,49407,1,8
32,104,49532,1,2
124,192,49657,6,0,B|148:252|212:288,1,129.999997675419
388,192,49907,2,0,B|364:252|300:288,1,129.999997675419,10|0
408,292,50157,2,0,B|464:248|464:180,1,129.999997675419
104,292,50407,2,0,B|48:248|48:180,1,129.999997675419,10|0
164,116,50657,5,0
252,24,50782,1,0
220,148,50907,1,10
308,56,51032,1,0
276,180,51157,1,0
364,88,51282,1,2
332,212,51407,1,8
420,120,51532,1,2
388,244,51657,6,0,B|368:308|368:308|328:360,1,129.999997675419
124,244,51907,2,0,B|144:308|144:308|184:360,1,129.999997675419,10|0
332,212,52157,6,0,B|384:144|392:60|328:4|256:-12|184:4|120:60|128:144|180:212,1,519.999990701676
296,272,52782,1,0
216,272,52907,1,10
332,212,53032,1,0
180,212,53157,1,0
360,148,53282,1,2
152,148,53407,1,8
352,76,53532,1,2
160,76,53657,6,0,B|84:80|60:148,1,129.999997675419
352,76,53907,2,0,B|428:80|452:148,1,129.999997675419,10|0
152,148,54157,2,0,B|216:116|220:40,1,129.999997675419
360,148,54407,2,0,B|296:116|292:40,1,129.999997675419,10|0
256,172,54657,5,0
300,296,54782,1,0
192,224,54907,1,10
320,224,55032,1,0
212,296,55157,2,0,B|144:288|144:288|88:256,1,129.999997675419,0|2
300,296,55407,2,0,B|368:288|368:288|424:256,1,129.999997675419,8|2
192,224,55657,6,0,B|128:200|128:200|80:156,1,129.999997675419
320,224,55907,2,0,B|384:200|384:200|432:156,1,129.999997675419,10|0
256,44,56157,1,2
256,76,56219,1,2
256,108,56282,1,2
256,140,56344,1,2
256,172,56407,1,10
300,296,56532,1,0
212,296,56657,6,0,B|108:224|172:120,1,200,4|0
256,172,57032,1,0
300,296,57157,2,0,B|404:224|340:120,1,200,8|0
256,76,57532,1,0
160,52,57657,1,0
352,52,57907,1,0
32,192,58157,1,8
480,192,58657,6,0,B|456:84|351:51,1,200
256,76,59032,1,0
160,51,59157,2,0,B|56:84|32:192,1,200,8|0
80,280,59532,1,0
176,252,59657,2,0,B|336:132,1,200
308,328,60157,1,8
204,328,60282,1,0
307,55,60657,6,0,B|212:20|113:67,1,200
192,128,61032,1,0
114,188,61157,2,0,B|212:235|308:200,1,200,8|0
396,152,61532,1,0
456,72,61657,2,0,B|256:48,1,200
56,312,62157,2,0,B|256:336,1,200,8|0
491,191,62657,6,0,B|396:152|297:191,1,200
256,300,63032,1,0
214,191,63157,2,0,B|116:152|20:191,1,200,8|0
96,256,63532,1,0
180,308,63657,1,0
180,76,63907,1,0
344,192,64157,2,0,B|444:192,1,100,8|0
96,60,64657,6,0,B|64:156|96:256,2,200,4|0|8
416,324,65657,6,0,B|448:228|416:128,2,200,0|0|8
16,324,66657,5,0
256,32,66907,1,0
496,324,67157,1,8
56,192,67657,5,0
456,192,67907,1,0
256,192,68157,1,8
256,192,68282,6,0,B|244:304|120:344|28:264,1,300
196,152,68907,1,0
32,36,69157,1,8
480,36,69657,5,0
316,152,69907,1,0
483,264,70157,2,0,B|392:344|268:304|256:192,1,300,8|0
256,92,70657,6,0,B|148:100|88:192,1,200
256,92,71157,2,0,B|364:100|424:192,1,200,8|0
89,189,71657,1,0
422,189,71907,1,0
256,364,72157,5,8
256,264,72282,1,0
256,164,72407,1,0
244,144,72469,1,0
220,132,72532,1,0
196,132,72594,1,0
176,136,72657,6,0,B|128:176|108:252|128:324|176:376|256:404|336:376|384:324|404:252|384:176|336:136,1,599.999982118607,4|0
140,192,73907,1,0
372,192,74157,1,0
140,260,74407,1,0
372,260,74657,6,0,B|408:168|404:88|348:20|256:-5|164:20|108:88|104:168|140:260,1,599.999982118607
388,196,75907,1,0
124,196,76157,1,8
384,128,76407,1,0
128,128,76657,6,0,B|96:60|164:16,1,129.999997675419,4|0
384,128,76907,2,0,B|416:60|348:16,1,129.999997675419,10|0
68,160,77157,2,0,B|40:96|64:32,1,129.999997675419,0|2
444,160,77407,2,0,B|472:96|448:32,1,129.999997675419,8|2
320,68,77657,5,0
192,68,77782,1,0
304,136,77907,1,10
208,136,78032,1,0
324,204,78157,2,0,B|396:204|444:160,1,129.999997675419
188,204,78407,2,0,B|116:204|68:160,1,129.999997675419,10|0
488,284,78657,5,0
360,272,78782,1,0
460,352,78907,1,10
332,336,79032,1,0
180,336,79157,5,0
52,352,79282,1,2
152,272,79407,1,8
24,284,79532,1,2
84,168,79657,6,0,B|124:108|188:88,1,129.999997675419
428,168,79907,2,0,B|388:108|324:88,1,129.999997675419,10|0
288,212,80157,2,0,B|332:336,1,129.999997675419
224,212,80407,2,0,B|180:336,1,129.999997675419,10|0
52,352,80657,6,0,B|8:216|28:96|112:60|204:80|256:148|256:148|308:80|400:60|484:96|504:216|460:352,1,899.999973177911,4|0
256,372,82407,1,0
188,240,82657,6,0,B|328:180|376:96|344:20|256:0|168:20|136:96|184:180|324:240,1,599.999982118607
456,312,83907,1,0
56,312,84157,1,8
256,44,84407,1,0
256,72,84469,1,0
256,104,84532,1,0
256,132,84594,1,0
256,152,84657,6,0,B|272:220|336:252,1,129.999997675419,4|0
256,160,84907,2,0,B|240:228|176:260,1,129.999997675419,10|0
48,244,85157,1,0
178,258,85282,1,2
56,312,85407,1,8
178,258,85532,1,2
100,364,85657,6,0,B|212:280|256:160,1,259.999995350838,0|10
412,364,86032,2,0,B|300:280|256:160,1,259.999995350838
256,28,86407,1,10
72,212,86657,6,0,B|92:276|92:276|140:316,1,129.999997675419
440,172,86907,2,0,B|420:108|420:108|372:68,1,129.999997675419,10|0
276,376,87157,2,0,B|340:356|340:356|380:308,1,129.999997675419,0|2
236,8,87407,2,0,B|172:28|172:28|132:76,1,129.999997675419,8|2
140,316,87657,5,0
380,307,87782,1,0
371,67,87907,1,10
131,76,88032,1,0
72,212,88157,5,0
236,8,88282,1,0
440,172,88407,1,10
276,376,88532,1,0
256,192,88657,6,0,B|208:52|52:56,1,259.999995350838,4|8
256,192,89157,2,0,B|304:332|460:328,1,259.999995350838,0|8
384,168,89532,1,0
256,196,89657,2,0,B|148:276,1,129.999997675419
256,188,89907,2,0,B|148:108,1,129.999997675419,8|0
256,192,90157,2,0,B|340:296|488:292,1,259.999995350838,0|8
256,192,90657,6,0,B|172:88|24:92,1,259.999995350838,0|8
128,332,91157,2,0,B|256:372|384:332,1,259.999995350838,0|8
256,192,91532,1,0
252,24,91657,2,0,B|168:124,1,129.999997675419
260,24,91907,2,0,B|344:124,1,129.999997675419,8|0
384,248,92157,2,0,B|256:288|128:248,1,259.999995350838,0|8
168,124,92532,1,0
344,124,92657,6,0,B|368:184|368:184|384:248,1,129.999997675419,4|0
168,124,92907,2,0,B|144:184|144:184|128:248,1,129.999997675419,10|0
412,104,93157,2,0,B|436:164|436:164|452:228,1,129.999997675419,0|2
100,104,93407,2,0,B|76:164|76:164|60:228,1,129.999997675419,8|2
256,368,93657,6,0,B|404:368|452:228,1,259.999995350838,0|10
256,368,94032,2,0,B|108:368|60:228,1,259.999995350838
260,300,94407,1,10
212,44,94657,6,0,B|148:60|148:60|100:104,1,129.999997675419
300,44,94907,2,0,B|364:60|364:60|412:104,1,129.999997675419,10|0
212,340,95157,2,0,B|160:308|160:308|128:248,1,129.999997675419,0|2
300,340,95407,2,0,B|352:308|352:308|384:248,1,129.999997675419,8|2
100,103,95657,5,0
127,247,95782,1,0
172,124,95907,1,10
198,267,96032,1,0
411,103,96157,5,0
384,247,96282,1,0
340,124,96407,1,10
314,267,96532,1,0
256,152,96657,6,0,B|256:24,2,129.999997675419,4|0|10
256,284,97032,1,0
176,180,97157,2,0,B|128:128|128:128|120:68,2,129.999997675419,0|2|8
256,284,97532,1,2
336,180,97657,2,0,B|384:128|384:128|392:68,2,129.999997675419,0|0|10
256,284,98032,5,0
176,180,98157,1,0
336,180,98282,1,0
188,108,98407,1,10
324,108,98532,1,0
208,36,98657,6,0,B|140:48|140:48|92:84,1,129.999997675419
304,36,98907,2,0,B|372:48|372:48|420:84,1,129.999997675419,10|0
188,108,99157,2,0,B|128:132|128:132|84:180,1,129.999997675419,0|2
324,108,99407,2,0,B|384:132|384:132|428:180,1,129.999997675419,8|2
176,180,99657,6,0,B|68:256|68:256|12:372,1,259.999995350838,0|10
336,180,100032,2,0,B|444:256|444:256|500:372,1,259.999995350838
256,336,100407,1,10
32,112,100657,6,0,B|108:44|220:52,1,200,4|0
480,112,101157,2,0,B|404:44|292:52,1,200,8|0
220,120,101532,1,0
292,264,101657,1,0
32,112,101907,5,0
480,272,102157,1,8
18,172,102407,1,0
494,212,102657,1,0
20,234,102907,1,0
491,149,103157,1,8
39,293,103407,5,0
256,192,103532,1,0
472,90,103657,1,0
380,52,103782,2,0,B|272:44|200:124,1,200,4|0
132,332,104157,2,0,B|240:340|312:260,1,200,4|0
292,160,104532,1,0
220,224,104657,6,0,B|116:208|64:112,2,200,4|0|8
476,192,105407,1,0
348,176,105532,1,0
436,80,105657,2,0,B|504:160|456:272,1,200
76,304,106157,2,0,B|8:224|56:112,1,200,8|0
384,116,106657,5,0
128,268,106907,1,0
256,40,107157,1,8
256,344,107407,1,0
256,192,107532,1,0
256,40,107657,6,0,B|204:32|156:48,1,100,0|4
256,344,108032,2,0,B|308:352|356:336,1,100,0|4
436,280,108282,1,0
484,192,108407,1,8
436,104,108532,1,0
340,80,108657,6,0,B|248:140|300:168|212:232,2,200,4|0|8
60,192,109407,1,0
152,152,109532,1,0
60,116,109657,2,0,B|140:52|160:100|240:36,1,200
452,268,110157,2,0,B|372:332|352:284|272:348,1,200,8|0
256,28,110657,5,0
24,352,110907,1,0
488,352,111157,1,8
60,116,111407,5,0
256,192,111532,1,0
452,268,111657,1,0
484,172,111782,2,0,B|404:96|300:144,1,200,4|0
28,212,112157,6,0,B|108:288|212:240,2,200,4|0|4
471,113,112907,1,0
40,270,113157,1,8
443,60,113407,5,0
256,192,113532,1,0
68,323,113657,2,0,B|152:384|172:296|256:356,1,200
444,61,114157,2,0,B|360:0|340:88|256:28,1,200,8|0
40,270,114657,6,0,B|136:224|152:112,1,200
472,114,115157,2,0,B|376:160|360:272,1,200,8|0
428,344,115532,1,0
460,248,115657,2,0,B|412:156|308:128,1,200
208,128,116032,1,0
116,164,116157,6,0,B|116:212,15,50
116,214,116657,6,0,B|216:304|360:268,1,259.999995350838,4|8
432,160,117032,2,0,B|319:233|182:175,1,259.999995350838,0|2
72,108,117407,1,8
192,56,117532,1,2
116,160,117657,6,0,B|88:312|252:344,1,259.999995350838,2|8
396,224,118032,2,0,B|424:72|260:40,1,259.999995350838,2|2
192,152,118407,1,8
320,152,118532,1,2
256,264,118657,6,0,B|392:264|360:344|500:344,1,259.999995350838,2|8
256,120,119032,2,0,B|120:120|152:40|12:40,1,259.999995350838,2|2
80,152,119407,1,8
196,216,119532,1,2
316,168,119657,6,0,B|372:48|448:124|504:0,1,259.999995350838,2|8
196,216,120032,2,0,B|140:336|64:260|8:384,1,259.999995350838,2|2
136,360,120407,1,8
264,272,120532,1,2
248,112,120657,6,0,B|108:28|144:120|4:32,1,259.999995350838,2|8
264,272,121032,2,0,B|404:356|368:264|508:352,1,259.999995350838,2|2
512,220,121407,1,8
452,104,121532,1,2
340,40,121657,6,0,B|212:-12|216:96|88:28,1,259.999995350838,2|8
172,344,122032,2,0,B|300:396|296:288|424:356,1,259.999995350838,2|2
432,224,122407,1,8
320,156,122532,1,2
192,156,122657,6,0,B|67:194,1,129.999997675419,0|2
192,256,122907,2,0,B|324:256,1,129.999997675419,8|2
444,194,123157,2,0,B|320:156,1,129.999997675419
212,84,123407,6,0,B|152:48|88:60,1,129.999997675419,8|0
300,84,123657,2,0,B|360:48|424:60,1,129.999997675419,0|2
192,156,123907,2,0,B|128:164|68:196,1,129.999997675419,8|2
320,156,124157,2,0,B|384:164|444:196,1,129.999997675419,0|0
380,308,124407,1,8
256,352,124532,1,2
132,308,124657,6,0,B|76:184|140:56,1,259.999995350838,4|8
380,308,125032,2,0,B|436:184|372:56,1,259.999995350838,2|2
256,112,125407,1,8
340,212,125532,1,2
468,240,125657,6,0,B|396:104|376:180|300:44,1,259.999995350838,2|8
44,240,126032,2,0,B|116:104|136:180|212:44,1,259.999995350838,2|2
304,140,126407,1,8
300,268,126532,1,2
200,352,126657,6,0,B|84:272|168:228|56:144,1,259.999995350838,2|8
312,352,127032,2,0,B|428:272|344:228|456:144,1,259.999995350838,2|2
500,268,127407,1,8
404,356,127532,1,2
300,268,127657,6,0,B|236:132|176:240|112:100,1,259.999995350838,2|8
212,268,128032,2,0,B|276:132|336:240|400:100,1,259.999995350838,2|2
292,24,128407,1,8
176,80,128532,1,2
108,192,128657,6,0,B|144:340|292:344,1,259.999995350838,2|8
404,192,129032,2,0,B|368:44|220:40,1,259.999995350838,2|2
196,168,129407,1,8
316,216,129532,1,2
384,328,129657,6,0,B|256:372|256:292|128:328,1,259.999995350838,2|8
128,56,130032,2,0,B|256:12|256:92|384:56,1,259.999995350838,2|2
428,192,130407,1,8
384,328,130532,1,2
256,364,130657,6,0,B|188:340|160:280,1,129.999997675419,0|2
428,192,130907,2,0,B|404:260|344:288,1,129.999997675419,8|2
256,20,131157,2,0,B|324:44|352:104,1,129.999997675419,0|0
84,192,131407,2,0,B|108:124|168:96,1,129.999997675419,8|0
351,102,131657,5,0
345,287,131782,1,2
160,281,131907,1,8
166,96,132032,1,2
256,20,132157,5,0
84,192,132282,1,2
256,364,132407,1,8
428,192,132532,1,2
256,192,132657,6,0,B|256:224,48,32.4999994188547,0|0|0|0|0|0|0|0|0|0|0|0|0|0|0|0|0|0|0|0|0|0|0|0|0|0|0|0|0|0|0|0|0|0|0|0|0|0|0|0|0|0|0|0|0|0|0|0|0
256,192,134657,12,2,136657
24,192,148657,6,0,B|120:148|120:236|216:192,1,200,4|0
296,132,149032,1,0
284,232,149157,2,0,B|380:188|380:276|476:232,1,200,8|0
500,136,149532,1,0
428,64,149657,2,0,B|332:32|228:56,1,200
281,328,150157,6,0,B|156:324|100:220|112:108|232:56,1,400,8|0
476,344,150907,1,0
376,352,151032,1,0
280,328,151157,2,0,B|216:292|200:228|132:192,1,200,8|0
52,252,151532,1,0
128,316,151657,2,0,B|236:280|180:240|280:192,1,200
480,192,152157,1,8
480,192,152282,6,0,B|388:92|304:160|212:72,1,300
412,48,152907,1,0
356,128,153032,1,0
280,192,153157,2,0,B|192:232|172:152|84:192,1,200,8|0
92,292,153532,1,0
188,268,153657,2,0,B|273:306|293:226|381:266,1,200
36,348,154157,6,0,B|76:152|224:236|256:28,1,400,8|0
256,368,154907,1,0
336,312,155032,1,0
344,212,155157,2,0,B|248:172|148:192,1,200,8|0
156,292,155532,1,0
256,292,155657,2,0,B|256:88,1,200
32,32,156157,1,8
32,32,156282,6,0,B|132:120|28:204|156:292,1,300,0|4
256,72,156907,1,0
356,291,157157,2,0,B|484:204|380:120|480:32,1,300,8|0
512,124,157657,6,0,B|436:200|328:160,1,200
0,124,158157,2,0,B|76:200|184:160,1,200,8|0
364,68,158657,5,0
148,68,158907,1,0
428,172,159157,1,8
84,172,159407,1,0
488,280,159657,1,0
24,280,159907,1,0
256,368,160157,1,8
256,368,160282,6,0,B|196:224|316:224|256:76,1,300
56,64,160907,1,0
456,64,161157,2,0,B|400:128|448:188|376:244,1,200,8|0
256,84,161657,5,0
256,300,161907,1,0
56,64,162157,2,0,B|112:128|64:188|136:244,1,200,8|0
377,242,162657,5,0
134,242,162907,1,0
256,28,163157,2,0,B|164:140|364:188|256:300,1,300,8|0
134,242,163657,2,0,B|92:144|136:48,1,200
377,242,164157,2,0,B|420:144|376:48,1,200,8|0
348,28,164469,1,0
312,20,164532,1,0
280,28,164594,1,0
256,40,164657,6,0,B|172:152|344:208|256:320,1,299.999991059304,4|0
112,352,165407,1,0
112,204,165657,2,0,B|244:116|264:248|400:192,1,299.999991059304
484,68,166407,1,0
340,20,166657,6,0,B|260:0|152:-16|48:64|48:224|104:336|248:344,1,599.999982118607
384,288,167907,1,0
256,68,168157,1,8
128,288,168407,1,0
192,252,168532,1,0
220,184,168657,6,0,B|188:124|124:100,1,129.999997675419,4|0
292,184,168907,2,0,B|324:124|388:100,1,129.999997675419,10|0
144,196,169157,2,0,B|88:148|24:148,1,129.999997675419,0|2
368,196,169407,2,0,B|424:148|488:148,1,129.999997675419,8|2
496,276,169657,2,0,B|392:368|256:356,1,259.999995350838,0|10
16,276,170032,2,0,B|120:368|256:356,1,259.999995350838
256,228,170407,1,10
32,32,170657,6,0,B|32:160,1,129.999997675419
480,352,170907,2,0,B|480:224,1,129.999997675419,10|0
108,80,171157,2,0,B|108:212,1,129.999997675419,0|2
404,304,171407,2,0,B|404:172,1,129.999997675419,8|2
256,127,171657,5,0
199,223,171782,1,0
312,223,171907,1,10
256,95,172032,5,0
171,239,172157,1,0
340,239,172282,1,0
256,57,172407,5,10
138,259,172532,1,0
373,259,172657,2,0,B|544:192|344:104|496:20,2,299.999991059304,4|0|0
256,164,173907,1,0
256,16,174157,1,0
256,164,174407,1,0
138,259,174657,6,0,B|-32:192|168:104|16:20,2,299.999991059304
256,352,175907,1,0
356,240,176157,1,8
256,128,176407,1,0
228,128,176469,1,0
200,136,176532,1,0
176,152,176594,1,0
156,176,176657,6,0,B|144:248|184:304,1,129.999997675419,4|0
356,176,176907,2,0,B|368:248|328:304,1,129.999997675419,10|0
96,280,177157,2,0,B|72:216|92:152,1,129.999997675419,0|2
416,280,177407,2,0,B|440:216|420:152,1,129.999997675419,8|2
256,64,177657,2,0,B|144:56|92:152|92:152|28:152,1,259.999995350838,0|10
256,64,178032,2,0,B|368:56|420:152|420:152|484:152,1,259.999995350838
456,24,178407,1,10
252,196,178657,6,0,B|132:248,1,129.999997675419
252,188,178907,2,0,B|132:136,1,129.999997675419,10|0
260,188,179157,2,0,B|380:136,1,129.999997675419,0|2
260,196,179407,2,0,B|380:248,1,129.999997675419,8|2
256,300,179657,5,0
140,360,179782,1,0
208,248,179907,1,10
92,308,180032,1,0
160,196,180157,1,0
44,256,180282,1,0
112,144,180407,1,10
120,112,180469,1,0
140,88,180532,1,0
168,72,180594,1,0
200,64,180657,6,0,B|312:64|312:180|428:180,2,259.999995350838,4|8|0
348,256,181407,2,0,B|400:376,1,129.999997675419,8|0
164,256,181657,2,0,B|112:376,1,129.999997675419
256,156,181907,2,0,B|316:172|368:152|376:104|360:52|312:36|256:56,2,259.999995350838,8|0|8
96,360,182657,6,0,B|224:384|360:360,1,259.999995350838,0|8
416,24,183157,2,0,B|288:0|152:24,1,259.999995350838,0|8
256,112,183532,2,0,B|272:176|256:240,2,129.999997675419
136,164,183907,2,0,B|140:312|280:360,1,259.999995350838,8|0
396,300,184282,1,0
468,192,184407,1,8
396,84,184532,1,0
272,40,184657,6,0,B|200:44|160:100,1,129.999997675419,4|0
240,344,184907,2,0,B|312:340|352:284,1,129.999997675419,10|0
160,98,185157,2,0,B|120:160|143:222,1,129.999997675419,0|2
350,285,185407,2,0,B|392:224|368:160,1,129.999997675419,8|2
143,222,185657,6,0,B|184:238|220:228|236:192|236:192|280:192|280:192|300:152|334:142|369:161,1,259.999995350838,0|10
160,98,186032,2,0,B|204:46|273:38,1,129.999997675419
352,286,186282,2,0,B|308:338|239:346,1,129.999997675419,0|10
112,352,186532,1,0
72,228,186657,6,0,B|60:160|92:100,1,129.999997675419
440,156,186907,2,0,B|452:224|420:284,1,129.999997675419,10|0
140,220,187157,2,0,B|120:152|160:96,1,129.999997675419,0|2
372,164,187407,2,0,B|392:232|352:288,1,129.999997675419,8|2
140,220,187657,5,0
372,164,187782,1,0
159,96,187907,1,10
352,287,188032,1,0
256,376,188157,6,0,B|196:340|172:280,1,129.999997675419
256,8,188407,2,0,B|316:44|340:104,1,129.999997675419,10|0
256,192,188657,1,4
220,368,192657,6,0,B|60:160|140:36|256:140|256:140|372:36|452:160|292:368,1,800,4|0
144,236,193907,1,0
368,236,194157,1,8
128,164,194407,1,0
384,164,194657,1,0
164,104,194907,1,0
348,104,195157,1,8
256,340,195407,5,0
256,240,195532,1,0
256,144,195657,1,0
256,44,195782,2,0,B|156:24|160:76|60:68,1,200,4|0
256,340,196157,2,0,B|356:360|352:308|452:316,1,200,4|0
500,120,196657,6,0,B|256:-4|256:192|256:388|8:264,1,600,4|0
80,192,197532,1,0
172,148,197657,2,0,B|256:136|256:244|340:236,1,200
500,120,198157,5,8
12,264,198407,1,0
348,88,198657,1,0
164,296,198907,1,0
188,96,199157,6,0,B|228:168|284:168|324:240,1,200,8|0
324,96,199532,2,0,B|284:168|228:168|188:240,1,200,0|4
500,192,200032,2,0,B|496:140|460:100,1,100,0|4
376,52,200282,1,0
276,48,200407,1,0
188,96,200532,1,0
156,192,200657,6,0,B|220:280|260:192|336:264,2,200,4|0|8
360,348,201407,1,0
412,264,201532,1,0
368,172,201657,6,0,B|272:168|284:100|188:96,2,200,0|0|8
500,20,202407,1,0
12,20,202657,1,0
464,104,202907,1,0
48,104,203157,1,8
436,192,203407,5,0
256,192,203532,1,0
76,192,203657,1,0
116,284,203782,2,0,B|180:212|116:172|176:96,1,200,4|0
396,284,204157,2,0,B|332:212|396:172|336:96,1,200,4|0
256,332,204657,5,4
500,192,204907,1,0
12,192,205157,1,8
256,52,205407,5,0
256,192,205532,1,0
256,332,205657,2,0,B|352:364|452:328,2,200,0|0|8
256,52,206407,2,0,B|160:20|60:56,2,200,0|0|0
380,264,207157,1,8
131,120,207407,5,0
256,192,207532,1,0
380,264,207657,2,0,B|368:336|304:376|232:360,1,200
136,332,208032,1,0
112,242,208157,6,0,B|112:192,15,50
112,192,208657,6,0,B|252:128|124:64|284:12,1,259.999995350838,4|8
400,192,209032,2,0,B|260:256|388:320|228:372,1,259.999995350838,0|2
112,320,209407,1,8
224,256,209532,1,2
112,192,209657,6,0,B|204:108|252:168|344:76,1,259.999995350838,2|8
400,192,210032,2,0,B|308:108|260:168|168:76,1,259.999995350838,2|2
300,76,210407,1,8
240,192,210532,1,2
112,192,210657,6,0,B|4:100|160:128|220:16,1,259.999995350838,2|8
400,192,211032,2,0,B|508:100|352:128|292:16,1,259.999995350838,2|2
256,140,211407,1,8
296,264,211532,1,2
420,296,211657,6,0,B|512:196|420:104|336:160,1,259.999995350838,2|8
92,296,212032,2,0,B|0:196|92:104|176:160,1,259.999995350838,2|2
232,280,212407,1,8
360,268,212532,1,2
420,152,212657,6,0,B|320:68|280:152|176:68,1,259.999995350838,2|8
92,232,213032,2,0,B|192:316|232:232|336:316,1,259.999995350838,2|2
204,340,213407,1,8
180,212,213532,1,2
256,108,213657,6,0,B|388:312|252:168|436:288,1,259.999995350838,2|8
256,276,214032,2,0,B|124:72|260:216|76:96,1,259.999995350838,2|2
4,204,214407,1,8
76,312,214532,1,2
204,340,214657,6,0,B|272:356|332:316,1,129.999997675419,0|2
208,272,214907,2,0,B|277:282|333:236,1,129.999997675419,8|2
204,204,215157,2,0,B|273:207|325:158,1,129.999997675419
322,24,215407,6,0,B|254:8|198:46,1,129.999997675419,8|0
317,92,215657,2,0,B|248:82|196:125,1,129.999997675419,0|2
322,160,215906,2,0,B|253:157|204:204,1,129.999997675419,8|2
256,328,216157,1,0
380,292,216282,1,2
464,192,216407,6,0,B|464:152,7,32.4999994188547
464,192,216657,6,0,B|308:216|376:124|212:152,1,259.999995350838,4|8
48,192,217032,2,0,B|204:168|136:260|300:232,1,259.999995350838,0|2
384,136,217407,1,8
316,24,217532,1,2
192,56,217657,6,0,B|92:132|208:208|120:292,1,259.999995350838,2|8
320,328,218032,2,0,B|420:252|304:176|392:92,1,259.999995350838,2|2
476,192,218407,1,8
364,260,218532,1,2
256,192,218657,6,0,B|92:160|200:104|28:72,1,259.999995350838,2|8
256,192,219032,2,0,B|420:160|312:104|484:72,1,259.999995350838,2|2
408,184,219407,1,8
304,108,219532,1,2
188,168,219657,6,0,B|36:192|80:340|176:296,1,259.999995350838,2|8
324,168,220032,2,0,B|476:192|432:340|336:296,1,259.999995350838,2|2
256,192,220407,1,8
164,100,220532,1,2
72,192,220657,6,0,B|76:256|132:304,1,129.999997675419,2|0
256,256,220907,2,0,B|256:128,1,129.999997675419,8|2
380,80,221157,2,0,B|436:128|440:192,1,129.999997675419,0|2
348,284,221407,1,8
256,192,221532,1,2
164,100,221657,6,0,B|36:152|148:244|8:296,1,259.999995350838,6|8
348,284,222032,2,0,B|476:232|364:140|504:88,1,259.999995350838,6|2
508,220,222407,1,8
464,344,222532,1,2
348,284,222657,6,0,B|360:156,1,129.999997675419,0|2
164,284,222907,2,0,B|292:296,1,129.999997675419,8|2
164,100,223157,2,0,B|152:228,1,129.999997675419
348,100,223407,2,0,B|220:88,1,129.999997675419,8|2
360,154,223657,5,0
293,296,223782,1,2
151,229,223907,1,8
218,87,224032,1,2
149,162,224157,5,0
226,298,224282,1,2
362,221,224407,1,8
285,85,224532,1,0
256,192,224657,6,0,B|256:224,48,32.4999994188547
472,336,226407,6,0,B|506:210,1,129.999997675419,10|2
396,284,226657,2,0,B|272:323,1,129.999997675419,0|2
116,100,226907,2,0,B|239:60,1,129.999997675419,8|2
40,48,227157,2,0,B|5:173,1,129.999997675419,0|0
48,296,227407,5,10
112,184,227532,1,2
184,292,227657,1,0
256,184,227782,1,2
328,292,227907,1,8
400,184,228032,1,2
464,296,228157,6,0,B|532:212|504:100|448:20|308:36|228:104|236:204,1,519.999990701676,0|4
328,292,228782,1,2
184,292,228907,1,8
344,224,229032,1,2
168,224,229157,1,2
336,156,229282,1,0
176,156,229407,1,10
308,92,229532,1,2
204,92,229657,6,0,B|136:60|80:104,1,129.999997675419,0|2
308,92,229907,2,0,B|376:60|432:104,1,129.999997675419,10|2
184,292,230157,2,0,B|124:312|56:264,1,129.999997675419,2|0
328,292,230407,2,0,B|388:312|456:264,1,129.999997675419,10|0
344,192,230657,6,0,B|240:68|240:172|140:36,1,259.999995350838,2|10
256,24,231032,1,0
168,192,231157,2,0,B|272:68|272:172|372:36,1,259.999995350838,2|10
444,148,231532,1,2
356,248,231657,6,0,B|280:268|256:324,1,129.999997675419,0|2
156,248,231907,2,0,B|232:268|256:324,1,129.999997675419,10|2
256,192,232157,1,2
252,160,232219,1,2
236,132,232282,1,2
212,112,232344,1,2
180,100,232407,1,10
88,192,232532,1,0
132,316,232657,6,0,B|264:320|264:320|276:252|356:248,1,259.999995350838,2|8
256,192,233032,1,2
156,135,233157,2,0,B|236:132|248:64|248:64|380:68,1,259.999995350838,0|10
468,164,233532,1,0
372,252,233657,6,0,B|256:192,1,129.999997675419,0|2
140,132,233907,2,0,B|256:192,1,129.999997675419,8|2
372,132,234157,2,0,B|256:192,1,129.999997675419,0|2
140,252,234407,2,0,B|256:192,1,129.999997675419,8|2
372,132,234657,5,0
372,252,234782,1,2
256,292,234907,1,8
140,252,235032,1,2
140,132,235157,5,0
256,92,235282,1,2
372,132,235407,1,8
372,252,235532,1,2
256,292,235657,6,0,B|204:240|220:168,1,129.999997675419,2|2
256,92,235907,2,0,B|308:144|292:216,1,129.999997675419,10|2
140,252,236157,1,2
108,252,236219,1,2
80,236,236282,1,2
60,212,236344,1,2
52,180,236407,1,10
120,68,236532,1,0
256,92,236657,6,0,B|400:132|300:152|288:236|388:276,1,259.999995350838,2|8
256,192,237032,1,2
256,292,237157,2,0,B|112:252|212:232|224:148|124:108,1,259.999995350838,0|10
80,236,237532,1,0
164,336,237657,2,0,B|216:372|292:364,1,129.999997675419,0|2
348,48,237907,6,0,B|296:12|220:20,1,129.999997675419,8|2
256,292,238157,2,0,B|332:304|380:264,1,129.999997675419,0|2
256,92,238407,2,0,B|180:80|132:120,1,129.999997675419,8|2
164,248,238657,5,0
256,156,238782,1,2
224,280,238907,1,8
188,156,239032,1,2
348,248,239157,5,0
256,156,239282,1,2
288,280,239407,1,8
324,156,239532,1,2
256,44,239657,2,0,B|180:36|132:76,1,129.999997675419,2|2
256,340,239907,2,0,B|332:348|380:308,1,129.999997675419,10|2
256,220,240157,5,10
224,216,240219,1,2
192,204,240282,1,10
164,188,240344,1,2
144,160,240407,1,10
116,148,240469,1,2
84,140,240532,1,10
52,144,240594,1,2
28,156,240657,6,0,B|24:256|116:332,1,200,6|0
192,272,241032,1,0
320,272,241157,2,0,B|380:192,1,100,8|0
284,216,241407,2,0,B|304:120,1,100
256,28,241657,2,0,B|256:172|208:72|208:224,1,200,2|0
256,304,242032,1,2
352,336,242157,2,0,B|396:308|392:248,1,100,8|0
160,336,242407,2,0,B|116:308|120:248,1,100
156,156,242657,5,2
188,252,242782,1,0
224,160,242907,1,2
256,256,243032,1,0
288,160,243157,1,8
324,252,243282,1,0
356,156,243407,1,0
392,248,243532,1,0
424,152,243657,6,0,B|448:76|376:20|304:56,1,200,2|0
208,56,244032,1,2
312,112,244157,1,8
200,112,244282,1,0
324,168,244407,1,2
188,168,244532,1,0
256,256,244657,6,0,B|332:328|360:244|444:304,2,200,2|0|8
148,224,245282,1,0
252,188,245407,1,2
192,280,245532,1,0
188,168,245657,2,0,B|140:80,1,100,2|2
240,124,245907,2,0,B|256:24,1,100,0|2
304,124,246157,2,0,B|396:52|396:156|496:76,1,200,8|0
392,24,246532,1,0
284,48,246657,6,0,B|212:76|152:32|152:32|92:64,2,200,2|0|8
380,100,247282,1,0
444,192,247407,1,2
340,160,247532,1,0
444,124,247657,1,2
380,216,247782,1,2
312,304,247907,5,2
416,272,248032,1,2
312,236,248157,1,2
376,328,248282,1,2
276,372,248407,1,2
180,320,248532,1,2
112,232,248657,6,0,B|144:160|144:160|176:88|124:52,1,200,4|0
400,232,249157,2,0,B|368:160|368:160|336:88|388:52,1,200,8|0
216,192,249657,2,0,B|188:144|192:96,1,100,0|2
296,192,249907,2,0,B|324:144|320:96,1,100,0|2
140,192,250157,2,0,B|104:148|100:96,1,100,8|2
372,192,250407,2,0,B|408:148|412:96,1,100,0|2
320,40,250657,6,0,B|220:40|244:120|144:120,1,200,0|0
192,344,251157,2,0,B|292:344|268:264|368:264,1,200,8|0
160,192,251657,2,0,B|96:268,1,100,0|2
204,244,251907,2,0,B|192:344,1,100,0|2
272,268,252157,2,0,B|300:368,1,100,8|2
344,264,252407,2,0,B|420:332,1,100,0|2
492,248,252657,6,0,B|492:144|448:96|384:124,1,200
20,248,253157,2,0,B|20:144|64:96|128:124,1,200,8|0
343,264,253657,2,0,B|252:304,1,100,0|2
168,119,253907,2,0,B|260:80,1,100,0|2
432,280,254157,2,0,B|384:192,1,100,8|2
80,104,254407,2,0,B|127:191,1,100,0|2
256,192,254657,6,0,B|360:168|308:104|416:76,1,200
256,192,255157,2,0,B|152:216|204:280|96:308,1,200,8|0
28,100,255657,2,0,B|48:28|120:4|188:40,1,200
484,100,256157,2,0,B|464:28|392:4|324:40,1,200,8|0
256,316,256657,5,2
364,128,256907,1,0
148,128,257157,1,2
256,383,257407,1,0
424,92,257657,1,2
89,92,257907,1,0
256,192,258157,6,0,B|256:240,15,50
256,242,258657,6,0,B|384:324|344:204|384:168|384:168|464:160,1,259.999995350838,4|8
256,142,259032,2,0,B|128:60|168:180|128:216|128:216|48:224,1,259.999995350838,0|2
40,92,259407,1,8
164,124,259532,1,2
40,156,259657,6,0,B|76:280|168:184|124:184|216:320,1,259.999995350838,2|8
472,228,260032,2,0,B|436:104|344:200|388:200|296:64,1,259.999995350838,2|2
212,164,260407,1,8
300,260,260532,1,2
212,356,260657,6,0,B|112:272|192:220|100:128,1,259.999995350838,2|8
300,356,261032,2,0,B|400:272|320:220|412:128,1,259.999995350838,2|2
420,260,261407,1,8
304,204,261532,1,2
410,129,261657,6,0,B|228:128|344:80|156:80,1,259.999995350838,2|8
101,254,262032,2,0,B|284:256|168:304|356:304,1,259.999995350838,2|2
484,308,262407,1,8
424,192,262532,1,2
351,303,262657,6,0,B|368:236|368:236|300:136|372:64,1,259.999995350838,2|8
160,80,263032,2,0,B|144:148|144:148|212:248|140:320,1,259.999995350838,2|2
12,348,263407,1,8
100,256,263532,1,2
48,136,263657,2,0,B|160:64|184:148|292:64,1,259.999995350838,2|8
464,248,264032,2,0,B|352:320|328:236|220:320,1,259.999995350838,2|2
104,372,264407,1,8
176,264,264532,1,2
120,148,264657,6,0,B|120:72|168:32,1,129.999997675419,0|2
392,148,264907,2,0,B|392:72|344:32,1,129.999997675419,8|2
48,136,265157,2,0,B|44:64|92:12,1,129.999997675419
464,136,265407,2,0,B|468:64|420:12,1,129.999997675419,8|2
192,100,265657,5,0
320,100,265782,1,2
196,168,265907,1,8
316,168,266032,1,2
200,236,266157,1,0
312,236,266282,1,2
256,352,266407,6,0,B|256:88,1,259.999995350838,8|4
140,36,266782,2,0,B|96:88|104:156,2,129.999997675419,0|8|0
372,36,267157,2,0,B|416:88|408:156,2,129.999997675419,0|2|8
256,92,267532,1,2
172,192,267657,6,0,B|84:144|84:144|56:220|136:288,1,259.999995350838,2|8
340,192,268032,2,0,B|428:144|428:144|456:220|376:288,1,259.999995350838,2|2
256,328,268407,1,8
132,284,268532,1,2
256,244,268657,6,0,B|240:112|240:112|156:76|92:144,1,259.999995350838,2|8
256,244,269032,2,0,B|272:112|272:112|356:76|420:144,1,259.999995350838,2|2
464,232,269407,1,8
340,192,269532,1,2
256,92,269657,6,0,B|212:48|168:48|168:48|168:104|168:104|128:140|68:124,1,259.999995350838,2|8
256,292,270032,2,0,B|300:336|344:336|344:336|344:280|344:280|384:244|444:260,1,259.999995350838,2|2
512,148,270407,1,8
384,128,270532,1,2
300,228,270657,6,0,B|180:292|172:164|48:244,1,259.999995350838,2|8
212,156,271032,2,0,B|330:79|338:207|458:143,1,259.999995350838,2|2
384,44,271407,1,8
256,24,271532,1,2
136,72,271657,6,0,B|112:200,1,129.999997675419,0|2
376,312,271907,2,0,B|400:184,1,129.999997675419,8|2
376,72,272157,2,0,B|248:48,1,129.999997675419
136,312,272407,6,0,B|264:336,2,129.999997675419,8|2|12
376,312,272907,1,8
256,84,273157,1,8
136,312,273407,1,8
376,312,273657,1,8
256,48,273907,1,8
136,312,274157,1,8
376,312,274407,1,8
256,48,274657,6,0,B|256:80,48,32.4999994188547
256,192,276532,12,0,280657
464,68,280907,6,0,B|400:144|400:144|432:228|340:280,1,259.999995350838,8|0
48,68,281407,2,0,B|112:144|112:144|80:228|172:280,1,259.999995350838,8|0
256,32,281907,1,8
256,292,282157,5,0
256,268,282219,1,0
256,248,282282,1,0
248,224,282344,1,0
228,204,282407,1,0
204,196,282469,1,0
176,192,282532,1,0
152,196,282594,1,0
124,212,282657,6,0,B|40:324,1,129.999997675419,4|0
176,256,282907,2,0,B|160:384,1,129.999997675419,8|2
244,272,283157,2,0,B|304:388,1,129.999997675419,2|0
308,244,283407,2,0,B|428:296,1,129.999997675419,8|2
340,184,283657,2,0,B|464:148,1,129.999997675419,2|0
324,116,283907,2,0,B|412:16,1,129.999997675419,8|2
276,68,284157,6,0,B|216:32|128:20|64:84|116:180|212:180|256:232|220:304|144:336|44:280,1,519.999990701676,2|2
32,136,284782,1,2
132,236,284907,1,8
88,100,285032,1,2
188,200,285157,1,2
144,64,285282,1,0
244,164,285407,1,8
200,28,285532,1,2
300,132,285657,2,0,B|348:188|412:188,1,129.999997675419,2|0
384,60,285907,2,0,B|320:40|256:76,1,129.999997675419,8|2
148,144,286157,6,0,B|56:180|16:228|52:292|88:348|152:360|208:304|228:232|280:200|328:220|372:276,1,519.999990701676,2|2
256,340,286782,1,2
368,271,286907,1,8
240,276,287032,1,2
348,208,287157,2,0,B|424:184|472:224,1,129.999997675419,2|0
164,176,287407,2,0,B|88:200|40:160,1,129.999997675419,8|2
332,140,287657,2,0,B|392:120|460:136,1,129.999997675419,2|0
180,244,287907,2,0,B|120:264|52:248,1,129.999997675419,8|2
256,340,288157,6,0,B|384:340|396:268|336:192|256:192|176:192|116:116|128:44|256:44,1,519.999990701676,2|2
380,76,288782,1,2
256,112,288907,1,8
380,152,289032,1,2
256,192,289157,1,2
132,152,289282,1,0
256,112,289407,1,8
132,76,289532,1,2
260,40,289657,6,0,B|324:16|388:24,1,129.999997675419,2|0
252,40,289907,2,0,B|188:16|124:24,1,129.999997675419,8|2
72,140,290157,1,2
128,256,290282,1,2
256,276,290407,1,2
384,256,290532,1,0
440,140,290657,6,0,B|404:60|328:48,1,149.999995529652,4|0
256,40,291032,1,0
180,52,291157,1,8
136,112,291282,1,0
140,188,291407,1,0
196,240,291532,1,0
256,192,291657,2,0,B|332:156|288:128|360:84,1,149.999995529652,2|0
256,192,292032,2,0,B|180:156|224:128|152:84,1,149.999995529652,2|0
80,80,292407,1,2
16,120,292532,1,2
0,192,292657,6,0,B|4:276|88:300,1,149.999995529652,0|0
164,300,293032,1,0
136,232,293157,1,8
176,168,293282,1,0
148,100,293407,1,0
200,48,293532,1,0
256,100,293657,2,0,B|264:176|312:156|320:236,1,149.999995529652,2|0
256,100,294032,2,0,B|248:176|200:156|192:236,1,149.999995529652,2|0
216,304,294407,1,2
276,348,294532,1,2
348,324,294657,6,0,B|404:272,1,74.9999977648259
340,232,294907,2,0,B|372:160,1,74.9999977648259
296,152,295157,2,0,B|296:76,1,74.9999977648259,8|0
224,100,295407,2,0,B|172:48,1,74.9999977648259
112,92,295657,2,0,B|112:168|64:208|32:192,1,149.999995529652,2|0
112,292,296032,2,0,B|112:216|64:176|32:192,1,149.999995529652,2|0
12,264,296407,1,2
28,336,296532,1,2
92,376,296657,6,0,B|168:376|152:324|228:324,1,149.999995529652,0|0
300,344,297032,1,0
356,292,297157,1,8
348,216,297282,1,0
280,184,297407,1,0
212,216,297532,1,0
200,288,297657,2,0,B|116:276|136:220|96:192,1,149.999995529652,2|0
200,96,298032,2,0,B|116:108|136:164|96:192,1,149.999995529652,2|0
20,188,298407,1,2
8,112,298532,1,2
64,60,298657,6,0,B|136:24|136:72|208:28,2,149.999995529652,4|0|8
8,112,299282,1,0
20,188,299407,1,0
88,216,299532,1,0
160,192,299657,2,0,B|184:120,2,74.9999977648259,2|0|0
212,244,300032,1,2
284,264,300157,2,0,B|308:192,1,74.9999977648259,8|0
372,232,300407,2,0,B|440:196,1,74.9999977648259,2|2
460,268,300657,6,0,B|424:344|340:344,2,149.999995529652,0|0|8
440,196,301282,1,0
372,160,301407,1,0
308,196,301532,1,0
260,252,301657,2,0,B|192:244|192:200|124:192,1,149.999995529652,2|0
260,132,302032,2,0,B|192:140|192:184|124:192,1,149.999995529652,2|0
56,164,302407,1,2
24,96,302532,1,2
72,40,302657,6,0,B|156:28|216:76,1,149.999995529652
260,132,303032,1,0
240,204,303157,2,0,B|176:240,1,74.9999977648259,8|0
236,288,303407,2,0,B|192:356,1,74.9999977648259
268,376,303657,2,0,B|340:360,2,74.9999977648259,2|0|0
196,352,304032,2,0,B|136:300,2,74.9999977648259,2|8|0
236,288,304407,1,2
212,216,304532,1,2
168,152,304657,6,0,B|208:80|288:72,1,149.999995529652
360,84,305032,1,0
316,144,305157,1,8
364,200,305282,1,0
312,256,305407,1,0
368,304,305532,1,0
312,352,305657,6,0,B|244:324,1,74.9999977648259,2|0
240,248,305907,2,0,B|192:192,1,74.9999977648259,0|2
248,140,306157,2,0,B|248:60,1,74.9999977648259,0|2
320,80,306407,2,0,B|380:28,1,74.9999977648259,0|2
