osu file format v9

[General]
AudioFilename: 02.mp3
AudioLeadIn: 0
PreviewTime: 196643
Countdown: 0
SampleSet: Normal
StackLeniency: 0.7
Mode: 1
LetterboxInBreaks: 1

[Editor]
Bookmarks: 7215,9500,18643,27786,32358,41500,50643,59786,60144,69001,78144,87215,96358,105500,114643,123786,133001,142144,151215,160358,169500,178643,183215,192358,196929,201500,224358,229001,233572,242643,251786,260929,270144,-1462
DistanceSpacing: 0.5
BeatDivisor: 4
GridSize: 32

[Metadata]
Title:Hades: The Rise
Artist:Yousei Teikoku
Creator:lolcubes
Version:Ozzy's Taiko
Source:
Tags:gothic metanoia fairy yui itsuki ozzyozrock

[Difficulty]
HPDrainRate:4
CircleSize:7
OverallDifficulty:5
ApproachRate:10
SliderMultiplier:1.4
SliderTickRate:1

[Events]
//Background and Video events
0,0,"STBGtaiko.jpg"
//Break Periods
//Storyboard Layer 0 (Background)
//Storyboard Layer 1 (Fail)
//Storyboard Layer 2 (Pass)
//Storyboard Layer 3 (Foreground)
//Storyboard Sound Samples
//Background Colour Transformations
3,100,163,162,255

[TimingPoints]
430,285.714285714286,4,1,0,80,1,0
57572,-100,4,1,0,80,0,0
59858,-100,4,1,0,80,0,1
87287,-100,4,1,0,80,0,0
123858,-100,4,1,0,80,0,1
151287,-100,4,1,0,80,0,0
197001,-100,4,1,0,80,0,0
201572,-100,4,1,0,80,0,1
242715,-100,4,1,0,80,0,0

[Colours]
Combo1 : 1,165,226
Combo2 : 254,102,1

[HitObjects]
128,96,7287,1,4
128,96,7858,1,4
128,288,8430,1,0
128,288,8572,1,0
384,288,8715,5,8
128,288,8858,5,0
128,288,8930,1,0
128,288,9001,1,0
128,288,9072,1,0
128,288,9144,1,0
128,288,9215,1,0
384,288,9287,5,8
128,288,9430,5,0
128,288,9572,1,4
384,288,9858,5,8
128,256,10001,5,0
128,256,10287,1,0
416,288,10429,5,8
160,256,10715,5,0
160,256,10858,1,0
416,288,11001,5,8
192,256,11144,5,0
192,256,11287,1,0
192,256,11358,1,0
192,256,11429,1,0
416,288,11572,5,8
416,288,11715,1,8
224,256,11858,5,0
416,288,12144,5,8
224,256,12287,5,0
224,256,12572,1,0
384,288,12715,5,8
224,256,13001,5,0
224,256,13144,1,0
224,256,13215,1,0
384,288,13287,5,8
224,224,13429,5,0
224,224,13572,1,0
224,224,13644,1,0
224,224,13715,1,0
384,256,13858,5,8
384,256,14001,1,8
128,288,14144,5,4
384,288,14429,5,8
128,256,14572,5,0
128,256,14858,1,0
416,288,15001,5,8
160,256,15287,5,0
160,256,15429,1,0
416,288,15572,5,8
192,256,15715,5,0
192,256,15858,1,0
192,256,15929,1,0
192,256,16001,1,0
416,288,16144,5,8
416,288,16287,1,8
224,256,16429,5,0
416,288,16715,5,8
224,256,16858,5,0
224,256,17144,1,0
384,288,17287,5,8
224,256,17572,5,0
224,256,17715,1,0
224,256,17787,1,0
384,288,17858,5,8
224,224,18001,5,0
224,224,18144,1,0
224,224,18215,1,0
224,224,18287,1,0
384,256,18429,5,8
384,256,18572,1,8
384,256,18644,1,8
224,224,18715,5,0
384,256,19001,5,8
224,224,19287,5,0
224,224,19429,1,0
384,256,19572,5,8
128,288,19858,5,0
128,288,20001,1,0
384,256,20144,5,8
128,256,20429,5,0
128,256,20572,1,0
384,256,20715,5,8
224,224,21001,5,0
384,256,21287,5,8
224,224,21572,5,0
224,224,21715,1,0
384,256,21858,5,8
128,288,22144,5,0
128,288,22287,1,0
384,256,22430,5,8
128,256,22715,5,0
128,256,22858,1,0
384,256,23001,5,8
384,256,23144,1,8
224,224,23287,5,0
384,256,23572,5,8
224,224,23858,5,0
224,224,24001,1,0
384,256,24144,5,8
128,288,24430,5,0
128,288,24572,1,0
384,256,24715,5,8
128,256,25001,5,0
128,256,25144,1,0
384,256,25287,5,8
224,224,25572,5,0
384,256,25858,5,8
224,224,26144,5,0
224,224,26287,1,0
384,256,26430,5,8
128,288,26715,5,0
128,288,26858,1,0
384,256,27001,5,8
384,256,27144,1,8
128,256,27287,5,0
128,256,27358,1,0
128,256,27430,1,0
384,256,27572,5,8
384,256,27644,1,8
384,256,27715,1,8
128,256,27858,5,0
384,256,28144,5,8
128,256,28430,5,0
128,256,28572,1,0
416,256,28715,5,8
64,256,28858,5,0
96,256,29144,1,0
384,224,29287,5,8
160,224,29430,5,0
160,224,29572,1,0
160,224,29644,1,0
160,224,29715,1,0
352,192,29858,5,8
352,192,30001,1,8
160,224,30144,5,0
384,256,30430,5,8
128,256,30715,5,0
128,256,30858,1,0
416,256,31001,5,8
64,256,31144,5,0
96,256,31430,1,0
384,224,31572,5,8
160,224,31715,5,0
160,224,31858,1,0
160,224,31930,1,0
160,224,32001,1,0
96,224,32072,1,0
352,192,32144,5,8
352,192,32287,1,8
224,224,32430,5,0
384,256,32715,5,8
224,224,33001,5,0
224,224,33144,1,0
384,256,33287,5,8
128,288,33572,5,0
128,288,33715,1,0
384,256,33858,5,8
128,256,34144,5,0
128,256,34287,1,0
384,256,34430,5,8
224,224,34715,5,0
384,256,35001,5,8
224,224,35287,5,0
224,224,35430,1,0
384,256,35572,5,8
128,288,35858,5,0
128,288,36001,1,0
384,256,36144,5,8
128,256,36430,5,0
128,256,36572,1,0
384,256,36715,5,8
384,256,36858,1,8
224,224,37001,5,0
384,256,37287,5,8
224,224,37572,5,0
224,224,37715,1,0
384,256,37858,5,8
128,288,38144,5,0
128,288,38287,1,0
384,256,38430,5,8
128,256,38715,5,0
128,256,38858,1,0
384,256,39001,5,8
224,224,39287,5,0
384,256,39572,5,8
224,224,39858,5,0
224,224,40001,1,0
384,256,40144,5,8
128,288,40430,5,0
128,288,40572,1,0
384,256,40715,5,8
384,256,40858,1,8
128,256,41001,5,0
160,256,41144,1,0
160,256,41215,1,0
384,256,41287,5,8
384,256,41430,1,8
384,256,41501,1,8
128,256,41572,5,0
160,256,41858,1,0
384,256,42144,5,8
160,256,42430,5,0
160,256,42572,1,0
160,256,42715,1,0
160,256,42858,1,0
160,256,43001,1,0
160,256,43144,1,0
160,224,43215,1,0
384,256,43287,5,8
160,256,43430,5,0
160,256,43572,1,0
160,256,43858,1,0
160,256,44144,1,0
384,256,44430,5,8
160,256,44715,5,0
160,256,44858,1,0
160,256,45001,1,0
160,256,45144,1,0
160,256,45287,1,0
160,256,45430,1,0
160,224,45501,1,0
384,256,45572,5,8
160,256,45715,5,0
160,256,45787,1,0
384,256,45858,5,8
384,256,46001,1,8
160,256,46144,5,0
160,256,46430,1,0
384,256,46715,5,8
160,256,47001,5,0
160,256,47144,1,0
160,256,47287,1,0
160,256,47430,1,0
160,256,47572,1,0
160,256,47715,1,0
160,224,47787,1,0
384,256,47858,5,8
384,256,47930,1,8
160,256,48001,5,0
384,256,48144,5,8
384,256,48287,1,8
160,256,48430,5,0
160,256,48715,1,0
192,256,48858,1,0
384,256,49001,5,8
160,256,49287,5,0
160,256,49430,1,0
160,256,49572,1,0
192,256,49644,1,0
160,256,49715,1,0
192,256,49787,1,0
160,256,49858,1,0
192,256,49930,1,0
160,256,50001,1,0
160,224,50072,1,0
384,256,50144,5,8
160,256,50287,5,0
192,256,50358,1,0
384,256,50430,5,8
384,256,50572,1,8
160,256,50715,5,4
384,256,51001,5,8
384,256,51287,1,8
384,256,51430,1,8
384,256,51572,1,8
384,256,51858,1,8
384,256,52001,1,8
384,256,52144,1,8
384,256,52430,1,8
384,256,52572,1,8
384,256,52715,1,8
96,96,53001,5,4
384,256,53287,5,8
384,256,53572,1,8
384,256,53715,1,8
384,256,53858,1,8
384,256,54144,1,8
384,256,54287,1,8
384,256,54430,1,8
384,256,54715,1,8
384,256,54858,1,8
384,256,55001,1,8
96,96,55287,5,4
384,256,55572,5,8
384,256,55858,1,8
384,256,56001,1,8
384,256,56144,1,8
384,256,56430,1,8
384,256,56572,1,8
384,256,56715,1,8
384,256,57001,1,8
384,256,57144,1,8
384,256,57287,1,8
96,96,57572,5,4
384,256,57858,5,8
160,224,58144,5,0
160,224,58287,1,0
384,256,58430,5,8
160,224,58715,5,0
160,224,58858,1,0
384,256,59001,5,8
128,256,59144,5,0
128,256,59215,1,0
352,256,59287,5,8
352,256,59358,1,8
352,256,59430,1,8
352,256,59501,1,8
352,256,59572,1,8
352,256,59644,1,8
352,256,59715,1,8
352,256,59787,1,8
128,256,59858,5,0
352,256,60144,5,8
96,256,60287,5,0
160,256,60572,1,0
352,224,60715,5,8
128,256,60858,5,0
128,256,61001,1,0
384,224,61287,5,8
192,256,61572,5,0
192,256,61715,1,0
384,224,61858,5,8
192,256,62144,5,0
384,192,62430,5,8
160,256,62572,5,0
192,256,62858,1,0
384,192,63001,5,8
224,256,63144,5,0
224,256,63287,1,0
384,160,63572,5,8
224,256,63858,5,0
224,256,64001,1,0
224,256,64072,1,0
384,256,64144,5,8
384,256,64287,1,8
224,256,64430,5,0
384,256,64715,5,8
224,256,65001,5,0
224,256,65144,1,0
416,224,65287,5,8
224,256,65430,5,0
224,256,65715,1,0
416,256,65858,5,8
224,256,66144,5,0
224,256,66215,1,0
224,256,66287,1,0
416,256,66430,5,8
416,256,66572,1,8
128,256,66715,5,0
416,224,67001,5,8
224,256,67287,5,0
224,256,67430,1,0
416,224,67572,5,8
256,256,67715,5,0
256,256,68001,1,0
416,224,68144,5,8
256,256,68287,5,0
256,256,68430,1,0
256,256,68501,1,0
256,256,68572,1,0
416,192,68715,5,8
416,192,68858,1,8
128,288,69001,5,0
384,224,69287,5,8
96,256,69430,5,0
128,288,69572,1,0
128,288,69644,1,0
128,288,69715,1,0
352,192,69858,5,8
128,256,70001,5,0
96,288,70287,1,0
352,256,70430,5,8
128,288,70572,5,0
128,288,70715,1,0
128,288,70787,1,0
128,288,70858,1,0
352,256,71001,5,8
352,256,71144,1,8
160,256,71287,5,0
352,224,71572,5,8
160,256,71715,5,0
160,256,71858,1,0
160,256,71930,1,0
160,256,72001,1,0
352,224,72144,5,8
160,256,72287,5,0
160,256,72572,1,0
320,192,72715,5,8
160,224,72858,5,0
160,224,73001,1,0
160,224,73072,1,0
160,224,73144,1,0
320,192,73287,5,8
320,192,73429,1,8
160,256,73572,5,0
384,288,73858,5,8
192,224,74144,5,0
192,224,74287,1,0
352,256,74429,5,8
192,192,74572,5,0
192,192,74858,1,0
352,256,75001,5,8
224,224,75144,5,0
192,224,75287,1,0
192,224,75358,1,0
192,224,75429,1,0
352,256,75572,5,8
352,256,75715,1,8
224,224,75858,5,0
352,256,76144,5,8
224,192,76429,5,0
224,192,76572,1,0
352,224,76715,5,8
192,192,76858,5,0
224,192,77144,1,0
352,224,77287,5,8
224,192,77429,5,0
224,192,77572,1,0
224,192,77644,1,0
224,192,77715,1,0
224,192,77787,1,0
352,224,77858,5,8
352,224,78001,1,8
128,288,78144,5,0
128,288,78287,1,0
128,288,78358,1,0
384,320,78429,5,8
128,256,78572,5,0
128,288,78715,1,0
128,288,78787,1,0
128,288,78858,1,0
384,320,79001,5,8
384,320,79144,1,8
160,288,79287,5,0
352,320,79572,5,8
160,288,79715,5,0
160,288,80001,1,0
352,288,80144,5,8
160,288,80429,5,0
160,288,80572,1,0
160,288,80644,1,0
352,256,80715,5,8
160,256,80858,5,0
160,256,81001,1,0
160,256,81072,1,0
160,256,81144,1,0
160,288,81215,1,0
352,256,81287,5,8
352,256,81429,1,8
160,256,81572,5,0
352,256,81858,5,8
160,256,82001,5,0
160,256,82287,1,0
352,256,82429,5,8
160,256,82715,5,0
160,256,82858,1,0
160,256,82929,1,0
384,352,83001,5,8
192,224,83144,5,0
192,224,83287,1,0
192,224,83358,1,0
192,224,83429,1,0
384,320,83572,5,8
384,320,83715,1,8
192,224,83858,5,0
384,320,84001,5,8
352,288,84072,1,8
192,224,84144,5,0
384,288,84287,5,8
224,160,84429,5,0
224,160,84501,1,0
224,160,84572,1,0
352,288,84715,5,8
352,256,84858,1,8
160,224,85001,5,0
128,288,85072,1,0
128,288,85144,1,0
128,288,85287,1,0
128,288,85429,1,0
128,288,85501,1,0
128,288,85572,1,0
128,288,85715,1,0
128,288,85858,1,0
128,288,85929,1,0
128,288,86001,1,0
128,288,86144,1,0
128,288,86287,1,0
128,288,86358,1,0
128,288,86429,1,0
128,288,86572,1,0
128,288,86715,1,0
128,288,86787,1,0
128,288,86858,1,0
128,288,86929,1,0
128,288,87001,1,0
128,288,87287,1,4
384,288,87572,5,8
128,256,87715,5,0
128,256,88001,1,0
416,288,88144,5,8
160,256,88429,5,0
160,256,88572,1,0
160,288,88644,1,0
416,288,88715,5,8
192,256,88858,5,0
192,256,89001,1,0
192,256,89072,1,0
192,256,89144,1,0
416,288,89287,5,8
416,288,89429,1,8
224,256,89572,5,0
416,288,89858,5,8
224,256,90001,5,0
224,256,90287,1,0
384,288,90429,5,8
224,256,90715,5,0
224,256,90858,1,0
224,256,90929,1,0
384,288,91001,5,8
224,224,91144,5,0
224,224,91287,1,0
224,224,91358,1,0
224,224,91429,1,0
128,256,91501,1,0
384,256,91572,5,8
384,256,91715,1,8
128,288,91858,5,4
384,288,92144,5,8
128,256,92287,5,0
128,256,92572,1,0
416,288,92715,5,8
160,256,93001,5,0
160,256,93144,1,0
160,256,93215,1,0
416,288,93287,5,8
192,256,93429,5,0
192,256,93572,1,0
192,256,93644,1,0
192,256,93715,1,0
416,288,93858,5,8
416,288,94001,1,8
224,256,94144,5,0
416,288,94429,5,8
224,256,94572,5,0
224,256,94858,1,0
384,288,95001,5,8
224,256,95287,5,0
224,256,95429,1,0
224,256,95501,1,0
384,288,95572,5,8
224,224,95715,5,0
224,224,95858,1,0
224,224,95929,1,0
224,224,96001,1,0
224,256,96072,1,0
384,256,96144,5,8
384,256,96287,1,8
384,256,96358,1,8
224,224,96429,5,0
384,256,96715,5,8
224,224,97001,5,0
224,224,97144,1,0
384,256,97287,5,8
128,288,97572,5,0
128,288,97715,1,0
384,256,97858,5,8
128,256,98144,5,0
128,256,98287,1,0
384,256,98429,5,8
224,224,98715,5,0
384,256,99001,5,8
224,224,99287,5,0
224,224,99429,1,0
384,256,99572,5,8
128,288,99858,5,0
128,288,100001,1,0
384,256,100144,5,8
128,256,100429,5,0
128,256,100572,1,0
384,256,100715,5,8
384,256,100858,1,8
224,224,101001,5,0
384,256,101287,5,8
224,224,101572,5,0
224,224,101715,1,0
384,256,101858,5,8
128,288,102144,5,0
128,288,102287,1,0
384,256,102429,5,8
128,256,102715,5,0
128,256,102858,1,0
384,256,103001,5,8
224,224,103287,5,0
384,256,103572,5,8
224,224,103858,5,0
224,224,104001,1,0
384,256,104144,5,8
128,288,104429,5,0
128,288,104572,1,0
384,256,104715,5,8
384,256,104858,1,8
128,256,105001,5,0
128,256,105072,1,0
128,256,105144,1,0
384,256,105287,5,8
384,256,105358,1,8
384,256,105429,1,8
128,256,105572,5,4
160,256,105858,1,0
384,256,106144,5,8
160,256,106429,5,0
160,256,106572,1,0
160,256,106715,1,0
160,256,106858,1,0
160,256,107001,1,0
160,256,107144,1,0
160,224,107215,1,0
384,256,107287,5,8
160,256,107429,5,0
160,256,107572,1,0
160,256,107858,1,4
160,256,108144,1,0
384,256,108429,5,8
160,256,108715,5,0
160,256,108858,1,0
160,256,109001,1,0
160,256,109144,1,0
160,256,109287,1,0
160,256,109429,1,0
160,224,109501,1,0
384,256,109572,5,8
160,256,109715,5,0
160,256,109787,1,0
384,256,109858,5,8
384,256,110001,1,8
160,256,110144,5,4
160,256,110429,1,0
384,256,110715,5,8
160,256,111001,5,0
160,256,111144,1,0
160,256,111287,1,0
160,256,111429,1,0
160,256,111572,1,0
160,256,111715,1,0
160,224,111787,1,0
384,256,111858,5,8
384,256,111929,1,8
160,256,112001,5,0
384,256,112144,5,8
384,256,112287,1,8
160,256,112429,5,4
160,256,112715,1,0
192,256,112858,1,0
384,256,113001,5,8
160,256,113287,5,0
160,256,113429,1,0
160,256,113572,1,0
192,256,113644,1,0
160,256,113715,1,0
192,256,113787,1,0
160,256,113858,1,0
192,256,113929,1,0
160,256,114001,1,0
160,224,114072,1,0
384,256,114144,5,8
160,256,114287,5,0
192,256,114358,1,0
384,256,114429,5,8
384,256,114572,1,8
160,256,114715,5,4
384,256,115001,5,8
384,256,115287,1,8
384,256,115429,1,8
384,256,115572,1,8
384,256,115858,1,8
384,256,116001,1,8
384,256,116144,1,8
384,256,116429,1,8
384,256,116572,1,8
384,256,116715,1,8
96,96,117001,5,4
384,256,117287,5,8
384,256,117572,1,8
384,256,117715,1,8
384,256,117858,1,8
384,256,118144,1,8
384,256,118287,1,8
384,256,118429,1,8
384,256,118715,1,8
384,256,118858,1,8
384,256,119001,1,8
96,96,119287,5,4
384,256,119572,5,8
384,256,119858,1,8
384,256,120001,1,8
384,256,120144,1,8
384,256,120429,1,8
384,256,120572,1,8
384,256,120715,1,8
384,256,121001,1,8
384,256,121144,1,8
384,256,121287,1,8
96,96,121572,5,4
384,256,121858,5,8
160,224,122144,5,0
160,224,122287,1,0
384,256,122429,5,8
160,224,122715,5,0
160,224,122858,1,0
384,256,123001,5,8
128,256,123144,5,0
128,256,123215,1,0
352,256,123287,5,8
352,256,123358,1,8
352,256,123429,1,8
352,256,123501,1,8
352,256,123572,1,8
352,256,123644,1,8
352,256,123715,1,8
352,256,123787,1,8
128,256,123858,5,0
352,256,124144,5,8
96,256,124287,5,0
160,256,124572,1,0
352,224,124715,5,8
128,256,124858,5,0
128,256,125001,1,0
128,256,125072,1,0
128,256,125144,1,0
384,224,125287,5,8
352,224,125429,1,8
192,256,125572,5,0
192,256,125715,1,0
384,224,125858,5,8
192,256,126144,5,0
384,192,126429,5,8
160,256,126572,5,0
192,256,126858,1,0
384,192,127001,5,8
224,256,127144,5,0
224,256,127287,1,0
224,256,127358,1,0
224,256,127429,1,0
384,160,127572,5,8
384,256,127715,1,8
224,256,127858,5,0
224,256,128001,1,0
224,256,128072,1,0
384,256,128144,5,8
384,256,128287,1,8
224,256,128429,5,0
384,256,128715,5,8
224,256,128858,5,0
224,256,129001,1,0
224,256,129072,1,0
224,256,129144,1,0
416,224,129287,5,8
224,256,129429,5,0
224,256,129715,1,0
416,256,129858,5,8
128,256,130001,5,0
224,256,130144,1,0
224,256,130215,1,0
224,256,130287,1,0
416,256,130429,5,8
416,256,130572,1,8
128,256,130715,5,0
416,224,131001,5,8
224,256,131287,5,0
224,256,131429,1,0
128,256,131501,1,0
416,224,131572,5,8
256,256,131715,5,0
128,256,131858,1,0
128,256,131929,1,0
256,256,132001,1,0
416,224,132144,5,8
256,256,132287,5,0
416,224,132429,5,8
416,224,132501,1,8
128,256,132572,5,0
416,192,132715,5,8
416,192,132858,1,8
128,288,133001,5,0
384,224,133287,5,8
96,256,133429,5,0
128,288,133572,1,0
128,288,133644,1,0
128,288,133715,1,0
352,192,133858,5,8
128,256,134001,5,0
96,288,134287,1,0
352,256,134429,5,8
128,288,134572,5,0
128,288,134715,1,0
128,288,134787,1,0
128,288,134858,1,0
352,256,135001,5,8
352,256,135144,1,8
160,256,135287,5,0
352,224,135572,5,8
160,256,135715,5,0
160,256,135858,1,0
160,256,135929,1,0
160,256,136001,1,0
352,224,136144,5,8
160,256,136287,5,0
160,256,136572,1,0
320,192,136715,5,8
160,224,136858,5,0
160,224,137001,1,0
160,224,137072,1,0
160,224,137144,1,0
160,256,137215,1,0
320,192,137287,5,8
320,192,137429,1,8
160,256,137572,5,0
384,288,137858,5,8
160,224,138001,5,0
192,224,138144,1,0
224,256,138215,1,0
192,224,138287,1,0
352,256,138429,5,8
192,192,138572,5,0
192,192,138858,1,0
352,256,139001,5,8
224,224,139144,5,0
192,224,139287,1,0
192,224,139358,1,0
192,224,139429,1,0
352,256,139572,5,8
352,256,139715,1,8
224,224,139858,5,0
192,224,139929,1,0
192,224,140001,1,0
352,256,140144,5,8
192,224,140287,5,0
192,224,140358,1,0
224,192,140429,1,0
224,192,140572,1,0
352,224,140715,5,8
192,192,140858,5,0
192,192,140929,1,0
192,192,141001,1,0
224,192,141144,1,0
352,224,141287,5,8
224,192,141429,5,0
224,192,141572,1,0
224,192,141644,1,0
224,192,141715,1,0
224,192,141787,1,0
352,224,141858,5,8
352,224,142001,1,8
128,288,142144,5,0
128,288,142287,1,0
128,288,142358,1,0
384,320,142429,5,8
128,256,142572,5,0
128,288,142715,1,0
128,288,142787,1,0
128,288,142858,1,0
384,320,143001,5,8
384,320,143144,1,8
160,288,143287,5,0
352,320,143572,5,8
160,288,143715,5,0
128,288,143858,1,0
128,288,143929,1,0
160,288,144001,1,0
352,288,144144,5,8
160,288,144429,5,0
160,288,144572,1,0
160,288,144644,1,0
352,256,144715,5,8
160,256,144858,5,0
160,256,145001,1,0
160,256,145072,1,0
160,256,145144,1,0
160,288,145215,1,0
352,256,145287,5,8
352,256,145429,1,8
160,256,145572,5,0
352,256,145858,5,8
160,256,146001,5,0
160,256,146072,1,0
160,256,146144,1,0
160,256,146287,1,0
352,256,146429,5,8
160,256,146715,5,0
160,256,146858,1,0
160,256,146929,1,0
384,352,147001,5,8
192,224,147144,5,0
192,224,147287,1,0
192,224,147358,1,0
192,224,147429,1,0
160,256,147501,1,0
384,320,147572,5,8
384,320,147715,1,8
192,224,147858,5,0
384,320,148001,5,8
352,288,148072,1,8
192,224,148144,5,0
384,288,148287,5,8
224,160,148429,5,0
224,160,148501,1,0
224,160,148572,1,0
128,288,148644,1,0
352,288,148715,5,8
352,256,148858,1,8
160,224,149001,5,0
128,288,149072,1,0
128,288,149144,1,0
128,288,149287,1,0
128,288,149429,1,0
128,288,149501,1,0
128,288,149572,1,0
128,288,149715,1,0
128,288,149858,1,0
128,288,149929,1,0
128,288,150001,1,0
128,288,150144,1,0
128,288,150287,1,0
128,288,150358,1,0
128,288,150429,1,0
128,288,150572,1,0
128,288,150715,1,0
128,288,150787,1,0
128,288,150858,1,0
128,288,150929,1,0
128,288,151001,1,0
128,288,151287,1,4
384,288,151572,5,8
128,256,151715,5,0
128,256,152001,1,0
416,288,152144,5,8
160,256,152429,5,0
160,256,152572,1,0
160,288,152644,1,0
416,288,152715,5,8
192,256,152858,5,0
192,256,153001,1,0
192,256,153072,1,0
192,256,153144,1,0
416,288,153287,5,8
416,288,153429,1,8
224,256,153572,5,0
416,288,153858,5,8
224,256,154001,5,0
224,256,154287,1,0
384,288,154429,5,8
224,256,154715,5,0
224,256,154858,1,0
224,256,154929,1,0
384,288,155001,5,8
224,224,155144,5,0
384,256,155287,5,8
384,256,155358,1,8
128,256,155429,5,0
384,256,155572,5,8
384,256,155715,1,8
128,288,155858,5,4
384,288,156144,5,8
128,256,156287,5,0
128,256,156572,1,0
416,288,156715,5,8
160,256,157001,5,0
160,256,157144,1,0
160,256,157215,1,0
416,288,157287,5,8
192,256,157429,5,0
192,256,157572,1,0
192,256,157644,1,0
192,256,157715,1,0
416,288,157858,5,8
416,288,158001,1,8
224,256,158144,5,0
416,288,158429,5,8
224,256,158572,5,0
224,256,158858,1,0
384,288,159001,5,8
224,256,159287,5,0
224,256,159429,1,0
224,256,159501,1,0
384,288,159572,5,8
224,224,159715,5,0
384,224,159858,5,8
384,224,159929,1,8
224,224,160001,5,0
224,256,160072,1,0
384,256,160144,5,8
384,256,160287,1,8
384,256,160358,1,8
224,224,160429,5,0
384,256,160715,5,8
384,256,160858,1,8
384,256,161001,1,8
384,256,161144,1,8
384,256,161287,1,8
128,288,161572,5,0
128,288,161858,1,0
384,256,162144,5,8
384,256,162287,1,8
384,256,162429,1,8
96,320,162715,5,0
384,256,163001,5,8
384,256,163144,1,8
384,256,163287,1,8
384,256,163429,1,8
384,256,163572,1,8
128,288,163858,5,0
128,288,164144,1,0
384,256,164429,5,8
384,256,164572,1,8
384,256,164715,1,8
96,320,165001,5,0
384,256,165287,5,8
384,256,165429,1,8
384,256,165572,1,8
384,256,165715,1,8
384,256,165858,1,8
128,288,166144,5,0
128,288,166429,1,0
384,256,166715,5,8
384,256,166858,1,8
384,256,167001,1,8
96,320,167287,5,0
384,256,167572,5,8
384,256,167715,1,8
384,256,167858,1,8
384,256,168001,1,8
384,256,168144,1,8
96,320,168429,5,0
96,320,168501,1,0
96,320,168572,1,0
96,320,168644,1,0
96,288,168715,1,0
96,320,168787,1,0
96,320,168858,1,0
96,320,168929,1,0
96,288,169001,1,0
96,288,169072,1,0
96,288,169144,1,0
96,288,169215,1,0
96,288,169287,1,0
96,288,169358,1,0
96,320,169429,1,0
96,288,169501,1,0
384,256,169572,5,8
96,288,169715,5,0
384,256,169858,5,8
96,288,170001,5,0
384,256,170144,5,8
384,256,170287,1,8
160,224,170429,5,0
352,224,170572,5,8
96,288,170715,5,0
352,224,170858,5,8
192,224,171001,5,0
352,224,171144,5,8
352,224,171287,1,8
96,288,171429,5,0
352,192,171572,5,8
352,224,171715,1,8
128,256,171858,5,0
96,256,172001,1,0
352,224,172144,5,8
128,320,172287,5,0
384,224,172429,5,8
160,288,172572,5,0
160,288,172715,1,0
352,256,172858,5,8
96,288,173001,5,0
320,224,173144,5,8
320,224,173287,1,8
160,288,173429,5,0
320,224,173572,5,8
160,320,173715,5,0
320,224,173858,5,8
320,224,174001,1,8
160,288,174144,5,0
192,256,174287,1,0
320,192,174429,5,8
160,224,174572,5,0
320,192,174715,5,8
320,192,174858,1,8
160,224,175001,5,0
320,192,175144,5,8
160,224,175287,5,0
320,192,175430,5,8
320,192,175572,1,8
160,192,175715,5,0
288,160,175858,5,8
320,160,176001,1,8
320,160,176144,1,8
160,192,176287,5,0
160,192,176430,1,0
320,160,176572,5,8
192,192,176715,5,0
320,160,176858,5,8
320,160,177001,1,8
192,160,177144,5,0
288,96,177287,5,8
192,128,177430,5,0
192,128,177572,1,0
352,288,177715,5,8
352,288,177858,1,8
160,288,178001,5,0
352,288,178144,5,8
192,288,178287,5,0
352,288,178430,5,8
352,288,178572,1,8
160,256,178715,5,0
160,288,178858,1,0
160,288,178930,1,0
160,288,179001,1,0
160,288,179144,1,0
160,288,179215,1,0
352,256,179287,5,8
192,256,179430,5,0
192,256,179501,1,0
192,256,179572,1,0
192,256,179715,1,0
192,256,179787,1,0
192,256,179858,1,0
192,256,180001,1,0
192,256,180072,1,0
192,256,180144,1,0
192,256,180287,1,0
192,256,180358,1,0
384,288,180430,5,8
160,288,180572,5,0
160,288,180644,1,0
160,288,180715,1,0
160,288,180858,1,0
160,288,180930,1,0
160,288,181001,1,0
160,288,181144,1,0
160,288,181215,1,0
160,288,181287,1,0
160,288,181430,1,0
192,288,181501,1,0
384,256,181572,5,8
160,288,181715,5,0
160,288,181787,1,0
160,288,181858,1,0
160,288,182001,1,0
160,288,182072,1,0
160,288,182144,1,0
160,288,182215,1,0
160,288,182287,1,0
160,288,182358,1,0
160,288,182430,1,0
160,288,182501,1,0
160,288,182572,1,0
160,288,182644,1,0
160,288,182715,1,0
192,288,182787,1,0
192,288,182858,1,0
192,288,182930,1,0
192,288,183001,1,0
192,288,183072,1,0
192,288,183144,1,0
192,288,183215,1,0
192,288,183287,1,0
416,288,183430,5,8
384,288,183572,1,8
192,288,183715,5,0
384,288,183858,5,8
192,288,184001,5,0
192,288,184144,1,0
384,256,184287,5,8
192,288,184430,5,0
384,288,184572,5,8
384,288,184715,1,8
192,288,184858,5,0
384,256,185001,5,8
384,256,185072,1,8
384,256,185144,1,8
192,288,185287,5,0
192,288,185358,1,0
192,288,185430,1,0
160,224,185572,1,0
416,256,185715,5,8
192,256,185858,5,0
192,256,186001,1,0
416,224,186144,5,8
160,224,186287,5,0
384,256,186430,5,8
384,256,186572,1,8
160,224,186715,5,0
416,256,186858,5,8
160,192,187001,5,0
160,224,187144,1,0
160,224,187215,1,0
352,256,187287,5,8
160,224,187430,5,0
160,224,187501,1,0
352,256,187572,5,8
352,256,187715,1,8
160,224,187858,5,4
384,288,188001,5,8
384,256,188144,1,8
160,224,188287,5,0
384,256,188430,5,8
192,224,188572,5,0
192,224,188715,1,0
352,224,188858,5,8
192,224,189001,5,0
352,224,189144,5,8
352,224,189287,1,8
160,192,189430,5,0
352,192,189572,5,8
352,192,189644,1,8
160,160,189715,5,0
352,192,189858,5,8
352,192,189930,1,8
352,192,190001,1,8
128,288,190144,5,0
128,288,190287,1,0
416,288,190430,5,8
416,288,190572,1,8
128,288,190715,5,0
384,288,190858,5,8
128,288,191001,5,0
128,288,191144,1,0
352,288,191287,5,8
128,256,191430,5,0
352,256,191572,5,8
352,288,191715,1,8
192,256,191858,5,0
128,288,191930,1,0
352,256,192001,5,8
128,256,192144,5,0
128,288,192215,1,0
128,256,192287,1,0
128,288,192430,1,0
128,288,192572,1,0
128,288,192644,1,0
352,288,192715,5,8
160,288,192787,5,0
128,288,192858,1,0
128,288,193001,1,0
128,288,193144,1,0
128,288,193215,1,0
320,256,193287,5,8
160,256,193358,5,0
160,256,193430,1,0
160,256,193572,1,0
160,256,193715,1,0
160,256,193787,1,0
288,256,193858,5,8
160,256,193930,5,0
160,256,194001,1,0
160,256,194144,1,0
160,256,194287,1,0
160,256,194358,1,0
288,256,194430,5,8
160,256,194501,5,0
160,256,194572,1,0
160,256,194715,1,0
160,256,194858,1,0
160,256,194930,1,0
288,256,195001,5,8
160,256,195072,5,0
160,256,195144,1,0
160,256,195287,1,0
160,256,195430,1,0
160,256,195501,1,0
288,256,195572,5,8
160,256,195644,5,0
160,256,195715,1,0
160,256,195858,1,0
160,256,195930,1,0
160,256,196001,1,0
160,256,196072,1,0
160,256,196144,1,0
160,256,196215,1,0
160,256,196287,1,0
160,256,196358,1,0
160,256,196430,1,0
160,256,196501,1,0
160,256,196572,1,0
160,256,196644,1,0
160,256,196715,1,0
160,256,196787,1,0
160,256,196858,1,0
160,256,196930,1,0
160,256,197001,1,0
384,256,197572,5,8
160,256,198144,5,0
160,256,198572,1,0
160,256,199001,1,0
160,256,199287,1,4
384,256,199858,5,8
160,256,200430,5,0
160,256,200858,1,0
160,256,201144,1,0
384,256,201287,5,8
384,256,201358,1,8
384,256,201430,1,8
384,256,201501,1,8
160,256,201572,5,0
160,256,201715,1,0
160,256,201787,1,0
384,256,201858,5,8
128,256,202001,5,0
160,256,202144,1,0
160,256,202215,1,0
160,256,202287,1,0
384,256,202430,5,8
384,256,202572,1,8
160,256,202715,5,0
384,256,202858,5,8
384,256,202930,1,8
160,256,203001,5,0
384,256,203144,5,8
192,256,203287,5,0
192,256,203358,1,0
192,256,203430,1,0
352,256,203572,5,8
384,256,203715,1,8
192,256,203858,5,0
192,256,204001,1,0
192,256,204072,1,0
352,224,204144,5,8
192,288,204287,5,0
192,256,204430,1,0
192,256,204501,1,0
192,256,204572,1,0
352,224,204715,5,8
352,224,204858,1,8
224,256,205001,5,0
320,192,205144,5,8
320,192,205215,1,8
224,256,205287,5,0
352,160,205430,5,8
224,288,205572,5,0
384,224,205715,5,8
384,224,205787,1,8
224,224,205858,5,0
384,160,206001,5,8
160,288,206144,5,0
160,288,206287,1,0
160,288,206358,1,0
384,320,206430,5,8
160,288,206572,5,0
160,288,206715,1,0
160,288,206787,1,0
192,288,206858,1,0
384,320,207001,5,8
384,320,207144,1,8
160,288,207287,5,0
384,320,207430,5,8
384,320,207501,1,8
160,288,207572,5,0
320,320,207715,5,8
160,288,207858,5,0
160,288,207930,1,0
160,288,208001,1,0
160,288,208072,1,0
320,320,208144,5,8
320,320,208287,1,8
160,288,208430,5,0
160,288,208572,1,0
160,288,208644,1,0
416,224,208715,5,8
160,288,208858,5,0
448,256,209001,5,8
448,256,209072,1,8
128,256,209144,5,0
384,224,209287,5,8
416,224,209430,1,8
160,288,209572,5,0
416,224,209715,5,8
384,224,209787,1,8
160,288,209858,5,0
416,224,210001,5,8
160,288,210144,5,0
160,288,210215,1,0
160,288,210287,1,0
160,288,210358,1,0
320,224,210430,5,8
384,224,210572,1,8
320,224,210644,1,8
160,256,210715,5,0
160,256,210858,1,0
320,224,211001,5,8
192,256,211144,5,0
192,256,211287,1,0
192,256,211358,1,0
192,256,211430,1,0
288,224,211572,5,8
192,256,211715,5,0
192,256,211858,1,0
192,256,212001,1,0
192,256,212072,1,0
256,192,212144,5,8
160,192,212287,5,0
160,192,212430,1,0
160,192,212501,1,0
160,192,212572,1,0
256,192,212715,5,8
256,192,212858,1,8
160,192,213001,5,0
352,288,213144,5,8
352,288,213215,1,8
352,288,213287,1,8
128,320,213430,5,0
352,256,213572,5,8
352,256,213644,1,8
128,320,213715,5,0
352,224,213858,5,8
352,224,214001,1,8
128,320,214144,5,0
128,320,214287,1,0
128,320,214358,1,0
352,256,214430,5,8
128,320,214572,5,0
128,320,214715,1,0
128,320,214787,1,0
128,320,214858,1,0
352,224,215001,5,8
352,224,215144,1,8
128,320,215287,5,0
128,320,215430,1,0
128,320,215501,1,0
320,224,215572,5,8
128,320,215715,5,0
128,320,215858,1,0
128,320,215930,1,0
128,288,216001,1,0
320,192,216144,5,8
96,320,216287,5,0
320,192,216430,5,8
320,192,216501,1,8
128,288,216572,5,0
320,192,216715,5,8
128,256,216858,5,0
288,192,217001,5,8
288,192,217072,1,8
160,224,217144,5,0
288,192,217287,5,8
288,192,217430,1,8
160,224,217572,5,0
288,192,217715,5,8
288,192,217787,1,8
288,192,217858,1,8
160,224,218001,5,0
288,192,218144,5,8
160,224,218287,5,0
160,224,218358,1,0
160,224,218430,1,0
256,192,218572,5,8
160,320,218715,5,0
160,320,218858,1,0
160,320,218930,1,0
320,288,219001,5,8
160,320,219144,5,0
320,288,219287,5,8
320,288,219358,1,8
160,320,219430,5,0
320,288,219572,5,8
320,288,219715,1,8
192,320,219858,5,0
160,320,220001,1,0
160,320,220072,1,0
320,288,220144,5,8
192,320,220287,5,0
192,320,220430,1,0
192,320,220501,1,0
192,320,220572,1,0
320,288,220715,5,8
192,320,220858,5,0
192,320,221001,1,0
192,320,221144,1,0
192,320,221215,1,0
320,288,221287,5,8
224,320,221430,5,0
320,320,221572,5,8
320,320,221644,1,8
192,288,221715,5,0
352,320,221858,5,8
352,320,222001,1,8
192,288,222144,5,0
192,288,222287,1,0
192,288,222358,1,0
320,288,222430,5,8
192,256,222572,5,0
352,288,222715,5,8
352,288,222787,1,8
192,256,222858,5,0
352,288,223001,5,8
352,288,223144,1,8
224,256,223287,5,0
224,256,223430,1,0
192,256,223501,1,0
352,256,223572,5,8
224,224,223715,5,0
224,224,223858,1,0
224,224,223930,1,0
224,224,224001,1,0
352,256,224144,5,8
352,256,224215,1,8
224,224,224287,5,0
352,256,224430,5,8
160,256,224572,5,0
160,256,224644,1,0
352,224,224715,5,8
160,256,224858,5,0
160,256,224930,1,0
352,256,225001,5,8
160,256,225144,5,0
160,256,225215,1,0
352,256,225287,5,8
160,256,225430,5,0
160,224,225501,1,0
384,288,225572,5,8
160,256,225715,5,0
160,256,225787,1,0
352,256,225858,5,8
160,256,226001,5,0
160,256,226072,1,0
352,256,226144,5,8
160,256,226287,5,0
160,256,226358,1,0
160,256,226430,1,0
192,256,226501,1,0
192,256,226572,1,0
192,256,226644,1,0
384,288,226715,5,8
160,256,226858,5,0
160,256,226930,1,0
352,256,227001,5,8
192,224,227144,5,0
192,224,227215,1,0
384,256,227287,5,8
192,256,227430,5,0
192,256,227501,1,0
384,224,227572,5,8
192,224,227715,5,0
192,224,227787,1,0
352,256,227858,5,8
192,224,228001,5,0
192,224,228072,1,0
416,224,228144,5,8
192,224,228287,5,0
192,224,228358,1,0
384,256,228430,5,8
192,224,228572,5,0
192,224,228644,1,0
416,256,228715,5,8
384,256,228787,1,8
288,192,228858,1,8
288,192,228930,1,8
160,192,229001,5,0
160,288,229144,1,0
160,288,229215,1,0
320,256,229287,5,8
160,288,229430,5,0
160,288,229572,1,0
160,288,229644,1,0
160,288,229715,1,0
320,256,229858,5,8
192,288,230001,5,0
192,288,230144,1,0
192,288,230215,1,0
192,288,230287,1,0
320,256,230430,5,8
320,256,230572,1,8
192,256,230715,5,0
192,256,230858,1,0
192,256,230930,1,0
288,256,231001,5,8
320,256,231144,1,8
192,256,231287,5,0
192,256,231358,1,0
192,256,231430,1,0
320,224,231572,5,8
192,256,231715,5,0
192,256,231858,1,0
192,256,231930,1,0
192,256,232001,1,0
320,192,232144,5,8
320,192,232287,1,8
192,224,232430,5,0
192,224,232572,1,0
192,224,232644,1,0
320,192,232715,5,8
192,192,232858,5,0
288,160,233001,5,8
288,160,233072,1,8
192,192,233144,5,0
320,128,233287,5,8
320,128,233430,1,8
128,320,233572,5,0
128,320,233715,1,0
128,320,233787,1,0
352,288,233858,5,8
352,288,234001,1,8
160,288,234144,5,0
160,288,234287,1,0
160,288,234358,1,0
352,288,234430,5,8
352,288,234572,1,8
160,288,234715,5,0
160,288,234787,1,0
160,288,234858,1,0
352,288,235001,5,8
192,288,235144,5,0
192,288,235287,1,0
192,288,235358,1,0
192,288,235430,1,0
352,288,235572,5,8
192,256,235715,5,0
192,256,235858,1,0
352,288,236001,5,8
352,256,236072,1,8
192,224,236144,5,0
384,256,236287,5,8
192,224,236430,5,0
384,256,236572,5,8
384,256,236644,1,8
192,224,236715,5,0
352,288,236858,5,8
192,224,237001,5,0
192,224,237072,1,0
352,256,237144,5,8
192,224,237287,5,0
352,256,237430,5,8
224,224,237572,5,0
224,224,237644,1,0
352,256,237715,5,8
192,224,237858,5,0
352,256,238001,5,8
128,288,238144,5,0
128,288,238215,1,0
128,288,238287,1,0
320,256,238430,5,8
128,288,238572,5,0
352,224,238715,5,8
352,224,238787,1,8
352,224,238858,1,8
128,288,239001,5,0
352,256,239144,5,8
128,288,239287,5,0
128,288,239430,1,0
128,288,239501,1,0
352,256,239572,5,8
352,256,239715,1,8
352,256,239787,1,8
128,288,239858,5,0
128,288,240001,1,0
128,288,240072,1,0
352,256,240144,5,8
352,256,240287,1,8
160,288,240430,5,0
160,288,240501,1,0
160,288,240572,1,0
160,288,240715,1,0
160,288,240858,1,0
160,288,240930,1,0
160,288,241001,1,0
160,288,241144,1,0
160,288,241287,1,0
160,288,241358,1,0
160,288,241430,1,0
160,288,241572,1,0
160,288,241715,1,0
160,288,241787,1,0
160,288,241858,1,0
160,288,242001,1,0
160,288,242144,1,0
160,288,242215,1,0
160,288,242287,1,0
160,288,242358,1,0
384,288,242430,5,8
384,288,242501,1,8
384,288,242572,1,8
384,288,242644,1,8
128,288,242715,5,0
384,288,243001,5,8
128,288,243287,5,0
128,288,243430,1,0
384,288,243572,5,8
128,256,243715,5,0
128,256,244001,1,0
384,288,244144,5,8
160,224,244287,5,0
160,224,244430,1,0
160,224,244501,1,0
160,224,244572,1,0
160,224,244644,1,0
384,288,244715,5,8
160,224,244858,5,0
160,224,244930,1,0
160,224,245001,1,0
384,288,245287,5,8
128,288,245572,5,0
128,288,245715,1,0
384,288,245858,5,8
128,256,246001,5,0
128,256,246287,1,0
384,288,246430,5,8
160,224,246572,5,0
160,224,246715,1,0
160,224,246787,1,0
160,224,246858,1,0
160,224,246930,1,0
384,288,247001,5,8
384,288,247144,1,8
128,288,247287,5,0
384,288,247572,5,8
128,288,247715,5,0
128,288,247858,1,0
128,288,247930,1,0
128,288,248001,1,0
384,288,248144,5,8
128,256,248287,5,0
128,256,248572,1,0
384,288,248715,5,8
160,224,248858,5,0
160,224,249001,1,0
160,224,249072,1,0
160,224,249144,1,0
160,224,249215,1,0
384,288,249287,5,8
160,224,249430,5,0
160,224,249501,1,0
128,288,249572,21,0
384,288,249858,5,8
128,320,250001,5,0
128,288,250144,1,0
128,288,250215,1,0
128,288,250287,1,0
384,288,250430,5,8
128,256,250572,5,0
128,256,250858,1,0
384,288,251001,5,8
160,224,251144,5,0
160,224,251287,1,0
160,224,251358,1,0
160,224,251430,1,0
160,224,251501,1,0
384,288,251572,5,8
160,224,251715,5,0
160,224,251787,1,0
384,320,251858,5,8
192,224,252001,5,0
192,224,252072,1,0
384,288,252144,5,8
192,224,252287,5,0
192,224,252358,1,0
384,288,252430,5,8
192,192,252572,5,0
192,192,252644,1,0
192,192,252715,1,0
192,192,252787,1,0
192,192,252858,1,0
192,192,252930,1,0
384,288,253001,5,8
160,224,253144,5,0
160,224,253215,1,0
384,256,253287,5,8
192,192,253430,5,0
416,256,253572,5,8
384,256,253644,1,8
160,192,253715,5,0
384,256,253858,5,8
192,192,254001,5,0
192,192,254072,1,0
416,224,254144,5,8
192,192,254287,5,0
192,192,254358,1,0
384,224,254430,5,8
192,192,254572,5,0
192,160,254644,1,0
416,224,254715,5,8
256,160,254858,5,0
224,160,254930,1,0
224,160,255001,1,0
224,160,255072,1,0
224,160,255144,1,0
224,160,255215,1,0
384,192,255287,5,8
256,160,255430,5,0
256,160,255501,1,0
384,192,255572,5,8
224,160,255715,5,0
352,192,255858,5,8
352,192,255930,1,8
224,128,256001,5,0
384,192,256144,5,8
192,128,256287,5,0
192,128,256358,1,0
384,320,256430,5,8
192,224,256572,5,0
192,224,256644,1,0
384,288,256715,5,8
384,288,256787,1,8
192,224,256858,5,0
192,224,256930,1,0
384,288,257001,5,8
192,192,257144,5,0
192,192,257215,1,0
192,192,257287,1,0
192,192,257358,1,0
192,192,257430,1,0
192,192,257501,1,0
384,288,257572,5,8
160,224,257715,5,0
160,224,257787,1,0
384,256,257858,5,8
416,224,257930,1,8
192,192,258001,5,0
416,256,258144,5,8
384,256,258215,1,8
160,192,258287,5,0
160,224,258358,1,0
384,256,258430,5,8
192,192,258572,5,0
192,192,258644,1,0
416,224,258715,5,8
128,288,258787,5,0
128,288,258858,1,0
384,288,258930,5,8
128,288,259001,5,0
384,288,259072,5,8
384,288,259144,1,8
96,288,259215,5,0
384,256,259287,5,8
128,288,259358,5,0
128,288,259430,1,0
352,256,259501,5,8
128,288,259572,5,0
352,224,259644,5,8
192,288,259715,5,0
384,256,259858,5,8
384,256,259930,1,8
224,288,260001,5,0
352,224,260072,5,8
192,288,260144,5,0
192,288,260215,1,0
352,224,260287,5,8
224,256,260358,5,0
352,224,260430,5,8
128,288,260501,5,0
128,288,260572,1,0
352,224,260644,5,8
224,256,260715,5,0
224,256,260787,1,0
352,224,260858,5,8
352,224,260930,1,8
224,256,261001,5,0
224,256,261144,1,0
224,256,261287,1,0
352,224,261430,5,8
352,224,261715,1,8
128,256,261858,5,0
384,224,262001,5,8
224,256,262144,5,0
128,256,262287,1,0
128,256,262430,1,0
352,224,262572,5,8
352,224,262858,1,8
128,256,263001,5,0
320,192,263144,5,8
128,256,263287,5,0
128,256,263572,1,0
320,192,263715,5,8
320,192,264001,1,8
128,256,264144,5,0
128,256,264430,1,0
128,256,264715,1,0
320,192,264858,5,8
320,192,265144,1,8
128,256,265287,5,0
128,256,265572,1,0
352,256,266001,5,8
352,224,266430,1,8
128,256,266715,5,0
352,224,267144,5,8
352,224,267572,1,8
128,256,267858,5,0
352,224,268287,5,8
128,256,269001,5,0
128,256,270144,1,0
