osu file format v9

[General]
AudioFilename: 01 - Gothic Lolita Doctrine.mp3
AudioLeadIn: 0
PreviewTime: 39116
Countdown: 0
SampleSet: Normal
StackLeniency: 0.7
Mode: 0
LetterboxInBreaks: 0

[Editor]
Bookmarks: 59534
DistanceSpacing: 1
BeatDivisor: 4
GridSize: 4

[Metadata]
Title:Gothic Lolita Doctrine
Artist:Yousei Teikoku
Creator:KuraiPettan
Version:Easy
Source:
Tags:Fairy Yui Itsuki

[Difficulty]
HPDrainRate:1
CircleSize:3
OverallDifficulty:1
ApproachRate:2
SliderMultiplier:1.1
SliderTickRate:2

[Events]
//Background and Video events
0,0,"Gothic Lolita Doctrine.jpg"
//Break Periods
2,29733,35174
//Storyboard Layer 0 (Background)
//Storyboard Layer 1 (Fail)
//Storyboard Layer 2 (Pass)
//Storyboard Layer 3 (Foreground)
//Storyboard Sound Samples
//Background Colour Transformations
3,100,163,162,255

[TimingPoints]
734,600,4,1,2,80,1,0
8534,-100,4,1,2,40,0,0
8834,-100,4,1,2,45,0,0
9134,-100,4,1,2,60,0,0
9434,-100,4,1,2,65,0,0
9734,-100,4,1,2,70,0,0
10034,-100,4,1,2,75,0,0
10334,-100,4,1,0,80,0,0
39134,-90.9090909090909,4,1,0,80,0,0
77534,-90.9090909090909,4,1,0,80,0,1
96659,-90.9090909090909,4,1,0,80,0,0
96734,-90.9090909090909,4,1,0,80,0,1
96809,-90.9090909090909,4,1,0,80,0,0
101534,-90.9090909090909,4,1,0,80,0,1
106259,-90.9090909090909,4,1,0,80,0,0
106334,-90.9090909090909,4,1,0,80,0,1
106409,-90.9090909090909,4,1,0,80,0,0
111134,-90.9090909090909,4,1,0,80,0,1
115859,-90.9090909090909,4,1,0,80,0,0
115934,-90.9090909090909,4,1,0,80,0,1
116009,-90.9090909090909,4,1,0,80,0,0
136334,-100,4,1,2,80,0,0
144734,-100,4,2,0,50,0,0

[Colours]
Combo1 : 96,147,45
Combo2 : 218,128,27
Combo3 : 79,201,44
Combo4 : 220,181,24

[HitObjects]
256,192,7934,12,4,10334
180,80,10934,6,0,B|108:84|92:160,2,110
196,188,12734,2,0,B|220:256|252:300|308:308|352:316|380:308,1,220
360,84,15134,1,4
252,60,15734,6,0,B|208:60|208:60|196:64|196:64|136:64,1,110
68,144,16934,1,0
128,236,17534,2,0,B|144:280|216:328|280:280|308:236,2,220,0|0|4
216,168,20534,5,0
312,116,21134,1,0
408,168,21734,1,0
332,244,22334,2,0,B|296:272|292:340|292:340|240:344|184:292,1,220
88,100,24734,1,4
188,60,25334,6,0,B|224:104|296:120,1,110
388,96,26534,1,0
428,200,27134,2,0,B|440:248|440:280|432:312|416:344|380:360|356:360|328:360,2,220,0|0|4
256,192,36734,12,4,39134
180,96,39734,6,0,B|216:60|264:56|296:56,1,120.999996393919,8|0
412,68,40934,1,8
424,188,41534,5,0
324,256,42134,2,0,B|232:352,2,120.999996393919,8|0|8
224,188,43934,1,0
104,192,44534,6,0,B|64:192|40:164|32:136|48:100,1,120.999996393919,8|0
164,88,45734,1,8
284,68,46334,6,0,B|336:56|388:88|396:140|384:180|348:172|368:256,2,241.999992787838
248,184,49334,5,8
188,288,49934,1,0
144,176,50534,1,8
200,72,51134,6,0,B|252:196,1,120.999996393919,0|8
308,80,52334,2,0,B|360:204,1,120.999996393919,0|8
432,96,53534,1,0
480,208,54134,6,0,B|500:268|488:328|460:348,1,120.999996393919,8|0
368,280,55334,1,8
252,316,55934,2,0,B|192:392|92:268|20:340,2,241.999992787838,0|0|4
180,220,58934,5,8
152,104,59534,1,0
268,136,60134,1,8
312,248,60734,6,0,B|408:328,1,120.999996393919,0|8
404,204,61934,2,0,B|496:281,2,120.999996393919,0|8|0
284,188,63734,5,8
192,264,64334,2,8,B|140:304|72:316,1,120.999996393919,0|8
104,196,65534,6,0,B|88:160|96:120|124:84|168:60|224:68|256:96|264:120,2,241.999992787838
220,224,68534,1,8
304,312,69134,1,0
332,196,69734,1,8
428,272,70334,6,0,B|456:220|448:172|424:144,1,120.999996393919,0|8
348,68,71534,1,0
236,112,72134,1,8
116,104,72734,6,0,B|72:120|52:156|48:188|52:220,1,120.999996393919,0|8
116,300,73934,2,0,B|160:284|180:248|184:216|180:184,1,120.999996393919,0|8
238,110,75134,2,0,B|256:67|295:42|364:44|404:80|416:127|408:167|401:170,2,241.999992787838,0|0|4
148,192,78134,6,0,B|164:280,1,90.7499972954393,8|0
312,320,79334,1,8
416,260,79934,5,0
328,176,80534,2,0,B|296:136|280:96,1,90.7499972954393,8|0
132,80,81734,1,8
104,196,82334,5,4
208,260,82934,2,0,B|260:344,1,90.7499972954393,8|0
400,288,84134,1,8
428,172,84734,5,0
336,92,85334,2,0,B|296:60|240:56,1,90.7499972954393,8|0
112,108,86534,2,0,B|108:232,1,120.999996393919,8|4
224,192,87734,6,0,B|224:296,1,90.7499972954393,8|0
372,256,88934,1,8
416,144,89534,5,0
300,116,90134,2,0,B|264:104|244:144|196:120,1,90.7499972954393,8|0
68,76,91334,1,8
84,196,91934,5,4
184,268,92534,2,0,B|276:284,1,90.7499972954393,8|0
420,248,93734,1,8
408,128,94334,5,0
296,80,94934,2,0,B|264:120|204:136,1,90.7499972954393,8|0
76,92,96134,1,8
104,208,96734,1,4
192,292,97334,6,0,B|252:324|316:328,2,120.999996393919,8|0|8
240,180,99134,2,0,B|293:114|393:224|464:136,2,241.999992787838,0|0|4
152,96,102134,5,8
76,144,102584,2,0,B|48:196|48:248|56:288|72:312,1,151.249995492399,0|8
184,280,103934,5,0
292,332,104534,1,8
380,312,104984,2,0,B|420:288|436:248|440:220|440:184|432:156,1,151.249995492399,0|8
384,72,106334,1,4
264,84,106934,5,8
144,64,107534,1,0
44,132,108134,1,8
108,232,108734,2,0,B|192:328|304:308|348:292,2,241.999992787838,0|0|4
184,136,111734,5,8
268,100,112184,2,0,B|316:80|360:80|404:80|432:100,1,151.249995492399,0|8
416,212,113534,5,0
332,300,114134,2,0,B|232:324,1,90.7499972954393,8|0
128,224,115334,1,8
68,120,115934,6,0,B|92:80|144:72|196:84,1,120.999996393919,4|8
256,172,117134,1,0
336,80,117734,2,0,B|368:72|420:80|444:120,1,120.999996393919,8|0
352,200,118934,5,8
256,276,119534,1,0
160,200,120134,1,8
256,128,120734,1,4
372,96,121334,6,0,B|424:88|460:128|456:184,1,120.999996393919,8|0
372,252,122534,1,8
264,308,123134,2,0,B|156:324|156:324|132:340|132:340|24:356,2,241.999992787838,0|0|4
224,196,126134,5,8
136,112,126734,2,0,B|152:72|188:56|232:64|252:76,1,120.999996393919,0|8
352,120,127934,6,0,B|352:176|360:240,1,120.999996393919,0|8
476,208,129134,2,0,B|476:264|468:328,1,120.999996393919,0|8
348,344,130334,1,4
232,308,130934,5,8
112,324,131534,2,0,B|72:280|68:208,1,120.999996393919,0|8
176,160,132734,2,0,B|240:144|256:72|256:72|268:144|344:164,2,241.999992787838,0|0|4
108,272,137234,6,0,B|84:344,2,55,2|0|0
256,48,139934,6,0,B|256:124,1,55,2|0
404,272,142034,6,0,B|428:344,2,55,2|0|0
256,192,142934,12,4,144734
