osu file format v14

[General]
AudioFilename: Yousei Teikoku - God and the Illusory Garden.mp3
AudioLeadIn: 0
PreviewTime: -1
Countdown: 1
SampleSet: Soft
StackLeniency: 0.7
Mode: 2
LetterboxInBreaks: 1
WidescreenStoryboard: 1

[Editor]
DistanceSpacing: 2
BeatDivisor: 4
GridSize: 16
TimelineZoom: 3.799998

[Metadata]
Title:God and the Illusory Garden
TitleUnicode:神、ノゾム世界と箱庭幻想
Artist:Yousei Teikoku
ArtistUnicode:妖精帝國
Creator:KuroGX
Version:Illusion
Source:神様と運命革命のパラドクス
Tags:
BeatmapID:939235
BeatmapSetID:436024

[Difficulty]
HPDrainRate:6.6
CircleSize:4
OverallDifficulty:9
ApproachRate:9.4
SliderMultiplier:1.4
SliderTickRate:1

[Events]
//Background and Video events
0,0,"yande.re 173783 sample hakurei_reimu kamiya_yuu touhou wallpaper.jpg",0,0
//Break Periods
//Storyboard Layer 0 (Background)
//Storyboard Layer 1 (Fail)
//Storyboard Layer 2 (Pass)
//Storyboard Layer 3 (Foreground)
//Storyboard Sound Samples

[TimingPoints]
825,342.857142857143,4,2,0,100,1,0
825,-66.6666666666667,4,2,0,50,0,0
11639,-100,4,2,0,70,0,0
22939,-100,4,2,0,50,0,0
33653,-100,4,2,0,70,0,0
58339,-100,4,2,0,100,0,1
68239,-100,4,2,0,5,0,1
68325,-100,4,2,0,100,0,1
68582,-100,4,2,0,5,0,1
68667,-100,4,2,0,100,0,1
79596,-100,4,2,0,70,0,0
91425,-100,4,2,0,50,0,0
92625,-66.6666666666667,4,2,0,50,0,0
103767,-100,4,2,0,70,0,0
117310,-100,4,2,0,100,0,1
126953,-66.6666666666667,4,2,0,100,0,1
127210,-66.6666666666667,4,2,0,5,0,1
127296,-66.6666666666667,4,2,0,100,0,1
127553,-66.6666666666667,4,2,0,5,0,1
127639,-66.6666666666667,4,2,0,100,0,1
128025,-100,4,2,0,100,0,1
138567,-100,4,2,0,70,0,0
151082,-100,4,2,0,60,0,0
170067,-100,4,2,0,5,0,0
170153,-100,4,2,0,60,0,0
170753,-100,4,2,0,5,0,0
170839,-100,4,2,0,60,0,0
174396,-100,4,2,0,35,0,0
182796,-100,4,2,0,15,0,0
193510,-100,4,2,0,100,0,1
204010,-100,4,2,0,5,0,1
204096,-100,4,2,0,100,0,1
204353,-100,4,2,0,5,0,1
204439,-100,4,2,0,100,0,1
215367,-100,4,2,0,70,0,0

[HitObjects]
448,192,824,5,0,0:0:0:0:
352,192,996,1,0,0:0:0:0:
64,192,1167,2,0,L|176:192,1,105.000004005432
464,192,1681,1,0,0:0:0:0:
160,192,2024,2,0,L|32:192,1,105.000004005432
464,192,2367,1,0,0:0:0:0:
464,192,2881,1,0,0:0:0:0:
48,192,3053,1,0,0:0:0:0:
144,192,3567,6,0,L|32:192,1,105.000004005432
368,192,3910,2,0,L|496:192,1,105.000004005432
144,192,4424,1,0,0:0:0:0:
432,192,4767,2,0,L|432:80,1,105.000004005432
144,80,5110,1,0,0:0:0:0:
32,80,5624,1,0,0:0:0:0:
480,80,5795,1,0,0:0:0:0:
32,288,6310,6,0,L|160:288,1,105.000004005432
480,288,6652,2,0,L|352:288,1,105.000004005432
144,288,7167,1,0,0:0:0:0:
384,288,7510,1,0,0:0:0:0:
144,288,7681,2,0,L|16:288,1,105.000004005432
384,288,8367,2,0,L|496:288,1,105.000004005432
96,288,9053,6,0,L|48:192,1,105.000004005432
416,288,9395,2,0,L|464:192,1,105.000004005432
256,176,9909,1,0,0:0:0:0:
48,192,10253,2,0,L|96:96,1,105.000004005432
432,96,10595,1,0,0:0:0:0:
480,96,11110,1,0,0:0:0:0:
64,96,11281,1,0,0:0:0:0:
472,192,11710,6,0,L|408:192,1,35
288,192,11881,2,0,L|224:192,1,35
72,192,12053,2,0,L|24:192,2,35
192,192,12310,2,0,L|240:192,1,35
360,192,12481,5,0,0:0:0:0:
424,168,12567,1,0,0:0:0:0:
456,108,12653,1,0,0:0:0:0:
436,44,12738,1,0,0:0:0:0:
364,20,12824,1,0,0:0:0:0:
292,52,12910,1,0,0:0:0:0:
320,112,12995,1,0,0:0:0:0:
340,176,13081,1,0,0:0:0:0:
240,208,13167,2,0,L|192:240,1,35
432,256,13339,6,0,L|480:272,1,35
224,320,13510,2,0,L|180:304,1,35
384,240,13681,2,0,L|436:220,1,35
112,216,13853,2,0,L|72:196,1,35
448,144,14024,2,0,L|476:124,2,35
96,144,14281,2,0,L|52:124,1,35
32,72,14453,2,0,L|76:44,1,35
356,40,14624,5,0,0:0:0:0:
416,68,14710,1,0,0:0:0:0:
452,116,14795,1,0,0:0:0:0:
370,174,14881,1,0,0:0:0:0:
394,226,14967,1,0,0:0:0:0:
478,274,15053,1,0,0:0:0:0:
451,329,15138,1,0,0:0:0:0:
64,332,15224,5,0,0:0:0:0:
96,272,15310,1,0,0:0:0:0:
19,223,15395,1,0,0:0:0:0:
44,166,15481,1,0,0:0:0:0:
144,96,15567,2,0,L|192:80,1,35
432,48,15738,6,0,L|484:32,1,35
232,152,15910,2,0,L|188:172,1,35
432,172,16081,2,0,L|464:188,1,35
160,272,16253,2,0,L|100:302,1,35
368,288,16425,6,0,L|417:279,1,35
450,228,16596,1,0,0:0:0:0:
444,163,16682,1,0,0:0:0:0:
418,108,16767,1,0,0:0:0:0:
379,60,16853,1,0,0:0:0:0:
313,40,16938,1,0,0:0:0:0:
40,216,17024,5,0,0:0:0:0:
68,276,17110,1,0,0:0:0:0:
124,316,17195,1,0,0:0:0:0:
192,328,17281,1,0,0:0:0:0:
260,312,17367,1,0,0:0:0:0:
324,288,17453,1,0,0:0:0:0:
376,244,17538,1,0,0:0:0:0:
428,200,17624,2,0,L|464:176,1,35
148,191,17795,6,0,L|96:167,1,35
76,127,17967,2,0,L|124:103,1,35
432,80,18138,2,0,L|464:64,2,35
192,108,18396,2,0,L|143:121,1,35
373,148,18567,2,0,L|423:185,1,35
153,274,18739,2,0,L|111:296,1,35
405,335,18910,5,0,0:0:0:0:
456,300,18995,1,2,0:0:0:0:
432,240,19081,1,0,0:0:0:0:
376,200,19167,2,0,L|328:176,1,35
296,148,19338,2,0,L|336:128,1,35
448,56,19510,6,0,L|484:44,2,35
272,104,19767,2,0,L|212:128,1,35
72,160,19938,2,0,L|28:176,1,35
72,228,20110,2,0,L|112:256,1,35
368,320,20281,6,0,L|428:292,1,35
444,276,20453,1,0,0:0:0:0:
480,240,20538,1,0,0:0:0:0:
464,160,20624,1,0,0:0:0:0:
428,108,20710,1,0,0:0:0:0:
376,68,20795,1,0,0:0:0:0:
312,56,20881,2,0,L|256:68,1,35
80,128,21053,6,0,L|16:128,2,35
343,171,21310,2,0,L|383:179,1,35
175,208,21481,2,0,L|133:253,1,35
367,218,21653,2,0,L|416:262,1,35
102,242,21824,2,0,L|63:282,1,35
420,282,21995,2,0,L|474:304,2,35
400,308,22253,2,0,L|448:296,1,35
32,192,22424,6,0,L|87:193,1,35
480,192,22595,2,0,L|416:192,1,35
128,192,22767,1,0,0:0:0:0:
176,192,23110,6,0,L|272:192,2,70
416,192,23625,1,0,0:0:0:0:
160,192,23796,5,0,0:0:0:0:
432,192,23967,2,0,L|352:192,1,70
80,192,24310,2,0,L|160:128,1,70
384,128,24653,6,0,L|480:128,1,70
224,320,24996,2,0,L|128:320,1,70
32,320,25339,6,0,L|112:320,1,70
288,320,25682,1,0,0:0:0:0:
416,320,25853,2,0,L|336:320,1,70
128,256,26196,6,0,L|216:256,2,70
212,44,26882,6,0,L|256:128,1,70
64,104,27225,1,0,0:0:0:0:
352,96,27396,2,0,L|428:96,1,70
224,96,27739,2,0,L|148:96,1,70
480,128,28082,5,0,0:0:0:0:
128,128,28253,1,0,0:0:0:0:
320,128,28425,2,0,L|224:128,1,70
80,200,28767,1,0,0:0:0:0:
384,304,28939,6,0,L|464:304,2,70
156,240,29625,1,0,0:0:0:0:
428,240,29796,2,0,L|340:240,1,70
208,160,30139,6,0,L|128:160,1,70
416,96,30482,2,0,L|320:96,2,70
84,144,30996,5,0,0:0:0:0:
416,144,31167,2,0,L|344:144,1,70
184,244,31510,2,0,L|100:244,1,70
416,248,31853,5,0,0:0:0:0:
184,244,32025,2,0,L|312:188,1,140
96,184,32539,1,0,0:0:0:0:
400,188,32710,6,0,L|316:188,1,70
140,184,33053,2,0,L|84:104,1,70
264,132,33396,5,0,0:0:0:0:
436,132,33567,1,0,0:0:0:0:
136,256,33739,6,0,L|172:232,1,35
140,192,33910,2,0,L|104:192,1,35
60,168,34082,1,0,0:0:0:0:
40,136,34167,1,0,0:0:0:0:
44,88,34253,1,0,0:0:0:0:
72,52,34339,1,0,0:0:0:0:
124,32,34425,1,0,0:0:0:0:
176,32,34510,1,0,0:0:0:0:
224,64,34596,1,0,0:0:0:0:
272,96,34682,2,0,L|312:128,1,35
472,216,34853,6,0,L|432:240,1,35
208,304,35025,2,0,L|168:320,1,35
408,304,35196,2,0,L|448:320,1,35
136,312,35367,2,0,L|88:336,1,35
480,208,35539,2,0,L|432:192,1,35
272,176,35710,2,0,L|224:160,1,35
32,112,35882,2,0,L|68:88,1,35
332,105,36053,6,0,L|289:77,1,35
333,40,36225,1,0,0:0:0:0:
385,62,36310,1,0,0:0:0:0:
416,112,36396,1,0,0:0:0:0:
512,144,36482,1,0,0:0:0:0:
478,196,36567,1,0,0:0:0:0:
384,272,36653,1,0,0:0:0:0:
368,320,36739,1,0,0:0:0:0:
320,352,36825,1,0,0:0:0:0:
184,328,36996,2,0,L|148:312,1,35
132,264,37167,2,0,L|176:244,1,35
416,200,37339,6,0,L|448:184,1,35
476,172,37510,2,0,L|424:136,1,35
80,144,37682,2,0,L|32:144,2,35
336,48,37939,5,0,0:0:0:0:
400,64,38025,1,0,0:0:0:0:
464,80,38110,1,0,0:0:0:0:
400,96,38196,1,0,0:0:0:0:
336,112,38282,1,0,0:0:0:0:
176,144,38367,6,0,L|128:160,1,35
432,224,38539,2,0,L|480:240,1,35
352,320,38710,6,0,L|304:336,1,35
112,336,38882,2,0,L|48:320,1,35
160,208,39052,1,0,0:0:0:0:
128,160,39138,1,0,0:0:0:0:
80,128,39224,2,0,L|152:80,1,70
384,64,39567,5,0,0:0:0:0:
116,52,39738,2,0,B|60:92|88:160|164:160,1,140
424,152,40167,2,0,L|476:152,1,35
248,132,40339,5,0,0:0:0:0:
292,88,40425,1,0,0:0:0:0:
352,76,40510,1,0,0:0:0:0:
432,56,40596,2,0,P|420:112|392:128,1,70
144,128,40939,1,0,0:0:0:0:
448,232,41110,2,0,B|336:208|284:180,1,140
80,192,41539,2,0,L|32:184,1,35
244,144,41711,5,0,0:0:0:0:
300,112,41797,1,0,0:0:0:0:
364,96,41882,1,0,0:0:0:0:
52,112,41968,2,0,L|144:96,1,70
404,128,42311,1,0,0:0:0:0:
120,252,42482,2,0,B|72:180|188:140,1,140
80,136,42910,2,0,L|40:132,1,35
420,48,43081,5,0,0:0:0:0:
464,104,43167,1,0,0:0:0:0:
464,176,43253,1,0,0:0:0:0:
444,216,43338,2,0,L|348:256,1,70
56,264,43681,1,0,0:0:0:0:
168,68,43853,2,0,P|232:60|320:116,1,140
260,144,44282,1,0,0:0:0:0:
416,168,44367,2,0,L|448:200,1,35
224,240,44539,2,0,L|200:276,1,35
448,192,44710,6,0,L|352:192,1,70
32,192,45053,1,0,0:0:0:0:
64,192,45396,1,0,0:0:0:0:
448,192,45567,1,0,0:0:0:0:
384,192,45910,1,0,0:0:0:0:
128,192,46253,6,0,L|32:192,1,70
448,192,46767,1,0,0:0:0:0:
32,192,46939,1,0,0:0:0:0:
96,192,47282,1,0,0:0:0:0:
448,192,47625,6,0,L|416:128,1,70
96,128,48139,1,0,0:0:0:0:
448,128,48310,1,0,0:0:0:0:
384,128,48653,1,0,0:0:0:0:
96,128,48996,6,0,L|192:128,1,70
32,128,49510,1,0,0:0:0:0:
416,128,49682,1,0,0:0:0:0:
224,128,50025,1,0,0:0:0:0:
416,128,50367,6,0,L|448:192,1,70
96,192,50882,1,0,0:0:0:0:
480,192,51053,1,0,0:0:0:0:
416,192,51396,1,0,0:0:0:0:
64,192,51739,6,0,L|96:256,1,70
384,256,52253,1,0,0:0:0:0:
32,256,52425,1,0,0:0:0:0:
192,256,52767,1,0,0:0:0:0:
480,256,53110,6,0,L|384:256,1,70
480,256,53625,1,0,0:0:0:0:
128,256,53796,1,0,0:0:0:0:
320,256,54139,1,0,0:0:0:0:
96,256,54482,6,0,L|0:256,1,70
416,256,54996,1,0,0:0:0:0:
64,256,55167,1,0,0:0:0:0:
256,256,55510,1,0,0:0:0:0:
160,256,55853,5,0,0:0:0:0:
320,256,56196,1,0,0:0:0:0:
96,256,56539,2,0,L|160:128,1,140
480,128,57053,1,0,0:0:0:0:
32,128,57225,1,0,0:0:0:0:
480,128,57396,1,0,0:0:0:0:
32,128,57567,1,0,0:0:0:0:
368,192,58082,5,0,0:0:0:0:
176,192,58425,6,0,L|236:192,1,35
444,192,58596,2,0,L|488:192,2,35
160,192,58853,2,0,L|100:192,1,35
76,156,59025,2,0,L|124:128,1,35
356,48,59196,5,0,0:0:0:0:
416,64,59282,1,0,0:0:0:0:
480,96,59367,1,0,0:0:0:0:
432,192,59453,1,0,0:0:0:0:
408,236,59539,1,0,0:0:0:0:
352,272,59625,1,0,0:0:0:0:
288,272,59710,1,0,0:0:0:0:
224,272,59796,1,0,0:0:0:0:
256,320,59882,1,0,0:0:0:0:
192,304,59967,1,0,0:0:0:0:
144,256,60053,1,0,0:0:0:0:
96,216,60139,2,0,L|60:192,1,35
272,176,60310,6,0,L|308:160,1,35
72,76,60482,2,0,L|32:52,2,35
264,80,60739,2,0,L|308:92,1,35
448,144,60910,6,0,L|488:160,1,35
440,208,61082,1,0,0:0:0:0:
416,264,61167,1,0,0:0:0:0:
360,296,61253,1,0,0:0:0:0:
292,312,61339,1,0,0:0:0:0:
0,16,61425,5,0,0:0:0:0:
16,80,61510,1,0,0:0:0:0:
128,144,61596,1,0,0:0:0:0:
96,208,61682,1,0,0:0:0:0:
120,272,61767,1,0,0:0:0:0:
184,288,61853,1,0,0:0:0:0:
255,271,61939,1,0,0:0:0:0:
224,224,62025,1,0,0:0:0:0:
272,208,62110,1,0,0:0:0:0:
320,192,62196,1,0,0:0:0:0:
368,176,62282,2,0,L|412:164,2,35
120,136,62539,6,0,L|152:120,1,35
400,64,62710,2,0,L|448:40,2,35
88,168,62967,2,0,L|32:192,1,35
320,192,63139,2,0,L|352:204,1,35
64,248,63310,2,0,L|28:276,1,35
304,336,63482,6,0,L|337:312,1,35
384,272,63653,1,0,0:0:0:0:
336,224,63739,1,0,0:0:0:0:
288,192,63825,1,0,0:0:0:0:
473,116,63910,1,0,0:0:0:0:
512,80,63996,1,0,0:0:0:0:
151,35,64082,5,0,0:0:0:0:
121,92,64167,1,0,0:0:0:0:
21,174,64253,1,0,0:0:0:0:
48,224,64339,1,0,0:0:0:0:
192,272,64425,1,0,0:0:0:0:
156,324,64510,1,0,0:0:0:0:
220,332,64596,2,0,L|248:312,1,35
420,248,64767,6,0,L|456:232,1,35
480,184,64939,2,0,L|448:168,1,35
280,128,65110,2,0,L|228:112,1,35
35,52,65282,2,0,L|79:80,1,35
328,184,65453,2,0,L|360:204,1,35
72,208,65625,2,0,L|40:232,1,35
88,256,65796,2,0,L|123:279,1,35
384,352,65967,5,0,0:0:0:0:
422,312,66053,1,0,0:0:0:0:
320,256,66139,1,0,0:0:0:0:
288,208,66225,1,0,0:0:0:0:
482,127,66310,1,0,0:0:0:0:
464,80,66396,1,0,0:0:0:0:
416,48,66482,1,0,0:0:0:0:
352,48,66567,1,0,0:0:0:0:
288,64,66653,2,0,L|312:116,1,35
248,104,66825,1,0,0:0:0:0:
184,92,66910,1,0,0:0:0:0:
124,64,66996,2,0,L|96:40,1,35
288,176,67167,6,0,L|328:152,1,35
88,224,67339,2,0,L|48:200,1,35
302,324,67510,2,0,L|342:304,1,35
382,284,67682,1,0,0:0:0:0:
418,244,67767,1,0,0:0:0:0:
430,192,67853,1,0,0:0:0:0:
386,152,67939,1,0,0:0:0:0:
216,144,68025,6,0,L|96:144,1,105
352,144,68367,6,0,L|464:144,1,105
188,144,68710,6,0,L|48:144,1,140
472,152,69225,5,0,0:0:0:0:
198,45,69396,5,0,0:0:0:0:
245,82,69482,1,0,0:0:0:0:
267,147,69567,1,0,0:0:0:0:
251,212,69653,1,0,0:0:0:0:
203,253,69739,1,0,0:0:0:0:
134,267,69825,1,0,0:0:0:0:
76,247,69910,1,0,0:0:0:0:
400,336,69996,5,0,0:0:0:0:
416,288,70082,1,0,0:0:0:0:
272,256,70167,1,0,0:0:0:0:
256,192,70253,1,0,0:0:0:0:
400,144,70339,1,0,0:0:0:0:
384,96,70425,1,0,0:0:0:0:
432,68,70510,2,0,L|476:60,2,35
271,99,70767,6,0,L|227:115,1,35
67,159,70939,2,0,L|15:183,1,35
301,215,71110,2,0,L|337:231,1,35
71,218,71282,2,0,L|31:242,1,35
240,280,71453,2,0,L|276:304,1,35
444,320,71625,2,0,L|484:336,2,35
208,272,71882,6,0,L|160:256,1,35
16,176,72053,2,0,L|0:128,1,35
176,64,72225,2,0,L|224:48,1,35
383,103,72397,1,0,0:0:0:0:
428,151,72482,1,0,0:0:0:0:
435,216,72567,1,0,0:0:0:0:
144,336,72653,5,0,0:0:0:0:
128,288,72739,1,0,0:0:0:0:
50,218,72825,1,0,0:0:0:0:
80,160,72910,1,0,0:0:0:0:
128,136,72996,2,0,L|168:120,1,35
48,64,73167,6,0,L|24:20,1,35
256,88,73339,2,0,L|316:72,1,35
448,64,73510,2,0,L|508:48,1,35
239,155,73682,2,0,L|199:179,1,35
440,196,73853,2,0,L|480:216,1,35
512,272,74025,2,0,L|460:288,1,35
320,336,74196,2,0,L|284:348,1,35
64,320,74367,6,0,L|128:304,1,35
224,288,74539,2,0,L|272:272,1,35
420,238,74710,1,0,0:0:0:0:
375,192,74796,1,0,0:0:0:0:
365,124,74882,1,0,0:0:0:0:
384,64,74967,2,0,L|440:24,1,35
103,66,75139,6,0,L|63:50,1,35
405,69,75310,2,0,L|453:45,1,35
62,151,75482,2,0,L|26:127,1,35
240,88,75653,2,0,L|276:68,1,35
476,52,75825,6,0,L|460:96,1,35
441,142,75996,1,0,0:0:0:0:
404,193,76082,1,0,0:0:0:0:
345,224,76167,1,0,0:0:0:0:
76,164,76253,5,0,0:0:0:0:
29,119,76339,1,0,0:0:0:0:
160,65,76425,1,0,0:0:0:0:
218,61,76510,1,0,0:0:0:0:
272,80,76596,2,0,L|328:112,1,35
459,175,76767,6,0,L|484:218,2,35
136,96,77025,2,0,L|88:72,1,35
44,88,77196,2,0,L|64:136,1,35
256,256,77367,2,0,L|240:304,1,35
480,288,77539,2,0,L|512:320,1,35
496,208,77710,1,0,0:0:0:0:
455,133,77796,2,0,L|495:90,2,35
292,80,78053,6,0,L|228:56,1,35
88,48,78225,2,0,L|28:28,1,35
248,152,78396,2,0,L|304:168,1,35
464,228,78567,5,0,0:0:0:0:
420,288,78653,1,0,0:0:0:0:
356,324,78739,1,0,0:0:0:0:
280,336,78825,1,0,0:0:0:0:
204,332,78910,1,0,0:0:0:0:
36,244,78996,5,0,0:0:0:0:
480,216,79167,1,0,0:0:0:0:
32,168,79339,1,0,0:0:0:0:
480,144,79510,1,0,0:0:0:0:
72,192,79853,6,0,L|16:192,1,35
448,192,80025,2,0,L|504:192,1,35
144,192,80196,1,0,0:0:0:0:
280,40,80367,5,0,0:0:0:0:
304,80,80453,1,0,0:0:0:0:
485,76,80539,1,0,0:0:0:0:
512,144,80625,1,0,0:0:0:0:
416,160,80710,1,0,0:0:0:0:
384,208,80796,1,0,0:0:0:0:
464,320,80882,1,0,0:0:0:0:
400,336,80967,2,0,L|360:336,1,35
120,264,81139,6,0,L|160:264,1,35
385,222,81310,2,0,L|433:222,1,35
160,168,81482,2,0,L|104:168,1,35
439,101,81653,2,0,L|495:101,2,35
112,88,81910,6,0,L|160:88,1,35
184,144,82082,1,0,0:0:0:0:
176,208,82167,1,0,0:0:0:0:
128,256,82253,1,0,0:0:0:0:
64,256,82339,1,0,0:0:0:0:
120,280,82425,1,0,0:0:0:0:
176,304,82510,1,0,0:0:0:0:
240,323,82596,1,0,0:0:0:0:
306,328,82682,1,0,0:0:0:0:
368,306,82767,1,0,0:0:0:0:
410,253,82853,1,0,0:0:0:0:
72,40,82939,5,0,0:0:0:0:
128,80,83025,1,0,0:0:0:0:
184,120,83110,1,0,0:0:0:0:
120,144,83196,1,0,0:0:0:0:
56,176,83282,1,0,0:0:0:0:
112,216,83367,2,0,L|152:240,1,35
413,329,83539,6,0,L|472:295,1,35
263,209,83710,2,0,L|222:179,1,35
452,198,83882,2,0,L|482:178,1,35
192,117,84053,2,0,L|144:84,1,35
375,96,84225,2,0,L|426:73,1,35
88,55,84396,2,0,L|34:24,1,35
304,336,84567,5,0,0:0:0:0:
344,296,84653,1,0,0:0:0:0:
481,230,84739,1,0,0:0:0:0:
512,176,84825,1,0,0:0:0:0:
232,176,84910,2,0,L|184:152,1,35
496,128,85082,2,0,L|472:81,1,35
160,136,85253,2,0,L|120:112,1,35
437,72,85425,2,0,L|469:40,1,35
128,48,85596,6,0,L|64:48,1,35
45,82,85767,1,0,0:0:0:0:
29,133,85853,1,0,0:0:0:0:
48,192,85939,1,0,0:0:0:0:
222,210,86025,1,0,0:0:0:0:
192,160,86110,1,0,0:0:0:0:
224,112,86196,1,0,0:0:0:0:
288,96,86282,1,0,0:0:0:0:
464,80,86367,6,0,L|411:115,1,35
226,258,86539,2,0,L|170:290,1,35
448,272,86710,2,0,L|488:296,2,35
288,192,86967,2,0,L|232:168,1,35
48,160,87139,2,0,L|112:144,1,35
320,88,87310,2,0,L|376:72,1,35
416,96,87482,2,0,L|368:144,1,35
16,304,87653,6,0,L|40:336,1,35
95,337,87825,1,0,0:0:0:0:
238,295,87910,1,0,0:0:0:0:
256,240,87996,1,0,0:0:0:0:
458,310,88082,1,0,0:0:0:0:
432,256,88167,1,0,0:0:0:0:
480,145,88253,1,0,0:0:0:0:
512,96,88339,1,0,0:0:0:0:
472,64,88425,2,0,L|416:40,1,35
256,40,88596,6,0,L|216:48,1,35
72,128,88767,2,0,L|32:160,1,35
280,176,88939,2,0,L|320:200,1,35
80,264,89110,2,0,L|24:304,2,35
385,212,89367,2,0,L|433:188,1,35
465,156,89539,2,0,L|417:124,1,35
144,48,89710,6,0,L|192:64,1,35
80,48,89882,1,0,0:0:0:0:
32,64,89967,1,0,0:0:0:0:
153,186,90053,1,0,0:0:0:0:
125,246,90139,1,0,0:0:0:0:
88,296,90225,1,0,0:0:0:0:
464,288,90310,5,0,0:0:0:0:
458,219,90396,1,0,0:0:0:0:
424,153,90481,1,0,0:0:0:0:
371,115,90567,1,0,0:0:0:0:
303,109,90653,1,0,0:0:0:0:
96,152,90739,6,0,L|40:176,2,35
480,272,90996,2,0,L|432:248,1,35
272,192,91167,2,0,L|224:176,1,35
32,112,91339,1,0,0:0:0:0:
256,192,91853,5,0,0:0:0:0:
40,192,92196,1,0,0:0:0:0:
472,192,92367,1,0,0:0:0:0:
176,64,92710,6,0,L|48:64,1,105.000004005432
320,64,93053,2,0,L|192:64,1,105.000004005432
480,160,93396,6,0,L|368:160,1,105.000004005432
144,256,93739,2,0,L|32:256,1,105.000004005432
304,256,94082,6,0,L|416:256,1,105.000004005432
192,256,94425,1,0,0:0:0:0:
480,256,94596,2,0,L|384:192,1,105.000004005432
208,176,94939,6,0,L|352:176,1,105.000004005432
416,176,95282,1,0,0:0:0:0:
160,176,95453,1,0,0:0:0:0:
480,128,95625,6,0,L|336:128,1,105.000004005432
96,128,95967,2,0,L|208:128,1,105.000004005432
384,224,96310,6,0,L|256:224,1,105.000004005432
144,80,96653,1,0,0:0:0:0:
424,72,96825,2,0,L|312:72,1,105.000004005432
456,72,97167,5,0,0:0:0:0:
104,72,97339,1,0,0:0:0:0:
289,72,97510,2,0,L|153:72,1,105.000004005432
352,72,97853,2,0,L|480:72,1,105.000004005432
136,192,98196,6,0,L|24:192,2,105.000004005432
480,192,98710,1,0,0:0:0:0:
456,192,98796,1,0,0:0:0:0:
432,192,98882,1,0,0:0:0:0:
408,192,98967,1,0,0:0:0:0:
384,192,99053,1,0,0:0:0:0:
360,192,99139,1,0,0:0:0:0:
32,192,99225,2,0,L|32:80,1,105.000004005432
376,87,99567,6,0,L|504:87,2,105.000004005432
32,87,100082,1,0,0:0:0:0:
56,87,100168,1,0,0:0:0:0:
80,87,100254,1,0,0:0:0:0:
104,87,100339,1,0,0:0:0:0:
128,87,100425,1,0,0:0:0:0:
152,88,100511,1,0,0:0:0:0:
480,88,100596,2,0,L|480:200,1,105.000004005432
136,192,100939,6,0,L|24:192,2,105.000004005432
480,192,101453,1,0,0:0:0:0:
456,192,101539,1,0,0:0:0:0:
432,192,101625,1,0,0:0:0:0:
408,192,101710,1,0,0:0:0:0:
384,192,101796,1,0,0:0:0:0:
360,192,101882,1,0,0:0:0:0:
32,192,101967,2,0,L|32:80,1,105.000004005432
376,87,102310,6,0,L|504:87,2,105.000004005432
216,56,102825,2,0,P|128:72|96:216,1,210.000008010865
256,192,103339,1,0,0:0:0:0:
472,192,103510,2,0,L|400:192,1,70
88,192,103853,6,0,L|16:192,1,70
416,192,104368,1,0,0:0:0:0:
64,192,104539,1,0,0:0:0:0:
128,192,104882,1,0,0:0:0:0:
384,192,105225,6,0,L|480:192,1,70
96,192,105739,1,0,0:0:0:0:
480,192,105911,1,0,0:0:0:0:
416,192,106254,1,0,0:0:0:0:
64,192,106597,6,0,L|96:128,1,70
400,128,107111,1,0,0:0:0:0:
32,128,107282,1,0,0:0:0:0:
128,128,107625,1,0,0:0:0:0:
416,128,107968,6,0,L|320:128,1,70
480,128,108482,1,0,0:0:0:0:
96,128,108654,1,0,0:0:0:0:
288,128,108997,1,0,0:0:0:0:
96,128,109339,6,0,L|64:192,1,70
400,192,109854,1,0,0:0:0:0:
32,192,110025,1,0,0:0:0:0:
96,192,110368,1,0,0:0:0:0:
448,192,110711,6,0,L|416:256,1,70
128,256,111225,1,0,0:0:0:0:
480,256,111397,1,0,0:0:0:0:
320,256,111739,1,0,0:0:0:0:
32,256,112082,6,0,L|128:256,1,70
32,256,112597,1,0,0:0:0:0:
384,256,112768,1,0,0:0:0:0:
192,256,113111,1,0,0:0:0:0:
416,256,113454,6,0,L|512:256,1,70
112,256,113968,1,0,0:0:0:0:
448,256,114139,1,0,0:0:0:0:
256,256,114482,1,0,0:0:0:0:
352,256,114825,5,0,0:0:0:0:
192,256,115168,1,0,0:0:0:0:
416,256,115511,2,0,L|352:128,1,140
32,128,116025,1,0,0:0:0:0:
480,128,116197,1,0,0:0:0:0:
32,128,116368,1,0,0:0:0:0:
480,128,116539,1,0,0:0:0:0:
80,192,117053,5,0,0:0:0:0:
480,192,117396,6,0,L|416:192,1,35
288,192,117567,2,0,L|224:192,1,35
64,192,117739,2,0,L|16:192,1,35
288,192,117910,2,0,L|352:192,1,35
112,192,118082,6,0,L|48:192,1,35
32,144,118253,2,0,L|80:144,1,35
339,71,118425,1,0,0:0:0:0:
401,67,118510,1,0,0:0:0:0:
456,84,118596,1,0,0:0:0:0:
397,99,118682,1,0,0:0:0:0:
339,110,118767,5,0,0:0:0:0:
126,110,118853,2,0,L|70:119,1,35
35,141,119025,2,0,L|97:171,1,35
414,292,119196,2,0,L|365:306,1,35
176,287,119367,2,0,L|120:264,1,35
348,225,119539,6,0,L|390:202,1,35
99,177,119710,2,0,L|63:154,1,35
396,78,119882,2,0,L|343:49,1,35
66,46,120053,2,0,L|92:86,1,35
193,59,120225,6,0,L|177:100,1,35
85,129,120396,1,0,0:0:0:0:
410,173,120482,2,0,L|388:217,1,35
299,173,120653,2,0,L|330:216,1,35
446,127,120825,2,0,L|391:106,1,35
188,105,120996,6,0,L|224:89,1,35
435,49,121167,2,0,L|472:33,1,35
236,42,121339,2,0,L|192:2,1,35
36,39,121510,2,0,L|86:17,1,35
323,19,121682,5,0,0:0:0:0:
373,26,121767,1,0,0:0:0:0:
408,55,121853,1,0,0:0:0:0:
238,75,121939,1,0,0:0:0:0:
167,107,122025,1,0,0:0:0:0:
107,146,122110,1,0,0:0:0:0:
169,148,122196,1,0,0:0:0:0:
95,143,122282,1,0,0:0:0:0:
53,190,122367,5,0,0:0:0:0:
35,235,122453,2,0,L|92:249,1,35
246,268,122625,2,0,L|304:279,1,35
483,300,122796,2,0,L|459:265,1,35
239,190,122967,6,0,L|179:189,2,35
455,196,123225,2,0,L|492:170,1,35
301,146,123396,2,0,L|263:113,1,35
373,62,123567,2,0,L|322:53,1,35
285,109,123738,6,0,L|232:125,1,35
227,60,123910,2,0,L|161:48,1,35
31,43,124082,2,0,L|97:53,1,35
289,37,124253,2,0,L|348:33,1,35
80,119,124425,6,0,L|46:146,1,35
271,120,124596,2,0,L|321:132,1,35
94,198,124767,2,0,L|72:241,1,35
290,321,124939,1,0,0:0:0:0:
349,286,125025,1,0,0:0:0:0:
325,315,125110,5,0,0:0:0:0:
377,297,125196,1,0,0:0:0:0:
393,223,125282,1,0,0:0:0:0:
141,191,125367,1,0,0:0:0:0:
101,142,125453,1,0,0:0:0:0:
197,91,125539,1,0,0:0:0:0:
247,65,125625,1,0,0:0:0:0:
302,57,125710,2,0,L|349:50,1,35
485,52,125882,6,0,L|449:69,1,35
233,132,126053,2,0,L|280:139,1,35
483,183,126225,2,0,L|445:195,1,35
95,251,126396,2,0,L|37:263,1,35
38,300,126567,6,0,L|102:313,1,35
277,295,126739,1,0,0:0:0:0:
337,262,126825,1,0,0:0:0:0:
397,231,126910,1,0,0:0:0:0:
99,212,126996,6,0,P|37:171|96:160,1,157.500006008148
413,212,127339,6,0,P|475:171|416:160,1,157.500006008148
99,212,127682,6,0,P|37:171|96:144,1,157.500006008148
314,192,128196,5,0,0:0:0:0:
288,144,128281,1,0,0:0:0:0:
448,112,128367,1,0,0:0:0:0:
445,56,128453,2,0,L|386:24,1,35
201,49,128624,2,0,L|259:24,1,35
413,28,128796,2,0,L|473:44,1,35
247,90,128967,6,0,L|210:131,1,35
419,129,129139,2,0,L|463:146,1,35
196,207,129310,2,0,L|156:234,1,35
117,272,129481,2,0,L|165:293,1,35
424,317,129653,6,0,L|472:311,1,35
444,265,129824,1,0,0:0:0:0:
379,267,129910,1,0,0:0:0:0:
308,274,129996,1,0,0:0:0:0:
236,275,130081,1,0,0:0:0:0:
308,266,130167,1,0,0:0:0:0:
244,258,130253,5,0,0:0:0:0:
102,252,130339,1,0,0:0:0:0:
130,202,130424,1,0,0:0:0:0:
92,144,130510,1,0,0:0:0:0:
32,111,130596,2,0,L|65:92,1,35
238,62,130767,2,0,L|285:47,1,35
486,38,130939,6,0,L|423:57,1,35
294,111,131110,2,0,L|246:128,1,35
448,113,131281,2,0,L|483:135,1,35
261,170,131453,2,0,L|209:192,1,35
431,195,131624,6,0,L|479:215,1,35
223,244,131796,2,0,L|167:269,1,35
149,224,131967,1,0,0:0:0:0:
175,173,132053,1,0,0:0:0:0:
222,140,132139,1,0,0:0:0:0:
284,125,132224,1,0,0:0:0:0:
342,138,132310,5,0,0:0:0:0:
400,168,132396,1,0,0:0:0:0:
443,203,132481,1,0,0:0:0:0:
292,197,132567,1,0,0:0:0:0:
332,159,132653,1,0,0:0:0:0:
394,128,132739,1,0,0:0:0:0:
447,86,132824,2,0,L|397:54,1,35
172,55,132996,6,0,L|227:33,1,35
475,32,133167,2,0,L|411:46,1,35
292,68,133339,2,0,L|246:82,1,35
32,151,133510,2,0,L|81:157,1,35
341,158,133682,6,0,L|319:193,1,35
185,193,133853,2,0,L|230:238,1,35
321,242,134025,1,0,0:0:0:0:
265,275,134110,1,0,0:0:0:0:
204,282,134196,1,0,0:0:0:0:
146,262,134282,1,0,0:0:0:0:
135,211,134367,5,0,0:0:0:0:
77,166,134453,1,0,0:0:0:0:
29,157,134539,1,0,0:0:0:0:
71,174,134625,1,0,0:0:0:0:
213,140,134710,1,0,0:0:0:0:
175,109,134796,1,0,0:0:0:0:
221,58,134882,2,0,L|246:32,1,35
482,49,135053,6,0,L|432:42,1,35
218,117,135225,2,0,L|274:90,1,35
443,97,135396,2,0,L|488:97,1,35
219,169,135567,2,0,L|171:182,1,35
420,191,135739,6,0,L|478:200,1,35
429,256,135910,2,0,L|379:266,1,35
27,260,136082,2,0,L|72:253,1,35
54,204,136253,1,0,0:0:0:0:
27,186,136339,1,0,0:0:0:0:
32,137,136425,5,0,0:0:0:0:
65,91,136510,1,0,0:0:0:0:
118,73,136596,1,0,0:0:0:0:
414,72,136682,1,0,0:0:0:0:
367,109,136767,1,0,0:0:0:0:
308,109,136853,1,0,0:0:0:0:
256,137,136939,1,0,0:0:0:0:
236,196,137025,1,0,0:0:0:0:
259,250,137110,6,0,L|296:270,1,35
179,268,137282,2,0,L|157:308,1,35
346,264,137453,2,0,L|375:300,1,35
202,277,137625,2,0,L|177:313,1,35
369,258,137796,2,0,L|389:310,1,35
35,207,137967,5,0,0:0:0:0:
476,138,138139,1,0,0:0:0:0:
30,149,138310,1,0,0:0:0:0:
479,200,138482,1,0,0:0:0:0:
160,208,138825,6,0,L|182:151,1,35
352,208,138996,2,0,L|331:167,1,35
176,144,139167,1,0,0:0:0:0:
293,47,139339,5,0,0:0:0:0:
348,62,139425,1,0,0:0:0:0:
404,92,139510,1,0,0:0:0:0:
413,144,139596,1,0,0:0:0:0:
373,194,139682,1,0,0:0:0:0:
479,242,139767,1,0,0:0:0:0:
437,299,139853,1,0,0:0:0:0:
239,302,139939,2,0,L|188:277,1,35
361,206,140110,6,0,L|399:180,1,35
145,190,140282,2,0,L|96:173,1,35
481,124,140453,2,0,L|448:102,1,35
298,59,140625,2,0,L|259:46,1,35
35,36,140796,6,0,L|74:41,1,35
43,100,140967,1,0,0:0:0:0:
108,165,141053,1,0,0:0:0:0:
49,197,141139,1,0,0:0:0:0:
135,309,141225,1,0,0:0:0:0:
200,328,141310,1,0,0:0:0:0:
244,285,141396,5,0,0:0:0:0:
298,260,141482,2,0,L|259:231,1,35
403,215,141653,2,0,L|433:188,1,35
316,133,141825,2,0,L|281:99,1,35
484,111,141996,6,0,L|454:82,1,35
192,60,142167,2,0,L|248:46,1,35
486,38,142339,2,0,L|430:37,1,35
158,51,142510,2,0,L|119:57,1,35
67,77,142682,6,0,L|106:95,1,35
298,115,142853,1,0,0:0:0:0:
345,140,142939,1,0,0:0:0:0:
374,198,143025,1,0,0:0:0:0:
352,258,143110,1,0,0:0:0:0:
312,299,143196,1,0,0:0:0:0:
254,309,143282,5,0,0:0:0:0:
57,53,143367,1,0,0:0:0:0:
109,53,143453,1,0,0:0:0:0:
165,69,143539,1,0,0:0:0:0:
203,129,143625,1,0,0:0:0:0:
76,177,143710,1,0,0:0:0:0:
75,117,143796,1,0,0:0:0:0:
114,62,143882,1,0,0:0:0:0:
177,37,143967,5,0,0:0:0:0:
394,46,144053,2,0,L|442:49,1,35
259,104,144225,2,0,L|226:125,1,35
441,114,144396,2,0,L|492:135,1,35
189,204,144567,6,0,L|142:232,1,35
117,256,144739,1,0,0:0:0:0:
171,271,144825,1,0,0:0:0:0:
233,269,144910,1,0,0:0:0:0:
292,244,144996,1,0,0:0:0:0:
448,200,145082,2,0,L|430:165,1,35
288,166,145253,6,0,L|306:136,1,35
469,76,145425,2,0,L|428:66,1,35
98,42,145596,2,0,L|61:68,1,35
205,77,145767,2,0,L|243:99,1,35
41,134,145939,6,0,L|80:165,1,35
228,243,146110,2,0,L|270:266,1,35
460,300,146282,1,0,0:0:0:0:
402,306,146367,1,0,0:0:0:0:
337,286,146453,1,0,0:0:0:0:
301,235,146539,1,0,0:0:0:0:
308,177,146625,5,0,0:0:0:0:
355,127,146710,1,0,0:0:0:0:
419,104,146796,1,0,0:0:0:0:
226,107,146882,2,0,L|177:98,1,35
393,82,147053,2,0,L|426:64,1,35
198,62,147225,2,0,L|146:53,1,35
90,75,147396,6,0,L|130:97,1,35
336,166,147567,2,0,L|391:187,1,35
197,195,147739,2,0,L|166:222,1,35
384,244,147910,2,0,L|351:274,1,35
169,284,148082,6,0,L|219:299,1,35
363,317,148253,1,0,0:0:0:0:
429,302,148339,1,0,0:0:0:0:
472,250,148425,1,0,0:0:0:0:
468,186,148510,1,0,0:0:0:0:
266,302,148596,1,0,0:0:0:0:
209,282,148682,1,0,0:0:0:0:
191,222,148767,5,0,0:0:0:0:
224,166,148853,1,0,0:0:0:0:
50,289,148939,1,0,0:0:0:0:
99,237,149025,1,0,0:0:0:0:
318,157,149110,2,0,L|350:140,1,35
143,156,149282,2,0,L|115:134,1,35
463,117,149453,6,0,L|428:97,1,35
238,55,149625,2,0,L|191:48,1,35
132,62,149796,2,0,L|187:89,1,35
449,174,149967,6,0,L|492:191,1,35
78,178,150139,2,0,L|25:200,1,35
320,192,150310,2,0,P|240:256|128:144,1,280
272,176,151339,1,0,0:0:0:0:
436,124,151682,6,0,L|414:177,1,35
245,109,151853,2,0,L|268:152,1,35
430,187,152025,2,0,L|388:233,1,35
249,237,152196,2,0,L|204:261,1,35
58,271,152367,5,0,0:0:0:0:
23,214,152453,1,0,0:0:0:0:
26,155,152539,1,0,0:0:0:0:
137,150,152625,1,0,0:0:0:0:
106,90,152710,1,0,0:0:0:0:
45,58,152796,1,0,0:0:0:0:
112,78,152882,1,0,0:0:0:0:
174,74,152967,1,0,0:0:0:0:
240,48,153053,5,0,0:0:0:0:
301,48,153139,1,0,0:0:0:0:
197,120,153225,2,0,L|169:153,1,35
374,118,153396,2,0,L|410:124,1,35
185,208,153567,2,0,L|154:242,1,35
405,217,153739,6,0,L|437:245,1,35
122,301,153910,2,0,L|167:306,1,35
411,306,154082,2,0,L|450:287,1,35
401,257,154253,1,0,0:0:0:0:
339,258,154339,1,0,0:0:0:0:
274,223,154425,5,0,0:0:0:0:
235,169,154510,1,0,0:0:0:0:
248,104,154596,1,0,0:0:0:0:
121,117,154682,1,0,0:0:0:0:
124,56,154767,1,0,0:0:0:0:
58,31,154853,1,0,0:0:0:0:
292,55,154939,2,0,L|360:55,1,35
88,98,155110,6,0,L|43:107,1,35
336,139,155282,2,0,L|376:142,1,35
114,207,155453,2,0,L|76:231,1,35
50,288,155625,2,0,L|108:289,1,35
399,293,155796,6,0,L|361:301,1,35
297,300,155967,1,0,0:0:0:0:
226,260,156053,1,0,0:0:0:0:
337,200,156139,1,0,0:0:0:0:
283,169,156225,1,0,0:0:0:0:
176,139,156310,1,0,0:0:0:0:
218,88,156396,1,0,0:0:0:0:
278,57,156482,5,0,0:0:0:0:
339,51,156567,1,0,0:0:0:0:
246,149,156653,1,0,0:0:0:0:
197,100,156739,1,0,0:0:0:0:
128,72,156825,1,0,0:0:0:0:
72,103,156910,1,0,0:0:0:0:
374,124,156996,2,0,L|426:131,2,35
61,206,157253,5,0,0:0:0:0:
96,256,157339,1,0,0:0:0:0:
153,297,157425,1,0,0:0:0:0:
220,315,157510,1,0,0:0:0:0:
285,288,157596,1,0,0:0:0:0:
234,209,157682,2,0,L|276:191,1,35
412,229,157853,2,0,L|405:188,1,35
281,107,158025,6,0,L|326:76,1,35
476,60,158196,2,0,L|431:51,1,35
254,37,158367,2,0,L|200:42,1,35
32,48,158539,2,0,L|34:91,1,35
92,80,158710,5,0,0:0:0:0:
146,49,158796,1,0,0:0:0:0:
211,39,158882,1,0,0:0:0:0:
270,56,158967,1,0,0:0:0:0:
336,79,159053,1,0,0:0:0:0:
445,135,159139,2,0,L|481:158,1,35
312,175,159310,6,0,L|301:216,1,35
472,255,159482,2,0,L|430:260,1,35
90,269,159653,2,0,L|57:229,1,35
208,217,159825,2,0,L|257:177,1,35
51,147,159996,6,0,L|23:125,1,35
220,71,160167,2,0,L|274:45,1,35
428,49,160339,1,0,0:0:0:0:
461,96,160425,1,0,0:0:0:0:
465,160,160510,1,0,0:0:0:0:
433,218,160596,1,0,0:0:0:0:
314,211,160682,5,0,0:0:0:0:
350,257,160767,1,0,0:0:0:0:
352,321,160853,1,0,0:0:0:0:
280,332,160939,1,0,0:0:0:0:
228,307,161025,1,0,0:0:0:0:
41,200,161110,2,0,L|105:180,1,35
465,121,161282,5,0,0:0:0:0:
211,82,161539,1,0,0:0:0:0:
441,53,161796,1,0,0:0:0:0:
38,110,161967,1,0,0:0:0:0:
422,200,162310,6,0,L|457:159,1,35
167,208,162482,2,0,L|123:164,1,35
410,127,162653,1,0,0:0:0:0:
350,114,162739,1,0,0:0:0:0:
281,87,162825,1,0,0:0:0:0:
208,50,162910,1,0,0:0:0:0:
134,67,162996,5,0,0:0:0:0:
77,123,163082,1,0,0:0:0:0:
208,157,163167,2,0,L|240:182,1,35
74,216,163339,2,0,L|50:249,1,35
228,242,163510,2,0,L|207:275,1,35
48,321,163682,6,0,L|103:334,1,35
150,340,163853,1,0,0:0:0:0:
211,324,163939,1,0,0:0:0:0:
225,278,164025,1,0,0:0:0:0:
179,191,164110,1,0,0:0:0:0:
114,176,164196,1,0,0:0:0:0:
431,261,164282,1,0,0:0:0:0:
372,237,164367,5,0,0:0:0:0:
326,188,164453,1,0,0:0:0:0:
454,147,164539,1,0,0:0:0:0:
432,96,164625,1,0,0:0:0:0:
384,67,164710,1,0,0:0:0:0:
180,80,164796,2,0,L|223:52,1,35
361,129,164967,2,0,L|323:104,1,35
141,175,165139,6,0,L|191:168,1,35
360,180,165310,2,0,L|416:157,1,35
192,229,165482,2,0,L|148:252,1,35
405,244,165653,1,0,0:0:0:0:
390,308,165739,1,0,0:0:0:0:
327,323,165825,5,0,0:0:0:0:
265,312,165910,1,0,0:0:0:0:
220,261,165996,1,0,0:0:0:0:
445,141,166082,1,0,0:0:0:0:
483,197,166167,1,0,0:0:0:0:
466,259,166253,1,0,0:0:0:0:
399,264,166339,1,0,0:0:0:0:
70,249,166425,2,0,L|97:194,1,35
231,204,166596,6,0,L|198:166,1,35
37,114,166767,2,0,L|90:87,1,35
315,69,166939,2,0,L|376:54,1,35
143,67,167110,2,0,L|94:49,1,35
378,89,167282,6,0,L|416:103,1,35
234,135,167453,2,0,L|264:168,1,35
428,158,167625,2,0,L|399:200,1,35
220,227,167796,2,0,L|256:248,1,35
152,298,167967,5,0,0:0:0:0:
94,275,168053,1,0,0:0:0:0:
63,216,168139,1,0,0:0:0:0:
380,296,168225,1,0,0:0:0:0:
436,263,168310,1,0,0:0:0:0:
436,195,168396,1,0,0:0:0:0:
399,148,168482,1,0,0:0:0:0:
263,238,168567,1,0,0:0:0:0:
200,254,168653,5,0,0:0:0:0:
139,211,168739,1,0,0:0:0:0:
103,149,168825,1,0,0:0:0:0:
321,117,168910,2,0,L|283:82,1,35
150,107,169082,2,0,L|175:61,1,35
366,52,169253,1,0,0:0:0:0:
412,96,169339,5,0,0:0:0:0:
244,108,169425,1,0,0:0:0:0:
195,151,169510,2,0,P|208:222|67:226,1,245
473,84,170196,2,0,P|386:87|339:244,1,245
62,171,170882,1,0,0:0:0:0:
256,192,170967,12,0,174310,0:0:0:0:
168,210,176025,6,0,L|296:95,1,140
408,168,177739,2,0,L|361:95,1,70
144,192,178939,2,0,L|96:192,3,35
412,209,180482,2,0,L|423:119,1,70
101,182,181510,1,0,0:0:0:0:
107,222,182882,5,0,0:0:0:0:
275,238,183053,1,0,0:0:0:0:
426,202,183225,1,0,0:0:0:0:
301,59,183396,1,0,0:0:0:0:
234,64,183482,1,0,0:0:0:0:
190,112,183567,1,0,0:0:0:0:
186,180,183653,1,0,0:0:0:0:
221,234,183739,1,0,0:0:0:0:
81,298,183910,6,0,L|184:296,2,70
307,315,184425,1,0,0:0:0:0:
147,313,184596,1,0,0:0:0:0:
325,261,184767,1,0,0:0:0:0:
384,251,184853,1,0,0:0:0:0:
437,215,184939,1,0,0:0:0:0:
468,158,185025,1,0,0:0:0:0:
477,95,185110,1,0,0:0:0:0:
260,70,185282,5,2,0:0:0:0:
398,80,185453,2,0,L|326:135,2,70
260,70,185967,1,0,0:0:0:0:
76,60,186139,1,0,0:0:0:0:
134,90,186225,1,0,0:0:0:0:
174,146,186310,1,0,0:0:0:0:
163,211,186396,1,0,0:0:0:0:
127,269,186482,1,0,0:0:0:0:
391,246,186653,6,0,L|432:180,1,70
237,179,186996,1,0,0:0:0:0:
56,189,187167,2,0,L|103:131,1,70
373,58,187510,1,0,0:0:0:0:
418,109,187596,1,0,0:0:0:0:
392,173,187682,1,0,0:0:0:0:
335,210,187767,1,0,0:0:0:0:
273,181,187853,1,0,0:0:0:0:
101,144,188025,6,0,L|65:64,1,70
307,130,188367,2,0,L|332:49,1,70
156,66,188710,1,0,0:0:0:0:
390,286,188882,1,0,0:0:0:0:
339,253,188967,1,0,0:0:0:0:
302,200,189053,1,0,0:0:0:0:
279,137,189139,1,0,0:0:0:0:
271,69,189225,1,0,0:0:0:0:
426,71,189396,5,0,0:0:0:0:
199,80,189567,1,0,0:0:0:0:
345,97,189739,2,0,L|408:140,2,70
132,77,190253,1,0,0:0:0:0:
152,138,190339,1,0,0:0:0:0:
144,204,190425,1,0,0:0:0:0:
104,259,190510,1,0,0:0:0:0:
49,295,190596,1,0,0:0:0:0:
303,273,190767,6,0,L|391:271,2,70
142,272,191282,2,0,L|214:237,1,70
454,53,191625,1,0,0:0:0:0:
390,60,191710,1,0,0:0:0:0:
325,80,191796,1,0,0:0:0:0:
277,126,191882,1,0,0:0:0:0:
256,193,191967,1,0,0:0:0:0:
110,195,192139,6,0,L|40:187,1,70
392,202,192482,2,0,L|473:195,1,70
199,188,192825,2,0,P|138:137|248:91,1,245
38,187,193853,5,0,0:0:0:0:
440,197,194196,6,0,L|491:196,1,35
73,197,194367,2,0,L|14:196,1,35
417,195,194539,2,0,L|478:176,1,35
75,194,194710,2,0,L|28:170,1,35
390,175,194882,6,0,L|420:138,1,35
93,173,195053,2,0,L|71:142,1,35
411,136,195225,2,0,L|438:109,1,35
77,134,195396,2,0,L|45:91,1,35
435,192,195567,6,0,L|482:190,1,35
256,188,195739,2,0,L|258:128,1,35
71,194,195910,2,0,L|28:192,1,35
435,192,196082,2,0,L|482:190,1,35
256,188,196254,6,0,L|258:128,1,35
71,194,196425,2,0,L|28:192,1,35
431,193,196596,2,0,L|476:191,1,35
71,194,196767,2,0,L|9:193,1,35
282,174,196938,6,0,L|322:198,1,35
459,259,197110,2,0,L|416:265,1,35
124,275,197281,2,0,L|84:250,1,35
210,216,197452,2,0,L|242:179,1,35
90,152,197624,6,0,L|69:110,1,35
134,51,197796,1,0,0:0:0:0:
239,55,197882,1,0,0:0:0:0:
304,108,197967,2,0,L|326:148,1,35
216,107,198139,2,0,L|200:142,1,35
362,188,198310,6,0,L|403:223,1,35
175,197,198481,2,0,L|135:236,1,35
444,251,198653,2,0,L|485:253,1,35
106,260,198824,2,0,L|52:260,1,35
488,316,198996,6,0,L|446:316,1,35
32,325,199167,2,0,L|90:323,1,35
291,330,199339,2,0,L|320:302,1,35
433,276,199510,2,0,L|422:234,1,35
487,135,199681,6,0,L|453:108,1,35
317,79,199853,2,0,L|275:63,1,35
144,97,200024,2,0,L|94:124,1,35
282,147,200196,2,0,L|331:170,1,35
80,202,200367,6,0,L|62:239,1,35
340,214,200539,2,0,L|355:250,1,35
50,290,200710,2,0,L|94:297,1,35
302,325,200881,2,0,L|364:296,1,35
473,217,201053,6,0,L|498:164,1,35
304,167,201224,2,0,L|285:116,1,35
486,59,201396,2,0,L|444:53,1,35
233,41,201567,2,0,L|177:43,1,35
380,125,201739,6,0,L|400:169,1,35
120,88,201910,2,0,L|78:114,1,35
171,176,202081,2,0,L|137:210,1,35
48,192,202253,2,0,L|31:252,1,35
177,274,202424,6,0,L|144:329,1,35
347,265,202596,2,0,L|395:293,1,35
173,157,202767,2,0,L|108:175,1,35
404,103,202939,2,0,L|447:72,1,35
471,46,203110,6,0,L|413:31,1,35
154,187,203281,2,0,L|96:187,1,35
444,194,203453,2,0,L|495:194,1,35
77,188,203624,2,0,L|25:188,1,35
444,260,203796,6,0,P|477:162|475:150,1,105
68,260,204139,6,0,P|36:161|39:151,1,105
444,260,204482,6,0,P|474:160|472:148,1,105
315,105,204825,5,0,0:0:0:0:
115,79,204996,5,0,0:0:0:0:
57,111,205082,1,0,0:0:0:0:
36,176,205167,1,0,0:0:0:0:
55,230,205253,1,0,0:0:0:0:
104,265,205339,1,0,0:0:0:0:
73,156,205425,1,0,0:0:0:0:
36,217,205510,1,0,0:0:0:0:
50,275,205596,1,0,0:0:0:0:
113,302,205682,5,0,0:0:0:0:
215,310,205767,1,0,0:0:0:0:
264,336,205853,1,0,0:0:0:0:
329,329,205939,1,0,0:0:0:0:
372,280,206025,1,0,0:0:0:0:
400,336,206110,1,0,0:0:0:0:
461,309,206196,1,0,0:0:0:0:
474,243,206282,1,0,0:0:0:0:
424,207,206367,5,0,0:0:0:0:
282,54,206453,1,0,0:0:0:0:
348,34,206539,1,0,0:0:0:0:
411,48,206625,1,0,0:0:0:0:
450,102,206710,1,0,0:0:0:0:
236,71,206796,1,0,0:0:0:0:
183,36,206882,1,0,0:0:0:0:
122,39,206967,1,0,0:0:0:0:
67,78,207053,5,0,0:0:0:0:
171,109,207139,1,0,0:0:0:0:
232,129,207225,1,0,0:0:0:0:
283,167,207310,1,0,0:0:0:0:
290,231,207396,1,0,0:0:0:0:
164,204,207482,1,0,0:0:0:0:
117,238,207567,1,0,0:0:0:0:
121,297,207653,1,0,0:0:0:0:
171,324,207739,5,0,0:0:0:0:
39,236,207825,1,0,0:0:0:0:
75,186,207910,1,0,0:0:0:0:
135,166,207996,1,0,0:0:0:0:
196,179,208082,1,0,0:0:0:0:
351,162,208167,1,0,0:0:0:0:
395,193,208253,1,0,0:0:0:0:
373,259,208339,1,0,0:0:0:0:
312,283,208425,5,0,0:0:0:0:
428,66,208510,1,0,0:0:0:0:
360,52,208596,1,0,0:0:0:0:
293,70,208682,1,0,0:0:0:0:
260,129,208767,1,0,0:0:0:0:
344,88,208853,1,0,0:0:0:0:
284,45,208939,1,0,0:0:0:0:
215,43,209025,1,0,0:0:0:0:
155,77,209110,5,0,0:0:0:0:
44,66,209196,1,0,0:0:0:0:
100,52,209282,1,0,0:0:0:0:
163,70,209367,1,0,0:0:0:0:
198,128,209453,1,0,0:0:0:0:
287,121,209539,1,0,0:0:0:0:
328,68,209625,1,0,0:0:0:0:
388,68,209710,1,0,0:0:0:0:
448,103,209796,5,0,0:0:0:0:
290,89,209882,1,0,0:0:0:0:
313,143,209967,1,0,0:0:0:0:
282,202,210053,1,0,0:0:0:0:
222,216,210139,1,0,0:0:0:0:
355,79,210225,1,0,0:0:0:0:
414,118,210310,1,0,0:0:0:0:
438,183,210396,1,0,0:0:0:0:
424,246,210482,5,0,0:0:0:0:
209,85,210567,1,0,0:0:0:0:
146,102,210653,1,0,0:0:0:0:
102,165,210739,1,0,0:0:0:0:
135,224,210825,1,0,0:0:0:0:
180,132,210910,1,0,0:0:0:0:
231,161,210996,1,0,0:0:0:0:
260,218,211082,1,0,0:0:0:0:
233,277,211167,5,0,0:0:0:0:
240,139,211253,1,0,0:0:0:0:
304,152,211339,1,0,0:0:0:0:
371,145,211425,1,0,0:0:0:0:
417,105,211510,1,0,0:0:0:0:
288,108,211596,1,0,0:0:0:0:
238,64,211682,1,0,0:0:0:0:
177,82,211767,1,0,0:0:0:0:
138,139,211853,5,0,0:0:0:0:
307,68,211939,1,0,0:0:0:0:
355,110,212025,1,0,0:0:0:0:
380,172,212110,1,0,0:0:0:0:
371,240,212196,1,0,0:0:0:0:
237,288,212282,1,0,0:0:0:0:
293,333,212367,1,0,0:0:0:0:
358,336,212453,1,0,0:0:0:0:
424,309,212539,5,0,0:0:0:0:
287,281,212625,1,0,0:0:0:0:
245,339,212710,1,0,0:0:0:0:
175,343,212796,1,0,0:0:0:0:
112,316,212882,1,0,0:0:0:0:
185,312,212967,1,0,0:0:0:0:
218,250,213053,1,0,0:0:0:0:
198,192,213139,1,0,0:0:0:0:
138,156,213225,5,0,0:0:0:0:
288,183,213310,1,0,0:0:0:0:
350,194,213396,1,0,0:0:0:0:
407,171,213482,1,0,0:0:0:0:
438,112,213567,1,0,0:0:0:0:
292,68,213653,1,0,0:0:0:0:
269,128,213739,1,0,0:0:0:0:
211,156,213825,1,0,0:0:0:0:
149,124,213910,5,0,0:0:0:0:
453,192,213996,1,0,0:0:0:0:
427,238,214082,1,0,0:0:0:0:
361,276,214167,1,0,0:0:0:0:
295,271,214253,1,0,0:0:0:0:
60,223,214339,1,0,0:0:0:0:
96,176,214425,1,0,0:0:0:0:
155,161,214510,1,0,0:0:0:0:
205,204,214596,5,0,0:0:0:0:
431,127,214682,1,0,0:0:0:0:
476,79,214767,1,0,0:0:0:0:
34,87,214939,1,0,0:0:0:0:
476,79,215110,1,0,0:0:0:0:
34,87,215282,1,0,0:0:0:0:
128,173,215625,6,0,L|170:226,1,35
363,170,215796,2,0,L|332:212,1,35
36,199,215967,1,0,0:0:0:0:
395,276,216139,5,0,0:0:0:0:
444,241,216225,1,0,0:0:0:0:
336,190,216310,1,0,0:0:0:0:
375,141,216396,1,0,0:0:0:0:
420,92,216482,1,0,0:0:0:0:
479,61,216567,2,0,L|438:48,1,35
267,39,216739,2,0,L|224:39,1,35
402,104,216910,6,0,L|438:137,1,35
211,100,217082,2,0,L|156:131,1,35
383,167,217253,2,0,L|408:199,1,35
455,237,217425,2,0,L|410:254,1,35
153,276,217596,6,0,L|104:271,1,35
221,208,217767,2,0,L|251:172,1,35
87,183,217939,2,0,L|58:159,1,35
215,107,218110,2,0,L|175:81,1,35
363,76,218282,6,0,L|395:44,1,35
235,161,218453,2,0,L|193:191,1,35
420,161,218625,2,0,L|443:195,1,35
311,230,218796,2,0,L|333:265,1,35
483,259,218967,6,0,L|448:288,1,35
305,320,219139,1,0,0:0:0:0:
231,317,219225,1,0,0:0:0:0:
178,289,219310,1,0,0:0:0:0:
129,244,219396,1,0,0:0:0:0:
174,347,219482,1,0,0:0:0:0:
116,317,219567,1,0,0:0:0:0:
74,270,219653,5,0,0:0:0:0:
52,205,219739,1,0,0:0:0:0:
218,213,219825,2,0,L|249:179,1,35
104,132,219996,2,0,L|76:75,1,35
213,67,220167,2,0,L|255:38,1,35
393,33,220339,6,0,L|444:32,1,35
290,92,220510,2,0,L|245:102,1,35
441,102,220682,2,0,L|480:124,1,35
277,161,220853,2,0,L|240:205,1,35
438,200,221025,6,0,L|470:241,1,35
188,215,221196,2,0,L|150:262,1,35
478,275,221367,2,0,L|431:291,1,35
260,327,221539,2,0,L|218:327,1,35
52,324,221710,5,0,0:0:0:0:
33,261,221796,1,0,0:0:0:0:
131,230,221882,2,0,L|155:172,1,35
44,133,222053,2,0,L|67:90,1,35
182,81,222225,2,0,L|200:39,1,35
458,77,222396,6,0,L|431:35,1,35
186,159,222567,2,0,L|207:127,1,35
372,180,222739,2,0,L|392:147,1,35
202,229,222910,2,0,L|173:194,1,35
477,234,223082,6,0,L|439:274,1,35
417,330,223253,2,0,L|371:329,1,35
313,328,223425,2,0,L|282:301,1,35
222,244,223596,2,0,L|243:199,1,35
361,177,223767,6,0,L|334:134,1,35
201,102,223939,2,0,L|232:63,1,35
301,22,224110,2,0,L|357:22,1,35
158,48,224282,2,0,L|115:77,1,35
351,89,224453,6,0,L|380:116,1,35
150,127,224625,1,0,0:0:0:0:
84,154,224710,1,0,0:0:0:0:
24,183,224796,1,0,0:0:0:0:
85,212,224882,1,0,0:0:0:0:
147,236,224967,1,0,0:0:0:0:
340,244,225053,2,0,L|395:266,1,35
473,169,225225,6,0,L|458:212,1,35
307,134,225396,2,0,L|299:178,1,35
464,87,225567,2,0,L|487:55,1,35
294,56,225739,2,0,L|257:29,1,35
63,47,225910,5,0,0:0:0:0:
37,105,225996,1,0,0:0:0:0:
59,170,226082,1,0,0:0:0:0:
105,219,226167,1,0,0:0:0:0:
415,56,226253,1,0,0:0:0:0:
451,110,226339,1,0,0:0:0:0:
456,173,226425,1,0,0:0:0:0:
442,233,226510,1,0,0:0:0:0:
0,208,226596,6,0,L|16:160,1,35
496,208,226767,2,0,L|480:160,1,35
0,208,226939,2,0,L|16:160,1,35
512,176,227110,1,0,0:0:0:0:
256,192,227153,12,0,229853,0:0:0:0:
