osu file format v9

[General]
AudioFilename: Yousei Teikoku - Gekkakou.mp3
AudioLeadIn: 0
PreviewTime: 64937
Countdown: 0
SampleSet: Soft
StackLeniency: 0.6
Mode: 0
LetterboxInBreaks: 0

[Editor]
Bookmarks: 2875,101875,113875,175375
DistanceSpacing: 0.9
BeatDivisor: 2
GridSize: 4

[Metadata]
Title:Gekkakou
Artist:Yousei Teikoku
Creator:osuplayer111
Version:Normal
Source:Queen's Blade Spiral Chaos
Tags:rEdo Vicho-kun ykcarrot Kite Natteke Saten-san quintitem

[Difficulty]
HPDrainRate:3
CircleSize:3
OverallDifficulty:3
ApproachRate:5
SliderMultiplier:1.2
SliderTickRate:1

[Events]
//Background and Video events
0,0,"Epic.png"
//Break Periods
2,102070,112670
//Storyboard Layer 0 (Background)
//Storyboard Layer 1 (Fail)
//Storyboard Layer 2 (Pass)
//Storyboard Layer 3 (Foreground)
Sprite,Foreground,CentreLeft,"StoryBoard\aa.png",320,240 M,0,41120,,104,415 F,0,41120,41307,0,1 F,0,51057,51245,1,0
Sprite,Foreground,CentreLeft,"StoryBoard\ab.png",320,240 M,0,45620,,264,415 F,0,45620,45807,0,1 F,0,51057,51245,1,0
Sprite,Foreground,CentreLeft,"StoryBoard\ac.png",320,240 M,0,51620,,104,415 F,0,51620,51807,0,1 F,0,64182,64370,1,0
Sprite,Foreground,CentreLeft,"StoryBoard\ad.png",320,240 M,0,57620,,289,415 F,0,57620,57807,0,1 F,0,64182,64370,1,0
Sprite,Foreground,CentreLeft,"StoryBoard\ae.png",320,240 M,0,65307,,104,415 F,0,65307,65495,0,1 F,0,70745,70932,1,0
Sprite,Foreground,CentreLeft,"StoryBoard\af.png",320,240 M,0,67370,,154,415 F,0,67370,67557,0,1 F,0,70745,70932,1,0
Sprite,Foreground,CentreLeft,"StoryBoard\ag.png",320,240 M,0,71307,,104,415 F,0,71307,71495,0,1 F,0,76557,76745,1,0
Sprite,Foreground,CentreLeft,"StoryBoard\ah.png",320,240 M,0,73370,,180,415 F,0,73370,73557,0,1 F,0,76557,76745,1,0
Sprite,Foreground,CentreLeft,"StoryBoard\ai.png",320,240 M,0,77120,,104,415 F,0,77120,77307,0,1 F,0,84057,84245,1,0
Sprite,Foreground,CentreLeft,"StoryBoard\aj.png",320,240 M,0,84620,,104,415 F,0,84620,84807,0,1 F,0,90057,90245,1,0
Sprite,Foreground,CentreLeft,"StoryBoard\ak.png",320,240 M,0,88182,,197,415 F,0,88182,88370,0,1 F,0,90057,90245,1,0
Sprite,Foreground,CentreLeft,"StoryBoard\al.png",320,240 M,0,90620,,104,415 F,0,90620,90807,0,1 F,0,95682,95870,1,0
Sprite,Foreground,CentreLeft,"StoryBoard\ba.png",320,240 M,0,114620,,104,415 F,0,114620,114807,0,1 F,0,124182,124370,1,0
Sprite,Foreground,CentreLeft,"StoryBoard\bb.png",320,240 M,0,119120,,264,415 F,0,119120,119307,0,1 F,0,124182,124370,1,0
Sprite,Foreground,CentreLeft,"StoryBoard\bc.png",320,240 M,0,125120,,104,415 F,0,125120,125307,0,1 F,0,137682,137870,1,0
Sprite,Foreground,CentreLeft,"StoryBoard\bd.png",320,240 M,0,131120,,309,415 F,0,131120,131307,0,1 F,0,137682,137870,1,0
Sprite,Foreground,CentreLeft,"StoryBoard\be.png",320,240 M,0,138807,,104,415 F,0,138807,138995,0,1 F,0,144245,144432,1,0
Sprite,Foreground,CentreLeft,"StoryBoard\bf.png",320,240 M,0,140870,,157,415 F,0,140870,141057,0,1 F,0,144245,144432,1,0
Sprite,Foreground,CentreLeft,"StoryBoard\bg.png",320,240 M,0,144807,,104,415 F,0,144807,144995,0,1 F,0,150057,150245,1,0
Sprite,Foreground,CentreLeft,"StoryBoard\bh.png",320,240 M,0,146870,,197,415 F,0,146870,147057,0,1 F,0,150057,150245,1,0
Sprite,Foreground,CentreLeft,"StoryBoard\bi.png",320,240 M,0,150620,,104,415 F,0,150620,150807,0,1 F,0,157557,157745,1,0
Sprite,Foreground,CentreLeft,"StoryBoard\bj.png",320,240 M,0,158120,,104,415 F,0,158120,158307,0,1 F,0,163557,163745,1,0
Sprite,Foreground,CentreLeft,"StoryBoard\bk.png",320,240 M,0,161682,,200,415 F,0,161682,161870,0,1 F,0,163557,163745,1,0
Sprite,Foreground,CentreLeft,"StoryBoard\bl.png",320,240 M,0,164120,,104,415 F,0,164120,164307,0,1 F,0,168807,168995,1,0
Sprite,Foreground,CentreLeft,"StoryBoard\bm.png",320,240 M,0,169370,,104,415 F,0,169370,169557,0,1 F,0,175182,175370,1,0
Sprite,Foreground,TopLeft,"StoryBoard\title.png",320,240 M,0,16370,17120,75,90,85,90 F,0,16370,17120,0,1 M,0,27620,28370,85,90,85,100 F,0,27620,28370,1,0
Sprite,Foreground,TopLeft,"StoryBoard\artist.png",320,240 M,0,19370,20120,75,120,85,120 F,0,19370,20120,0,1 M,0,27620,28370,85,120,85,130 F,0,27620,28370,1,0
Sprite,Foreground,TopLeft,"StoryBoard\mapbyo.png",320,240 M,0,22370,23120,75,150,85,150 F,0,22370,23120,0,1 M,0,27620,28370,85,150,85,160 F,0,27620,28370,1,0
//Storyboard Sound Samples
//Background Colour Transformations
3,100,192,192,192

[TimingPoints]
2870,375,4,2,1,80,1,0
3057,-100,4,2,1,65,0,0
8870,-100,4,2,1,50,0,0
9057,-100,4,2,1,65,0,0
14495,-100,4,2,1,5,0,0
14682,-100,4,1,1,30,0,0
14869,-100,4,2,1,80,0,0
51620,-100,4,1,1,50,0,0
51995,-100,4,2,1,80,0,0
57057,-100,4,2,2,70,0,0
57432,-100,4,2,1,80,0,0
64182,-100,4,1,1,60,0,0
65870,-100,4,2,1,80,0,1
89870,-100,4,2,1,80,0,0
95120,-100,4,1,1,50,0,0
95495,-100,4,2,1,80,0,0
100182,-100,4,1,1,50,0,0
101870,-100,4,2,1,80,0,0
119682,-100,4,1,1,50,0,0
119870,-100,4,2,1,80,0,0
124932,-100,4,1,1,50,0,0
125588,-100,4,2,1,80,0,0
137120,-100,4,1,1,60,0,0
139370,-100,4,2,1,80,0,1
163370,-100,4,2,1,80,0,0
168620,-100,4,1,1,50,0,0
168901,-100,4,2,1,80,0,0
173682,-100,4,1,1,50,0,0
175370,-100,4,2,1,80,0,0

[Colours]
Combo1 : 120,90,70
Combo2 : 130,30,40
Combo3 : 190,190,190
Combo4 : 50,90,50

[HitObjects]
464,48,2870,1,4
370,101,3245,2,0,B|274:101|274:101|234:133|234:133|138:133,2,240,2|2|2
464,152,5120,2,0,B|504:208|464:264,1,120,0|2
376,208,5870,1,0
352,312,6245,2,0,B|312:376|256:392|192:376|160:312,1,240,2|2
48,152,7745,6,0,B|8:208|48:264,1,120,2|0
136,208,8495,1,2
160,312,8870,1,4
256,256,9245,2,0,B|256:16,2,240,2|2|2
352,312,11120,1,0
376,208,11495,6,0,B|432:248|488:208,1,120,2|0
432,120,12245,2,0,B|360:40|360:40|288:40|256:112,1,240,2|2
184,192,13370,1,0
128,280,13745,1,2
224,328,14120,2,0,B|264:264|264:264|320:264|352:312,1,180
432,80,15995,6,0,B|480:32,2,60,2|0|4
352,152,16745,2,8,B|304:96|256:83|256:83|208:96|160:152,1,240
256,208,17870,1,0
160,264,18245,2,8,B|208:320|256:333|256:333|304:320|352:264,1,240
432,192,19370,6,0,B|488:144|456:80,1,120,0|8
80,192,20495,2,0,B|24:144|56:80,1,120,8|0
152,120,21245,1,8
256,80,21620,2,0,B|256:200,2,120,0|8|4
360,120,22745,1,8
176,256,23495,5,8
256,328,23870,1,0
336,256,24245,2,8,B|437:192|437:192|336:128,1,240
256,56,25370,1,0
176,127,25745,2,8,B|75:192|75:192|176:256,1,240
256,192,26870,6,0,B|288:128|352:128,1,120,0|8
440,192,27620,1,0
349,255,27995,2,0,B|288:256|256:192,1,120,8|4
184,112,28745,2,8,B|112:136|69:192|112:248|184:272,1,240
256,192,29870,1,0
327,272,30245,6,8,B|400:248|443:192|400:136|328:112,1,240
416,48,31370,2,0,B|480:64|496:136,1,120,0|8
416,336,32495,2,0,B|480:320|496:248,1,120,8|0
408,192,33245,2,0,B|288:192,2,120,8|0|8
344,104,34370,5,4
240,104,34745,2,8,B|136:104|136:104|88:160|136:232,1,240
192,320,35870,1,0
240,232,36245,2,8,B|344:232|344:232|392:176|344:104,1,240
432,40,37370,6,0,B|512:136,1,120,0|8
432,344,38495,2,0,B|512:248,1,120,8|0
416,192,39245,2,0,B|392:128|320:128,1,120,8|0
216,152,39995,2,0,B|240:216|312:216,1,120,8|4
160,64,41120,5,2
72,120,41495,1,0
72,120,41682,2,0,B|24:144|9:192|32:240|72:264,1,180,2|2
160,320,42620,1,0
256,272,42995,1,0
352,320,43370,6,0,B|456:280|510:192|456:104|352:64,1,360,2|2
352,64,44682,2,0,B|312:112,1,60,0|0
256,200,45245,1,0
256,200,45620,5,2
198,110,45995,2,0,B|159:64,2,60,0|0|4
96,152,46745,1,2
96,256,47120,6,0,B|96:320|160:352,1,120,0|2
157,350,47682,2,0,B|232:304|232:304|328:304,1,180,0|2
416,256,48620,2,0,B|376:208|376:208|312:208,1,120,0|2
208,208,49370,6,0,B|104:120|112:24|216:16|328:104,1,360,0|2
326,102,50682,2,0,B|328:152|304:192|256:208|208:208,1,180,0|8
104,232,51620,6,0,B|40:248,2,60,0|0|8
152,328,52370,1,4
256,328,52745,2,8,B|352:328|352:328|408:272|360:192,1,240
256,192,53870,1,0
149,187,54245,2,8,B|104:112|160:56|160:56|256:56,1,240
368,56,55370,1,0
464,112,55745,6,8,B|384:128|368:192|384:256|464:272,1,240
376,344,56870,2,0,B|136:344,1,240
32,344,57995,1,8
88,256,58370,1,4
192,248,58745,6,8,B|160:112|288:48,1,240
392,48,59870,2,0,B|480:128,1,120,0|8
392,192,60620,1,0
480,255,60995,2,0,B|392:336,1,120,8|0
288,336,61745,6,8,B|162:273|194:137,1,240
256,48,62870,1,0
317,137,63245,2,8,B|349:273|224:336,1,240
120,336,64370,6,0,B|56:336|24:272,2,120
128,232,65495,1,0
128,232,65870,1,4
40,168,66245,6,8,B|96:56|96:56|152:96|208:56,1,240
256,152,67370,1,0
309,59,67745,2,8,B|360:96|416:56|416:56|472:168,1,240
452,274,68870,1,0
370,344,69245,2,8,B|274:344|274:344|234:376|234:376|138:376,1,240
184,280,70370,6,0,B|88:184,1,120,0|8
208,176,71120,2,0,B|168:120|208:64,1,120,0|8
304,64,71870,2,0,B|344:120|304:176,1,120,4|8
412,195,72620,2,0,B|328:280,1,120,0|8
256,360,73370,1,0
184,280,73745,6,8,B|112:240|88:192|112:136|184:104,1,240
256,192,74870,1,0
327,103,75245,2,8,B|400:136|424:192|400:240|328:280,1,240
256,360,76370,6,0,B|184:352|184:280,2,120,0|8|0
256,360,77495,2,0,B|328:352|328:280,1,120,8|4
256,200,78245,2,8,B|352:200|352:200|416:144|352:72,1,240
256,32,79370,1,0
158,74,79745,2,8,B|96:144|160:200|160:200|256:200,1,240
200,296,80870,6,0,B|136:296|96:352,1,120,4|8
312,296,81995,2,0,B|376:296|416:352,2,120,8|0|8
256,200,83120,1,0
176,128,83495,1,8
256,56,83870,1,4
336,128,84245,1,8
424,192,84620,6,0,B|408:264|328:264,1,120,0|8
256,336,85370,1,0
172,263,85745,2,0,B|104:264|88:192,1,120,8|0
192,160,86495,1,8
256,72,86870,1,4
320,160,87245,1,8
352,328,87995,5,8
256,272,88370,2,0,B|128:272|32:352,2,240,0|2|4
256,160,90245,6,8,B|384:160|480:80,2,240
72,48,92495,2,0,B|72:120|135:143,1,120,8|4
40,192,93245,1,8
132,241,93620,6,0,B|71:264|71:337,1,120,0|8
379,241,94745,2,0,B|440:264|440:336,1,120,8|0
336,336,95495,1,8
256,264,95870,1,4
176,336,96245,6,8,B|100:226|176:112,1,240
256,40,97370,1,0
336,112,97745,2,8,B|412:226|336:336,1,240
256,264,98870,6,0,B|256:144,2,120,4|8|0
176,336,99995,2,0,B|112:336|72:280,2,120,8|0|8
256,264,101120,1,0
336,336,101495,2,0,B|400:336|440:280,1,120,8|4
256,192,113870,5,4
192,312,114620,2,0,B|256:375|256:375|320:312,2,180,2|0|2
112,240,116120,1,0
40,160,116495,1,0
112,80,116870,2,0,B|256:188|256:188|400:80,1,360,2|2
400,80,118182,1,0
296,304,119120,5,2
400,304,119495,2,0,B|448:264,2,60,0|0|4
184,304,120620,2,0,B|88:304|32:216,2,180,2|0|2
152,200,122120,1,0
224,120,122495,1,0
328,120,122870,6,0,B|424:120|487:193|487:193|432:264|326:264,1,360,2|2
328,263,124182,1,4
240,328,124557,2,0,B|168:328,1,60,0|8
72,328,125120,2,0,B|16:288|16:224,1,120,0|8
128,240,125870,6,0,B|184:208|176:136,1,120,4|8
384,240,126995,2,0,B|328:208|336:136,1,120,8|0
256,56,127745,2,0,B|256:176,1,120,8|0
184,256,128495,1,8
256,336,128870,1,0
328,256,129245,6,8,B|429:190|429:190|328:128,1,240
256,40,130370,1,0
184,127,130745,2,8,B|83:190|83:190|184:256,1,240
256,344,131870,1,4
328,256,132245,6,8,B|448:256|448:256|488:200|440:144,2,240
256,176,134120,1,0
184,256,134495,2,8,B|64:256|64:256|24:200|72:144,2,240
168,152,136370,6,0,B|216:112|200:40,1,120,0|8
311,43,137120,2,0,B|296:112|344:152,1,120,0|8
256,216,137870,2,0,B|360:280,1,120
256,320,138620,2,0,B|152:256,2,120,0|0|4
256,216,139745,6,8,B|306:179|362:219|362:219|418:107,1,240
320,64,140870,1,0
216,48,141245,2,8,B|165:85|109:45|109:45|53:157,1,240
16,256,142370,1,0
96,328,142745,2,8,B|192:328|192:328|232:296|232:296|328:296,1,240
383,215,143870,6,0,B|307:123,1,120,0|8
306,12,144620,2,8,B|346:68|306:124,1,120,0|8
206,12,145370,2,8,B|166:68|206:124,1,120,4|8
204,123,146120,2,0,B|128:216,1,120,0|8
64,296,146870,1,0
168,296,147245,6,8,B|200:368|256:392|304:368|344:296,1,240
456,296,148370,1,0
400,208,148745,2,8,B|327:175|303:119|327:71|399:31,1,240
398,32,149870,6,0,B|398:103|470:111,2,120,0|8|0
288,32,150995,2,0,B|168:32,1,120,8|4
200,136,151745,2,8,B|104:136|104:136|40:192|104:264,1,240
200,312,152870,1,0
297,263,153245,2,8,B|359:193|295:137|295:137|199:137,1,240
200,136,154370,6,0,B|136:136|96:192,1,120,4|8
312,136,155495,2,0,B|376:136|416:192,2,120,8|0|8
256,232,156620,1,0
336,304,156995,1,8
256,376,157370,1,4
176,304,157745,1,8
96,232,158120,6,0,B|112:160|192:160,1,120,0|8
256,80,158870,1,0
331,160,159245,2,0,B|400:160|416:232,1,120,8|0
336,304,159995,1,8
256,376,160370,1,4
176,304,160745,1,8
256,104,161495,5,8
256,104,161870,2,0,B|384:104|480:24,2,240,0|2|4
256,208,163745,6,0,B|384:208|480:288,2,240,8|8|8
152,240,165620,2,0,B|96:264|32:240,1,120,0|8
34,142,166370,2,0,B|96:120|152:144,1,120,4|8
256,336,167495,1,8
360,143,168245,6,0,B|416:120|477:142,1,120,8|0
477,241,168995,2,0,B|416:264|360:240,1,120,8|4
256,208,169745,2,8,B|184:112|40:112,1,240
256,64,171245,6,8,B|328:160|472:160,1,240
472,272,172370,1,4
371,310,172745,2,8,B|283:310|283:310|235:342|235:342|139:342,1,240
96,248,173870,2,0,B|160:256|208:216,1,120,0|8
256,120,174620,2,0,B|192:112|144:152,2,120,0|8|4
