osu file format v12

[General]
AudioFilename: Destrudo.mp3
AudioLeadIn: 1500
PreviewTime: 59854
Countdown: 0
SampleSet: Normal
StackLeniency: 0.2
Mode: 1
LetterboxInBreaks: 1
WidescreenStoryboard: 0

[Editor]
Bookmarks: 5932,16598,37932,59265,87265,97932,108598,136598,152598,164598,175265,184598,191265,196598,201932,207265,212598,223265
DistanceSpacing: 1.2
BeatDivisor: 4
GridSize: 32

[Metadata]
Title:Destrudo
TitleUnicode:Destrudo
Artist:Yousei Teikoku
ArtistUnicode:妖精帝國
Creator:lolcubes
Version:Muzukashii
Source:Kurokami The Animation
Tags:gothic lolita doctrine iro no nai sekai itsuki yui karen taiko haruka sweet_serenitee 黑神
BeatmapID:251626
BeatmapSetID:46349

[Difficulty]
HPDrainRate:4
CircleSize:5
OverallDifficulty:5
ApproachRate:5
SliderMultiplier:1.4
SliderTickRate:1

[Events]
//Background and Video events
0,0,"backgroundimg.jpg",0,0
//Break Periods
//Storyboard Layer 0 (Background)
Sprite,Background,Centre,"backgroundimg.jpg",320,240 F,0,0,,0
Sprite,Background,Centre,"SB\taikobg.png",320,384 S,0,0,,0.625 F,0,0,5932,0 F,0,5932,6598,0,1 F,0,6598,136598,1 F,0,136598,137932,1,0 F,0,137932,141932,0 F,0,141932,142598,0,1 F,0,142598,223265,1 F,0,223265,228598,1,0
//Storyboard Layer 1 (Fail)
//Storyboard Layer 2 (Pass)
//Storyboard Layer 3 (Foreground)
Animation,Foreground,Centre,"SB\static\noise.png",320,240,15,30,LoopForever F,0,164598,165265,0,0.15 F,0,165265,171015,0.15 F,0,171015,172598,0.15,0.3 F,0,172598,173932,0.3,0.2 F,0,173932,175265,0.2,0.08 F,0,175265,176015,0.08,0.3 F,0,176015,177932,0.3,0.1 F,0,177932,181932,0.1 F,0,181932,183265,0.1,0.25 F,0,183265,185265,0.25,0
//Storyboard Sound Samples
//Background Colour Transformations
3,100,0,0,0

[TimingPoints]
599,333.333333333333,4,1,0,65,1,0
599,-142.857142857143,4,1,0,65,0,0
5265,-100,4,1,0,75,0,0
60599,-100,4,1,0,80,0,1
87265,-100,4,1,0,75,0,0
109932,-100,4,1,0,80,0,1
136598,-100,4,1,0,75,0,0
185932,-100,4,1,0,80,0,1
212599,-100,4,1,0,75,0,0
223432,-100,4,1,0,65,0,0

[Colours]
Combo1 : 255,255,255
Combo2 : 224,0,0

[HitObjects]
256,192,599,1,0,0:0:0:0:
256,192,932,1,0,0:0:0:0:
256,192,1265,1,8,0:0:0:0:
256,192,2598,1,8,0:0:0:0:
256,192,3265,1,0,0:0:0:0:
256,192,3598,1,0,0:0:0:0:
256,192,3932,1,8,0:0:0:0:
256,192,5265,1,8,0:0:0:0:
256,192,5598,1,8,0:0:0:0:
256,192,5765,1,8,0:0:0:0:
256,192,5932,1,4,0:0:0:0:
256,192,6265,1,0,0:0:0:0:
256,192,6598,1,8,0:0:0:0:
256,192,6765,1,0,0:0:0:0:
256,192,7098,1,0,0:0:0:0:
256,192,7432,1,0,0:0:0:0:
256,192,7598,1,0,0:0:0:0:
256,192,7932,1,8,0:0:0:0:
256,192,8265,1,0,0:0:0:0:
256,192,8432,1,8,0:0:0:0:
256,192,8598,1,0,0:0:0:0:
256,192,8932,1,0,0:0:0:0:
256,192,9265,1,8,0:0:0:0:
256,192,9432,1,0,0:0:0:0:
256,192,9765,1,0,0:0:0:0:
256,192,10098,1,0,0:0:0:0:
256,192,10265,1,0,0:0:0:0:
256,192,10598,1,8,0:0:0:0:
256,192,10765,1,0,0:0:0:0:
256,192,10932,1,8,0:0:0:0:
256,192,11098,1,8,0:0:0:0:
256,192,11265,1,4,0:0:0:0:
256,192,11598,1,0,0:0:0:0:
256,192,11932,1,8,0:0:0:0:
256,192,12098,1,0,0:0:0:0:
256,192,12432,1,0,0:0:0:0:
256,192,12765,1,0,0:0:0:0:
256,192,12932,1,0,0:0:0:0:
256,192,13265,1,8,0:0:0:0:
256,192,13598,1,0,0:0:0:0:
256,192,13765,1,8,0:0:0:0:
256,192,13932,1,0,0:0:0:0:
256,192,14265,1,0,0:0:0:0:
256,192,14598,1,8,0:0:0:0:
256,192,14765,1,0,0:0:0:0:
256,192,15098,1,0,0:0:0:0:
256,192,15432,1,0,0:0:0:0:
256,192,15598,1,0,0:0:0:0:
256,192,15932,1,8,0:0:0:0:
256,192,16098,1,0,0:0:0:0:
256,192,16265,1,8,0:0:0:0:
256,192,16432,1,8,0:0:0:0:
256,192,16598,1,4,0:0:0:0:
256,192,16765,1,0,0:0:0:0:
256,192,16932,1,8,0:0:0:0:
256,192,17098,1,0,0:0:0:0:
256,192,17432,1,0,0:0:0:0:
256,192,17598,1,8,0:0:0:0:
256,192,17765,1,0,0:0:0:0:
256,192,17932,1,0,0:0:0:0:
256,192,18098,1,0,0:0:0:0:
256,192,18265,1,8,0:0:0:0:
256,192,18432,1,0,0:0:0:0:
256,192,18765,1,0,0:0:0:0:
256,192,18932,1,8,0:0:0:0:
256,192,19265,1,0,0:0:0:0:
256,192,19432,1,0,0:0:0:0:
256,192,19598,1,8,0:0:0:0:
256,192,19765,1,0,0:0:0:0:
256,192,20098,1,0,0:0:0:0:
256,192,20265,1,8,0:0:0:0:
256,192,20432,1,0,0:0:0:0:
256,192,20598,1,0,0:0:0:0:
256,192,20765,1,0,0:0:0:0:
256,192,20932,1,8,0:0:0:0:
256,192,21265,1,0,0:0:0:0:
256,192,21432,1,0,0:0:0:0:
256,192,21598,1,8,0:0:0:0:
256,192,21765,1,8,0:0:0:0:
256,192,21932,1,4,0:0:0:0:
256,192,22098,1,0,0:0:0:0:
256,192,22265,1,8,0:0:0:0:
256,192,22431,1,0,0:0:0:0:
256,192,22765,1,0,0:0:0:0:
256,192,22931,1,8,0:0:0:0:
256,192,23098,1,0,0:0:0:0:
256,192,23265,1,0,0:0:0:0:
256,192,23431,1,0,0:0:0:0:
256,192,23598,1,8,0:0:0:0:
256,192,23765,1,0,0:0:0:0:
256,192,24098,1,0,0:0:0:0:
256,192,24265,1,8,0:0:0:0:
256,192,24598,1,4,0:0:0:0:
256,192,24765,1,0,0:0:0:0:
256,192,24931,1,8,0:0:0:0:
256,192,25098,1,0,0:0:0:0:
256,192,25431,1,0,0:0:0:0:
256,192,25598,1,8,0:0:0:0:
256,192,25765,1,0,0:0:0:0:
256,192,25931,1,0,0:0:0:0:
256,192,26098,1,0,0:0:0:0:
256,192,26265,1,8,0:0:0:0:
256,192,26432,1,0,0:0:0:0:
256,192,26598,1,8,0:0:0:0:
256,192,26931,1,8,0:0:0:0:
256,192,27098,1,8,0:0:0:0:
256,192,27182,1,8,0:0:0:0:
256,192,27265,1,0,0:0:0:0:
256,192,27598,1,0,0:0:0:0:
256,192,27765,1,0,0:0:0:0:
256,192,27932,1,8,0:0:0:0:
256,192,28265,1,0,0:0:0:0:
256,192,28432,1,0,0:0:0:0:
256,192,28765,1,0,0:0:0:0:
256,192,28932,1,0,0:0:0:0:
256,192,29265,1,8,0:0:0:0:
256,192,29932,1,0,0:0:0:0:
256,192,30265,1,0,0:0:0:0:
256,192,30432,1,0,0:0:0:0:
256,192,30598,1,8,0:0:0:0:
256,192,30932,1,0,0:0:0:0:
256,192,31098,1,0,0:0:0:0:
256,192,31432,1,8,0:0:0:0:
256,192,31598,1,0,0:0:0:0:
256,192,31932,1,8,0:0:0:0:
256,192,32598,1,0,0:0:0:0:
256,192,32932,1,0,0:0:0:0:
256,192,33099,1,0,0:0:0:0:
256,192,33266,1,8,0:0:0:0:
256,192,33599,1,0,0:0:0:0:
256,192,33766,1,0,0:0:0:0:
256,192,34099,1,0,0:0:0:0:
256,192,34266,1,0,0:0:0:0:
256,192,34599,1,8,0:0:0:0:
256,192,35266,1,0,0:0:0:0:
256,192,35599,1,0,0:0:0:0:
256,192,35766,1,0,0:0:0:0:
256,192,35932,1,8,0:0:0:0:
256,192,36266,1,0,0:0:0:0:
256,192,36432,1,0,0:0:0:0:
256,192,36766,1,8,0:0:0:0:
256,192,36932,1,0,0:0:0:0:
256,192,37266,1,8,0:0:0:0:
256,192,37598,1,0,0:0:0:0:
256,192,37682,1,0,0:0:0:0:
256,192,37765,1,0,0:0:0:0:
256,192,37848,1,0,0:0:0:0:
256,192,37932,1,0,0:0:0:0:
256,192,38265,1,8,0:0:0:0:
256,192,38432,1,0,0:0:0:0:
256,192,38765,1,0,0:0:0:0:
256,192,38932,1,8,0:0:0:0:
256,192,39098,1,0,0:0:0:0:
256,192,39265,1,0,0:0:0:0:
256,192,39432,1,0,0:0:0:0:
256,192,39598,1,8,0:0:0:0:
256,192,39765,1,0,0:0:0:0:
256,192,40098,1,0,0:0:0:0:
256,192,40265,1,8,0:0:0:0:
256,192,40598,1,0,0:0:0:0:
256,192,40765,1,0,0:0:0:0:
256,192,40932,1,8,0:0:0:0:
256,192,41098,1,0,0:0:0:0:
256,192,41432,1,0,0:0:0:0:
256,192,41598,1,8,0:0:0:0:
256,192,41765,1,0,0:0:0:0:
256,192,41932,1,0,0:0:0:0:
256,192,42098,1,0,0:0:0:0:
256,192,42265,1,8,0:0:0:0:
256,192,42432,1,0,0:0:0:0:
256,192,42598,1,8,0:0:0:0:
256,192,42932,1,8,0:0:0:0:
256,192,43098,1,8,0:0:0:0:
256,192,43265,1,4,0:0:0:0:
256,192,43432,1,0,0:0:0:0:
256,192,43598,1,8,0:0:0:0:
256,192,43765,1,0,0:0:0:0:
256,192,44098,1,0,0:0:0:0:
256,192,44265,1,8,0:0:0:0:
256,192,44432,1,0,0:0:0:0:
256,192,44598,1,0,0:0:0:0:
256,192,44765,1,0,0:0:0:0:
256,192,44932,1,8,0:0:0:0:
256,192,45098,1,0,0:0:0:0:
256,192,45432,1,0,0:0:0:0:
256,192,45598,1,8,0:0:0:0:
256,192,45765,1,0,0:0:0:0:
256,192,45932,1,4,0:0:0:0:
256,192,46098,1,0,0:0:0:0:
256,192,46265,1,8,0:0:0:0:
256,192,46432,1,0,0:0:0:0:
256,192,46765,1,0,0:0:0:0:
256,192,46932,1,8,0:0:0:0:
256,192,47098,1,0,0:0:0:0:
256,192,47265,1,0,0:0:0:0:
256,192,47432,1,0,0:0:0:0:
256,192,47598,1,8,0:0:0:0:
256,192,47765,1,0,0:0:0:0:
256,192,47932,1,8,0:0:0:0:
256,192,48265,1,8,0:0:0:0:
256,192,48432,1,8,0:0:0:0:
256,192,48515,1,8,0:0:0:0:
256,192,48598,1,0,0:0:0:0:
256,192,48932,1,8,0:0:0:0:
256,192,49099,1,0,0:0:0:0:
256,192,49265,1,0,0:0:0:0:
256,192,49599,1,8,0:0:0:0:
256,192,49765,1,0,0:0:0:0:
256,192,50099,1,0,0:0:0:0:
256,192,50265,1,8,0:0:0:0:
256,192,50432,1,0,0:0:0:0:
256,192,50598,1,0,0:0:0:0:
256,192,50765,1,0,0:0:0:0:
256,192,50932,1,8,0:0:0:0:
256,192,51265,1,0,0:0:0:0:
256,192,51599,1,8,0:0:0:0:
256,192,51765,1,0,0:0:0:0:
256,192,51932,1,0,0:0:0:0:
256,192,52265,1,8,0:0:0:0:
256,192,52432,1,0,0:0:0:0:
256,192,52765,1,0,0:0:0:0:
256,192,52932,1,8,0:0:0:0:
256,192,53099,1,0,0:0:0:0:
256,192,53265,1,8,0:0:0:0:
256,192,53432,1,8,0:0:0:0:
256,192,53599,1,0,0:0:0:0:
256,192,53932,1,4,0:0:0:0:
256,192,54265,1,8,0:0:0:0:
256,192,54432,1,0,0:0:0:0:
256,192,54598,1,0,0:0:0:0:
256,192,54932,1,8,0:0:0:0:
256,192,55098,1,0,0:0:0:0:
256,192,55432,1,0,0:0:0:0:
256,192,55598,1,8,0:0:0:0:
256,192,55765,1,0,0:0:0:0:
256,192,55932,1,0,0:0:0:0:
256,192,56098,1,0,0:0:0:0:
256,192,56265,1,8,0:0:0:0:
256,192,56598,1,0,0:0:0:0:
256,192,56765,1,0,0:0:0:0:
256,192,56932,1,8,0:0:0:0:
256,192,57098,1,0,0:0:0:0:
256,192,57265,1,0,0:0:0:0:
256,192,57598,1,8,0:0:0:0:
256,192,57765,1,0,0:0:0:0:
256,192,58098,1,0,0:0:0:0:
256,192,58265,1,8,0:0:0:0:
256,192,58432,1,0,0:0:0:0:
256,192,58599,1,8,0:0:0:0:
256,192,58765,1,8,0:0:0:0:
256,192,58932,1,0,0:0:0:0:
256,192,59098,1,8,0:0:0:0:
256,192,59265,1,4,0:0:0:0:
256,192,59932,1,0,0:0:0:0:
256,192,60182,1,0,0:0:0:0:
256,192,60432,1,8,0:0:0:0:
256,192,60598,1,4,0:0:0:0:
256,192,60932,1,8,0:0:0:0:
256,192,61098,1,0,0:0:0:0:
256,192,61432,1,0,0:0:0:0:
256,192,61598,1,8,0:0:0:0:
256,192,61765,1,0,0:0:0:0:
256,192,61932,1,0,0:0:0:0:
256,192,62098,1,0,0:0:0:0:
256,192,62265,1,8,0:0:0:0:
256,192,62432,1,0,0:0:0:0:
256,192,62765,1,0,0:0:0:0:
256,192,62932,1,8,0:0:0:0:
256,192,63265,1,4,0:0:0:0:
256,192,63432,1,0,0:0:0:0:
256,192,63598,1,8,0:0:0:0:
256,192,63765,1,0,0:0:0:0:
256,192,63932,1,0,0:0:0:0:
256,192,64098,1,0,0:0:0:0:
256,192,64265,1,8,0:0:0:0:
256,192,64432,1,0,0:0:0:0:
256,192,64598,1,0,0:0:0:0:
256,192,64932,1,8,0:0:0:0:
256,192,65265,1,0,0:0:0:0:
256,192,65432,1,0,0:0:0:0:
256,192,65598,1,8,0:0:0:0:
256,192,65765,1,0,0:0:0:0:
256,192,65848,1,0,0:0:0:0:
256,192,65932,1,0,0:0:0:0:
256,192,66265,1,0,0:0:0:0:
256,192,66432,1,0,0:0:0:0:
256,192,66598,1,8,0:0:0:0:
256,192,66765,1,0,0:0:0:0:
256,192,66932,1,0,0:0:0:0:
256,192,67265,1,0,0:0:0:0:
256,192,67348,1,0,0:0:0:0:
256,192,67432,1,0,0:0:0:0:
256,192,67598,1,0,0:0:0:0:
256,192,67765,1,0,0:0:0:0:
256,192,67932,1,8,0:0:0:0:
256,192,68098,1,0,0:0:0:0:
256,192,68265,1,0,0:0:0:0:
256,192,68598,1,4,0:0:0:0:
256,192,68932,1,0,0:0:0:0:
256,192,69098,1,0,0:0:0:0:
256,192,69265,1,8,0:0:0:0:
256,192,69431,1,0,0:0:0:0:
256,192,69598,1,0,0:0:0:0:
256,192,69932,1,0,0:0:0:0:
256,192,70015,1,0,0:0:0:0:
256,192,70098,1,0,0:0:0:0:
256,192,70265,1,0,0:0:0:0:
256,192,70432,1,0,0:0:0:0:
256,192,70598,1,8,0:0:0:0:
256,192,70932,1,8,0:0:0:0:
256,192,71265,1,4,0:0:0:0:
256,192,71598,1,8,0:0:0:0:
256,192,71764,1,0,0:0:0:0:
256,192,72098,1,0,0:0:0:0:
256,192,72264,1,8,0:0:0:0:
256,192,72431,1,0,0:0:0:0:
256,192,72598,1,0,0:0:0:0:
256,192,72765,1,0,0:0:0:0:
256,192,72931,1,8,0:0:0:0:
256,192,73098,1,0,0:0:0:0:
256,192,73431,1,0,0:0:0:0:
256,192,73598,1,8,0:0:0:0:
256,192,73931,1,4,0:0:0:0:
256,192,74264,1,8,0:0:0:0:
256,192,74431,1,0,0:0:0:0:
256,192,74598,1,0,0:0:0:0:
256,192,74764,1,0,0:0:0:0:
256,192,74931,1,8,0:0:0:0:
256,192,75098,1,0,0:0:0:0:
256,192,75265,1,0,0:0:0:0:
256,192,75598,1,8,0:0:0:0:
256,192,75931,1,0,0:0:0:0:
256,192,76265,1,0,0:0:0:0:
256,192,76348,1,0,0:0:0:0:
256,192,76432,1,0,0:0:0:0:
256,192,76515,1,0,0:0:0:0:
256,192,76598,1,0,0:0:0:0:
256,192,76932,1,0,0:0:0:0:
256,192,77099,1,0,0:0:0:0:
256,192,77265,1,8,0:0:0:0:
256,192,77432,1,0,0:0:0:0:
256,192,77599,1,0,0:0:0:0:
256,192,77932,1,0,0:0:0:0:
256,192,78015,1,0,0:0:0:0:
256,192,78099,1,0,0:0:0:0:
256,192,78265,1,0,0:0:0:0:
256,192,78432,1,0,0:0:0:0:
256,192,78599,1,8,0:0:0:0:
256,192,78765,1,0,0:0:0:0:
256,192,78932,1,0,0:0:0:0:
256,192,79265,1,4,0:0:0:0:
256,192,79599,1,0,0:0:0:0:
256,192,79765,1,0,0:0:0:0:
256,192,79932,1,8,0:0:0:0:
256,192,80098,1,0,0:0:0:0:
256,192,80265,1,0,0:0:0:0:
256,192,80599,1,0,0:0:0:0:
256,192,80682,1,0,0:0:0:0:
256,192,80765,1,0,0:0:0:0:
256,192,80932,1,0,0:0:0:0:
256,192,81098,1,0,0:0:0:0:
256,192,81265,1,8,0:0:0:0:
256,192,81598,1,8,0:0:0:0:
256,192,81765,1,8,0:0:0:0:
256,192,81932,1,4,0:0:0:0:
256,192,82265,1,0,0:0:0:0:
256,192,82432,1,0,0:0:0:0:
256,192,82598,1,8,0:0:0:0:
256,192,82765,1,0,0:0:0:0:
256,192,82932,1,0,0:0:0:0:
256,192,83265,1,0,0:0:0:0:
256,192,83348,1,0,0:0:0:0:
256,192,83432,1,0,0:0:0:0:
256,192,83598,1,0,0:0:0:0:
256,192,83765,1,0,0:0:0:0:
256,192,83932,1,8,0:0:0:0:
256,192,84098,1,0,0:0:0:0:
256,192,84265,1,0,0:0:0:0:
256,192,84598,1,4,0:0:0:0:
256,192,84932,1,0,0:0:0:0:
256,192,85098,1,0,0:0:0:0:
256,192,85265,1,8,0:0:0:0:
256,192,85431,1,0,0:0:0:0:
256,192,85598,1,0,0:0:0:0:
256,192,85932,1,0,0:0:0:0:
256,192,86015,1,0,0:0:0:0:
256,192,86099,1,0,0:0:0:0:
256,192,86265,1,0,0:0:0:0:
256,192,86432,1,0,0:0:0:0:
256,192,86599,1,8,0:0:0:0:
256,192,86932,1,8,0:0:0:0:
256,192,87015,1,8,0:0:0:0:
256,192,87098,1,8,0:0:0:0:
256,192,87265,1,4,0:0:0:0:
256,192,87432,1,0,0:0:0:0:
256,192,87598,1,8,0:0:0:0:
256,192,87765,1,0,0:0:0:0:
256,192,88098,1,0,0:0:0:0:
256,192,88264,1,8,0:0:0:0:
256,192,88431,1,0,0:0:0:0:
256,192,88598,1,0,0:0:0:0:
256,192,88764,1,0,0:0:0:0:
256,192,88931,1,8,0:0:0:0:
256,192,89098,1,0,0:0:0:0:
256,192,89431,1,0,0:0:0:0:
256,192,89598,1,8,0:0:0:0:
256,192,89931,1,0,0:0:0:0:
256,192,90098,1,0,0:0:0:0:
256,192,90264,1,8,0:0:0:0:
256,192,90431,1,0,0:0:0:0:
256,192,90764,1,0,0:0:0:0:
256,192,90931,1,8,0:0:0:0:
256,192,91098,1,0,0:0:0:0:
256,192,91264,1,0,0:0:0:0:
256,192,91431,1,0,0:0:0:0:
256,192,91598,1,8,0:0:0:0:
256,192,91765,1,0,0:0:0:0:
256,192,91932,1,8,0:0:0:0:
256,192,92264,1,8,0:0:0:0:
256,192,92431,1,8,0:0:0:0:
256,192,92598,1,4,0:0:0:0:
256,192,92765,1,0,0:0:0:0:
256,192,92932,1,8,0:0:0:0:
256,192,93099,1,0,0:0:0:0:
256,192,93432,1,0,0:0:0:0:
256,192,93598,1,8,0:0:0:0:
256,192,93765,1,0,0:0:0:0:
256,192,93932,1,0,0:0:0:0:
256,192,94098,1,0,0:0:0:0:
256,192,94265,1,8,0:0:0:0:
256,192,94432,1,0,0:0:0:0:
256,192,94765,1,0,0:0:0:0:
256,192,94932,1,8,0:0:0:0:
256,192,95265,1,4,0:0:0:0:
256,192,95432,1,0,0:0:0:0:
256,192,95598,1,8,0:0:0:0:
256,192,95765,1,0,0:0:0:0:
256,192,96098,1,0,0:0:0:0:
256,192,96265,1,8,0:0:0:0:
256,192,96432,1,0,0:0:0:0:
256,192,96598,1,0,0:0:0:0:
256,192,96765,1,0,0:0:0:0:
256,192,96932,1,8,0:0:0:0:
256,192,97099,1,0,0:0:0:0:
256,192,97265,1,8,0:0:0:0:
256,192,97598,1,8,0:0:0:0:
256,192,97765,1,8,0:0:0:0:
256,192,97932,1,4,0:0:0:0:
256,192,98265,1,8,0:0:0:0:
256,192,98432,1,0,0:0:0:0:
256,192,98598,1,0,0:0:0:0:
256,192,98765,1,0,0:0:0:0:
256,192,98932,1,8,0:0:0:0:
256,192,99098,1,0,0:0:0:0:
256,192,99432,1,0,0:0:0:0:
256,192,99598,1,8,0:0:0:0:
256,192,99765,1,0,0:0:0:0:
256,192,99932,1,0,0:0:0:0:
256,192,100098,1,0,0:0:0:0:
256,192,100265,1,8,0:0:0:0:
256,192,100598,1,0,0:0:0:0:
256,192,100932,1,8,0:0:0:0:
256,192,101098,1,0,0:0:0:0:
256,192,101265,1,0,0:0:0:0:
256,192,101432,1,0,0:0:0:0:
256,192,101598,1,8,0:0:0:0:
256,192,101765,1,0,0:0:0:0:
256,192,102098,1,0,0:0:0:0:
256,192,102265,1,8,0:0:0:0:
256,192,102432,1,0,0:0:0:0:
256,192,102598,1,8,0:0:0:0:
256,192,102765,1,8,0:0:0:0:
256,192,102932,1,0,0:0:0:0:
256,192,103265,1,4,0:0:0:0:
256,192,103598,1,8,0:0:0:0:
256,192,103765,1,0,0:0:0:0:
256,192,103932,1,0,0:0:0:0:
256,192,104098,1,0,0:0:0:0:
256,192,104265,1,8,0:0:0:0:
256,192,104432,1,0,0:0:0:0:
256,192,104765,1,0,0:0:0:0:
256,192,104931,1,8,0:0:0:0:
256,192,105098,1,0,0:0:0:0:
256,192,105265,1,0,0:0:0:0:
256,192,105431,1,0,0:0:0:0:
256,192,105598,1,8,0:0:0:0:
256,192,105931,1,0,0:0:0:0:
256,192,106098,1,0,0:0:0:0:
256,192,106265,1,8,0:0:0:0:
256,192,106431,1,0,0:0:0:0:
256,192,106598,1,0,0:0:0:0:
256,192,106765,1,0,0:0:0:0:
256,192,106931,1,8,0:0:0:0:
256,192,107098,1,0,0:0:0:0:
256,192,107431,1,0,0:0:0:0:
256,192,107598,1,8,0:0:0:0:
256,192,107765,1,0,0:0:0:0:
256,192,107932,1,8,0:0:0:0:
256,192,108098,1,8,0:0:0:0:
256,192,108265,1,0,0:0:0:0:
256,192,108432,1,8,0:0:0:0:
256,192,108598,1,4,0:0:0:0:
256,192,109265,1,0,0:0:0:0:
256,192,109515,1,0,0:0:0:0:
256,192,109765,1,8,0:0:0:0:
256,192,109931,1,4,0:0:0:0:
256,192,110265,1,8,0:0:0:0:
256,192,110431,1,0,0:0:0:0:
256,192,110765,1,0,0:0:0:0:
256,192,110931,1,8,0:0:0:0:
256,192,111098,1,0,0:0:0:0:
256,192,111265,1,0,0:0:0:0:
256,192,111432,1,0,0:0:0:0:
256,192,111598,1,8,0:0:0:0:
256,192,111765,1,0,0:0:0:0:
256,192,112098,1,0,0:0:0:0:
256,192,112265,1,8,0:0:0:0:
256,192,112432,1,0,0:0:0:0:
256,192,112515,1,0,0:0:0:0:
256,192,112598,1,0,0:0:0:0:
256,192,112931,1,8,0:0:0:0:
256,192,113098,1,0,0:0:0:0:
256,192,113265,1,0,0:0:0:0:
256,192,113431,1,0,0:0:0:0:
256,192,113598,1,8,0:0:0:0:
256,192,113765,1,0,0:0:0:0:
256,192,113932,1,0,0:0:0:0:
256,192,114265,1,8,0:0:0:0:
256,192,114598,1,0,0:0:0:0:
256,192,114765,1,0,0:0:0:0:
256,192,114931,1,8,0:0:0:0:
256,192,115098,1,0,0:0:0:0:
256,192,115181,1,0,0:0:0:0:
256,192,115265,1,0,0:0:0:0:
256,192,115598,1,0,0:0:0:0:
256,192,115765,1,0,0:0:0:0:
256,192,115931,1,8,0:0:0:0:
256,192,116098,1,0,0:0:0:0:
256,192,116265,1,0,0:0:0:0:
256,192,116598,1,0,0:0:0:0:
256,192,116681,1,0,0:0:0:0:
256,192,116765,1,0,0:0:0:0:
256,192,116931,1,0,0:0:0:0:
256,192,117098,1,0,0:0:0:0:
256,192,117265,1,8,0:0:0:0:
256,192,117431,1,0,0:0:0:0:
256,192,117598,1,0,0:0:0:0:
256,192,117931,1,4,0:0:0:0:
256,192,118265,1,0,0:0:0:0:
256,192,118431,1,0,0:0:0:0:
256,192,118598,1,8,0:0:0:0:
256,192,118764,1,0,0:0:0:0:
256,192,118931,1,0,0:0:0:0:
256,192,119265,1,0,0:0:0:0:
256,192,119348,1,0,0:0:0:0:
256,192,119431,1,0,0:0:0:0:
256,192,119598,1,0,0:0:0:0:
256,192,119765,1,0,0:0:0:0:
256,192,119931,1,8,0:0:0:0:
256,192,120265,1,8,0:0:0:0:
256,192,120432,1,0,0:0:0:0:
256,192,120515,1,0,0:0:0:0:
256,192,120598,1,0,0:0:0:0:
256,192,120931,1,8,0:0:0:0:
256,192,121097,1,0,0:0:0:0:
256,192,121431,1,0,0:0:0:0:
256,192,121597,1,8,0:0:0:0:
256,192,121764,1,0,0:0:0:0:
256,192,121932,1,0,0:0:0:0:
256,192,122098,1,0,0:0:0:0:
256,192,122264,1,8,0:0:0:0:
256,192,122431,1,0,0:0:0:0:
256,192,122764,1,0,0:0:0:0:
256,192,122931,1,8,0:0:0:0:
256,192,123264,1,4,0:0:0:0:
256,192,123597,1,8,0:0:0:0:
256,192,123764,1,0,0:0:0:0:
256,192,123931,1,0,0:0:0:0:
256,192,124097,1,0,0:0:0:0:
256,192,124264,1,8,0:0:0:0:
256,192,124431,1,0,0:0:0:0:
256,192,124598,1,0,0:0:0:0:
256,192,124931,1,8,0:0:0:0:
256,192,125264,1,0,0:0:0:0:
256,192,125431,1,0,0:0:0:0:
256,192,125598,1,0,0:0:0:0:
256,192,125681,1,0,0:0:0:0:
256,192,125765,1,0,0:0:0:0:
256,192,125848,1,0,0:0:0:0:
256,192,125931,1,0,0:0:0:0:
256,192,126265,1,0,0:0:0:0:
256,192,126432,1,0,0:0:0:0:
256,192,126598,1,8,0:0:0:0:
256,192,126765,1,0,0:0:0:0:
256,192,126932,1,0,0:0:0:0:
256,192,127265,1,0,0:0:0:0:
256,192,127348,1,0,0:0:0:0:
256,192,127432,1,0,0:0:0:0:
256,192,127598,1,0,0:0:0:0:
256,192,127765,1,0,0:0:0:0:
256,192,127932,1,8,0:0:0:0:
256,192,128098,1,0,0:0:0:0:
256,192,128265,1,0,0:0:0:0:
256,192,128598,1,4,0:0:0:0:
256,192,128932,1,0,0:0:0:0:
256,192,129098,1,0,0:0:0:0:
256,192,129265,1,8,0:0:0:0:
256,192,129431,1,0,0:0:0:0:
256,192,129598,1,0,0:0:0:0:
256,192,129932,1,0,0:0:0:0:
256,192,130015,1,0,0:0:0:0:
256,192,130098,1,0,0:0:0:0:
256,192,130265,1,0,0:0:0:0:
256,192,130431,1,0,0:0:0:0:
256,192,130598,1,8,0:0:0:0:
256,192,130765,1,0,0:0:0:0:
256,192,130931,1,8,0:0:0:0:
256,192,131098,1,8,0:0:0:0:
256,192,131265,1,4,0:0:0:0:
256,192,131598,1,0,0:0:0:0:
256,192,131765,1,0,0:0:0:0:
256,192,131931,1,8,0:0:0:0:
256,192,132098,1,0,0:0:0:0:
256,192,132265,1,0,0:0:0:0:
256,192,132598,1,0,0:0:0:0:
256,192,132681,1,0,0:0:0:0:
256,192,132765,1,0,0:0:0:0:
256,192,132931,1,0,0:0:0:0:
256,192,133098,1,0,0:0:0:0:
256,192,133265,1,8,0:0:0:0:
256,192,133431,1,0,0:0:0:0:
256,192,133598,1,0,0:0:0:0:
256,192,133931,1,4,0:0:0:0:
256,192,134265,1,0,0:0:0:0:
256,192,134431,1,0,0:0:0:0:
256,192,134598,1,8,0:0:0:0:
256,192,134764,1,0,0:0:0:0:
256,192,134931,1,0,0:0:0:0:
256,192,135265,1,0,0:0:0:0:
256,192,135348,1,0,0:0:0:0:
256,192,135432,1,0,0:0:0:0:
256,192,135598,1,0,0:0:0:0:
256,192,135765,1,0,0:0:0:0:
256,192,135932,1,8,0:0:0:0:
256,192,136182,1,8,0:0:0:0:
256,192,136432,1,8,0:0:0:0:
256,192,136598,1,4,0:0:0:0:
256,192,136932,1,0,0:0:0:0:
256,192,137265,1,8,0:0:0:0:
256,192,137598,1,0,0:0:0:0:
256,192,137765,1,8,0:0:0:0:
256,192,137932,1,0,0:0:0:0:
256,192,138098,1,0,0:0:0:0:
256,192,138265,1,0,0:0:0:0:
256,192,138432,1,0,0:0:0:0:
256,192,138598,1,8,0:0:0:0:
256,192,138932,1,0,0:0:0:0:
256,192,139265,1,0,0:0:0:0:
256,192,139598,1,0,0:0:0:0:
256,192,139932,1,8,0:0:0:0:
256,192,140265,1,0,0:0:0:0:
256,192,140598,1,0,0:0:0:0:
256,192,140765,1,0,0:0:0:0:
256,192,140932,1,0,0:0:0:0:
256,192,141098,1,0,0:0:0:0:
256,192,141265,1,8,0:0:0:0:
256,192,141598,1,8,0:0:0:0:
256,192,141765,1,8,0:0:0:0:
256,192,141848,1,8,0:0:0:0:
256,192,141932,1,0,0:0:0:0:
256,192,142265,1,0,0:0:0:0:
256,192,142432,1,0,0:0:0:0:
256,192,142598,1,8,0:0:0:0:
256,192,142765,1,0,0:0:0:0:
256,192,142932,1,0,0:0:0:0:
256,192,143098,1,0,0:0:0:0:
256,192,143265,1,0,0:0:0:0:
256,192,143348,1,0,0:0:0:0:
256,192,143432,1,0,0:0:0:0:
256,192,143598,1,0,0:0:0:0:
256,192,143765,1,0,0:0:0:0:
256,192,143932,1,12,0:0:0:0:
256,192,144265,1,12,0:0:0:0:
256,192,144598,1,4,0:0:0:0:
256,192,144932,1,0,0:0:0:0:
256,192,145098,1,0,0:0:0:0:
256,192,145265,1,8,0:0:0:0:
256,192,145432,1,0,0:0:0:0:
256,192,145598,1,0,0:0:0:0:
256,192,145765,1,0,0:0:0:0:
256,192,145932,1,0,0:0:0:0:
256,192,146015,1,0,0:0:0:0:
256,192,146098,1,0,0:0:0:0:
256,192,146265,1,0,0:0:0:0:
256,192,146432,1,0,0:0:0:0:
256,192,146598,1,8,0:0:0:0:
256,192,146932,1,8,0:0:0:0:
256,192,147015,1,8,0:0:0:0:
256,192,147098,1,8,0:0:0:0:
256,192,147182,1,8,0:0:0:0:
256,192,147265,1,8,0:0:0:0:
256,192,147598,1,8,0:0:0:0:
256,192,147765,1,0,0:0:0:0:
256,192,147848,1,0,0:0:0:0:
256,192,147932,1,0,0:0:0:0:
256,192,148098,1,0,0:0:0:0:
256,192,148265,1,8,0:0:0:0:
256,192,148432,1,0,0:0:0:0:
256,192,148765,1,0,0:0:0:0:
256,192,148932,1,8,0:0:0:0:
256,192,149098,1,0,0:0:0:0:
256,192,149182,1,0,0:0:0:0:
256,192,149265,1,0,0:0:0:0:
256,192,149432,1,0,0:0:0:0:
256,192,149598,1,8,0:0:0:0:
256,192,149932,1,0,0:0:0:0:
256,192,150265,1,8,0:0:0:0:
256,192,150432,1,0,0:0:0:0:
256,192,150515,1,0,0:0:0:0:
256,192,150599,1,0,0:0:0:0:
256,192,150765,1,0,0:0:0:0:
256,192,150932,1,8,0:0:0:0:
256,192,151099,1,0,0:0:0:0:
256,192,151432,1,0,0:0:0:0:
256,192,151598,1,8,0:0:0:0:
128,32,151932,2,0,L|128:256,1,210
256,192,152598,1,4,0:0:0:0:
256,192,152765,1,0,0:0:0:0:
256,192,152932,1,8,0:0:0:0:
256,192,153099,1,0,0:0:0:0:
256,192,153432,1,0,0:0:0:0:
256,192,153599,1,8,0:0:0:0:
256,192,153765,1,0,0:0:0:0:
256,192,153932,1,0,0:0:0:0:
256,192,154099,1,0,0:0:0:0:
256,192,154265,1,8,0:0:0:0:
256,192,154432,1,0,0:0:0:0:
256,192,154765,1,0,0:0:0:0:
256,192,154932,1,8,0:0:0:0:
256,192,155098,1,0,0:0:0:0:
256,192,155265,1,0,0:0:0:0:
256,192,155432,1,0,0:0:0:0:
256,192,155599,1,8,0:0:0:0:
256,192,155765,1,0,0:0:0:0:
256,192,156099,1,0,0:0:0:0:
256,192,156265,1,8,0:0:0:0:
256,192,156432,1,0,0:0:0:0:
256,192,156599,1,0,0:0:0:0:
256,192,156765,1,0,0:0:0:0:
256,192,156932,1,8,0:0:0:0:
256,192,157099,1,0,0:0:0:0:
256,192,157265,1,8,0:0:0:0:
256,192,157599,1,8,0:0:0:0:
256,192,157765,1,8,0:0:0:0:
256,192,157932,1,4,0:0:0:0:
256,192,158099,1,0,0:0:0:0:
256,192,158265,1,8,0:0:0:0:
256,192,158432,1,0,0:0:0:0:
256,192,158765,1,0,0:0:0:0:
256,192,158932,1,8,0:0:0:0:
256,192,159099,1,0,0:0:0:0:
256,192,159265,1,0,0:0:0:0:
256,192,159432,1,0,0:0:0:0:
256,192,159599,1,8,0:0:0:0:
256,192,159765,1,0,0:0:0:0:
256,192,160099,1,0,0:0:0:0:
256,192,160265,1,8,0:0:0:0:
256,192,160432,1,0,0:0:0:0:
256,192,160599,1,4,0:0:0:0:
256,192,160765,1,0,0:0:0:0:
256,192,160932,1,8,0:0:0:0:
256,192,161099,1,0,0:0:0:0:
256,192,161432,1,0,0:0:0:0:
256,192,161599,1,8,0:0:0:0:
256,192,161765,1,0,0:0:0:0:
256,192,161932,1,0,0:0:0:0:
256,192,162099,1,0,0:0:0:0:
256,192,162265,1,8,0:0:0:0:
256,192,162432,1,0,0:0:0:0:
256,192,162599,1,8,0:0:0:0:
256,192,162932,1,8,0:0:0:0:
256,192,163098,1,8,0:0:0:0:
256,192,163265,1,4,0:0:0:0:
256,192,163432,1,0,0:0:0:0:
256,192,163598,1,8,0:0:0:0:
256,192,163765,1,0,0:0:0:0:
256,192,163848,1,0,0:0:0:0:
256,192,163932,1,0,0:0:0:0:
256,192,164182,1,0,0:0:0:0:
256,192,164432,1,0,0:0:0:0:
256,192,164598,1,4,0:0:0:0:
256,192,164932,1,0,0:0:0:0:
256,192,165265,1,8,0:0:0:0:
256,192,165598,1,0,0:0:0:0:
256,192,165932,1,0,0:0:0:0:
256,192,166015,1,0,0:0:0:0:
256,192,166098,1,0,0:0:0:0:
256,192,166265,1,0,0:0:0:0:
256,192,166432,1,0,0:0:0:0:
256,192,166598,1,8,0:0:0:0:
256,192,166932,1,0,0:0:0:0:
256,192,167265,1,0,0:0:0:0:
256,192,167598,1,0,0:0:0:0:
256,192,167932,1,8,0:0:0:0:
256,192,168265,1,0,0:0:0:0:
256,192,168598,1,0,0:0:0:0:
256,192,168682,1,0,0:0:0:0:
256,192,168765,1,0,0:0:0:0:
256,192,168932,1,0,0:0:0:0:
256,192,169098,1,0,0:0:0:0:
256,192,169265,1,8,0:0:0:0:
256,192,169598,1,0,0:0:0:0:
256,192,169765,1,8,0:0:0:0:
256,192,169932,1,0,0:0:0:0:
256,192,170265,1,0,0:0:0:0:
256,192,170598,1,8,0:0:0:0:
256,192,170932,1,0,0:0:0:0:
256,192,171265,1,0,0:0:0:0:
256,192,171432,1,0,0:0:0:0:
256,192,171598,1,0,0:0:0:0:
256,192,171765,1,0,0:0:0:0:
256,192,171932,1,8,0:0:0:0:
256,192,172265,1,0,0:0:0:0:
256,192,172598,1,0,0:0:0:0:
256,192,172932,1,0,0:0:0:0:
256,192,173265,1,8,0:0:0:0:
256,192,173598,1,0,0:0:0:0:
256,192,173765,1,0,0:0:0:0:
256,192,173848,1,0,0:0:0:0:
256,192,173932,1,0,0:0:0:0:
256,192,174098,1,0,0:0:0:0:
256,192,174265,1,0,0:0:0:0:
256,192,174432,1,0,0:0:0:0:
256,192,174598,1,8,0:0:0:0:
256,192,174932,1,0,0:0:0:0:
256,192,175265,1,4,0:0:0:0:
256,192,175598,1,0,0:0:0:0:
256,192,175932,1,0,0:0:0:0:
256,192,176265,1,0,0:0:0:0:
256,192,176598,1,0,0:0:0:0:
256,192,176932,1,0,0:0:0:0:
256,192,177265,1,0,0:0:0:0:
256,192,177598,1,0,0:0:0:0:
256,192,177765,1,8,0:0:0:0:
256,192,177932,1,4,0:0:0:0:
256,192,178265,1,0,0:0:0:0:
256,192,178598,1,8,0:0:0:0:
256,192,178932,1,0,0:0:0:0:
256,192,179265,1,0,0:0:0:0:
256,192,179598,1,0,0:0:0:0:
256,192,179932,1,8,0:0:0:0:
256,192,180265,1,0,0:0:0:0:
256,192,180598,1,4,0:0:0:0:
256,192,180932,1,8,0:0:0:0:
256,192,181265,1,0,0:0:0:0:
256,192,181598,1,8,0:0:0:0:
256,192,181932,1,0,0:0:0:0:
256,192,182265,1,8,0:0:0:0:
256,192,182598,1,0,0:0:0:0:
256,192,182932,1,8,0:0:0:0:
256,192,183265,1,4,0:0:0:0:
256,192,183598,1,8,0:0:0:0:
256,192,183932,1,0,0:0:0:0:
256,192,184265,1,8,0:0:0:0:
256,192,184598,1,4,0:0:0:0:
256,192,184765,1,4,0:0:0:0:
256,192,184932,1,12,0:0:0:0:
256,192,185265,1,4,0:0:0:0:
256,192,185515,1,4,0:0:0:0:
256,192,185765,1,12,0:0:0:0:
256,192,185932,1,4,0:0:0:0:
256,192,186265,1,8,0:0:0:0:
256,192,186431,1,0,0:0:0:0:
256,192,186765,1,0,0:0:0:0:
256,192,186931,1,8,0:0:0:0:
256,192,187098,1,0,0:0:0:0:
256,192,187265,1,0,0:0:0:0:
256,192,187431,1,0,0:0:0:0:
256,192,187598,1,8,0:0:0:0:
256,192,187765,1,0,0:0:0:0:
256,192,188098,1,0,0:0:0:0:
256,192,188265,1,8,0:0:0:0:
256,192,188432,1,0,0:0:0:0:
256,192,188515,1,0,0:0:0:0:
256,192,188598,1,0,0:0:0:0:
256,192,188931,1,8,0:0:0:0:
256,192,189098,1,0,0:0:0:0:
256,192,189181,1,0,0:0:0:0:
256,192,189265,1,0,0:0:0:0:
256,192,189431,1,0,0:0:0:0:
256,192,189598,1,8,0:0:0:0:
256,192,189765,1,0,0:0:0:0:
256,192,189932,1,0,0:0:0:0:
256,192,190265,1,8,0:0:0:0:
256,192,190431,1,0,0:0:0:0:
256,192,190515,1,0,0:0:0:0:
256,192,190598,1,0,0:0:0:0:
256,192,190765,1,0,0:0:0:0:
256,192,190931,1,8,0:0:0:0:
256,192,191098,1,0,0:0:0:0:
256,192,191181,1,0,0:0:0:0:
256,192,191265,1,0,0:0:0:0:
256,192,191598,1,0,0:0:0:0:
256,192,191765,1,0,0:0:0:0:
256,192,191931,1,8,0:0:0:0:
256,192,192098,1,0,0:0:0:0:
256,192,192265,1,0,0:0:0:0:
256,192,192598,1,0,0:0:0:0:
256,192,192681,1,0,0:0:0:0:
256,192,192765,1,0,0:0:0:0:
256,192,192931,1,0,0:0:0:0:
256,192,193098,1,0,0:0:0:0:
256,192,193265,1,8,0:0:0:0:
256,192,193431,1,0,0:0:0:0:
256,192,193598,1,0,0:0:0:0:
256,192,193931,1,4,0:0:0:0:
256,192,194265,1,0,0:0:0:0:
256,192,194431,1,0,0:0:0:0:
256,192,194598,1,8,0:0:0:0:
256,192,194764,1,0,0:0:0:0:
256,192,194931,1,0,0:0:0:0:
256,192,195265,1,0,0:0:0:0:
256,192,195348,1,0,0:0:0:0:
256,192,195431,1,0,0:0:0:0:
256,192,195598,1,0,0:0:0:0:
256,192,195765,1,0,0:0:0:0:
256,192,195931,1,8,0:0:0:0:
256,192,196098,1,0,0:0:0:0:
256,192,196265,1,8,0:0:0:0:
256,192,196598,1,4,0:0:0:0:
256,192,196931,1,8,0:0:0:0:
256,192,197097,1,0,0:0:0:0:
256,192,197431,1,0,0:0:0:0:
256,192,197597,1,8,0:0:0:0:
256,192,197764,1,0,0:0:0:0:
256,192,197932,1,0,0:0:0:0:
256,192,198097,1,0,0:0:0:0:
256,192,198264,1,8,0:0:0:0:
256,192,198432,1,0,0:0:0:0:
256,192,198764,1,0,0:0:0:0:
256,192,198931,1,8,0:0:0:0:
256,192,199264,1,4,0:0:0:0:
256,192,199597,1,8,0:0:0:0:
256,192,199764,1,0,0:0:0:0:
256,192,199847,1,0,0:0:0:0:
256,192,199931,1,0,0:0:0:0:
256,192,200097,1,0,0:0:0:0:
256,192,200264,1,8,0:0:0:0:
256,192,200431,1,0,0:0:0:0:
256,192,200598,1,0,0:0:0:0:
256,192,200931,1,8,0:0:0:0:
256,192,201264,1,0,0:0:0:0:
256,192,201431,1,8,0:0:0:0:
256,192,201598,1,0,0:0:0:0:
256,192,201681,1,0,0:0:0:0:
256,192,201765,1,0,0:0:0:0:
256,192,201848,1,0,0:0:0:0:
256,192,201931,1,0,0:0:0:0:
256,192,202265,1,0,0:0:0:0:
256,192,202432,1,0,0:0:0:0:
256,192,202598,1,8,0:0:0:0:
256,192,202765,1,0,0:0:0:0:
256,192,202932,1,0,0:0:0:0:
256,192,203265,1,0,0:0:0:0:
256,192,203348,1,0,0:0:0:0:
256,192,203432,1,0,0:0:0:0:
256,192,203598,1,0,0:0:0:0:
256,192,203765,1,0,0:0:0:0:
256,192,203932,1,8,0:0:0:0:
256,192,204098,1,0,0:0:0:0:
256,192,204265,1,0,0:0:0:0:
256,192,204598,1,4,0:0:0:0:
256,192,204932,1,0,0:0:0:0:
256,192,205098,1,0,0:0:0:0:
256,192,205265,1,8,0:0:0:0:
256,192,205431,1,0,0:0:0:0:
256,192,205598,1,0,0:0:0:0:
256,192,205932,1,0,0:0:0:0:
256,192,206015,1,0,0:0:0:0:
256,192,206098,1,0,0:0:0:0:
256,192,206265,1,0,0:0:0:0:
256,192,206431,1,0,0:0:0:0:
256,192,206598,1,8,0:0:0:0:
256,192,206765,1,0,0:0:0:0:
256,192,206931,1,8,0:0:0:0:
256,192,207098,1,8,0:0:0:0:
256,192,207265,1,4,0:0:0:0:
256,192,207598,1,0,0:0:0:0:
256,192,207765,1,0,0:0:0:0:
256,192,207931,1,8,0:0:0:0:
256,192,208098,1,0,0:0:0:0:
256,192,208265,1,0,0:0:0:0:
256,192,208598,1,0,0:0:0:0:
256,192,208681,1,0,0:0:0:0:
256,192,208765,1,0,0:0:0:0:
256,192,208931,1,0,0:0:0:0:
256,192,209098,1,0,0:0:0:0:
256,192,209265,1,8,0:0:0:0:
256,192,209431,1,0,0:0:0:0:
256,192,209598,1,0,0:0:0:0:
256,192,209931,1,4,0:0:0:0:
256,192,210265,1,0,0:0:0:0:
256,192,210431,1,0,0:0:0:0:
256,192,210598,1,8,0:0:0:0:
256,192,210764,1,0,0:0:0:0:
256,192,210931,1,0,0:0:0:0:
256,192,211265,1,0,0:0:0:0:
256,192,211348,1,0,0:0:0:0:
256,192,211432,1,0,0:0:0:0:
256,192,211598,1,0,0:0:0:0:
256,192,211765,1,0,0:0:0:0:
64,64,211932,2,8,L|64:288,1,210
256,192,212598,1,4,0:0:0:0:
256,192,212932,1,8,0:0:0:0:
256,192,213099,1,0,0:0:0:0:
256,192,213432,1,0,0:0:0:0:
256,192,213598,1,8,0:0:0:0:
256,192,213765,1,0,0:0:0:0:
256,192,213932,1,0,0:0:0:0:
256,192,214098,1,0,0:0:0:0:
256,192,214265,1,8,0:0:0:0:
256,192,214432,1,0,0:0:0:0:
256,192,214765,1,0,0:0:0:0:
256,192,214932,1,8,0:0:0:0:
256,192,215098,1,8,0:0:0:0:
256,192,215265,1,4,0:0:0:0:
256,192,215432,1,0,0:0:0:0:
256,192,215598,1,8,0:0:0:0:
256,192,215765,1,0,0:0:0:0:
256,192,216098,1,0,0:0:0:0:
256,192,216265,1,8,0:0:0:0:
256,192,216432,1,0,0:0:0:0:
256,192,216598,1,0,0:0:0:0:
256,192,216765,1,0,0:0:0:0:
256,192,216932,1,8,0:0:0:0:
256,192,217099,1,0,0:0:0:0:
256,192,217266,1,8,0:0:0:0:
256,192,217598,1,8,0:0:0:0:
256,192,217765,1,8,0:0:0:0:
256,192,217932,1,4,0:0:0:0:
256,192,218099,1,0,0:0:0:0:
256,192,218266,1,8,0:0:0:0:
256,192,218433,1,0,0:0:0:0:
256,192,218766,1,0,0:0:0:0:
256,192,218932,1,8,0:0:0:0:
256,192,219099,1,0,0:0:0:0:
256,192,219266,1,0,0:0:0:0:
256,192,219432,1,0,0:0:0:0:
256,192,219599,1,8,0:0:0:0:
256,192,219766,1,0,0:0:0:0:
256,192,220099,1,0,0:0:0:0:
256,192,220266,1,8,0:0:0:0:
256,192,220432,1,8,0:0:0:0:
256,192,220599,1,4,0:0:0:0:
256,192,220766,1,0,0:0:0:0:
256,192,220932,1,8,0:0:0:0:
256,192,221099,1,0,0:0:0:0:
256,192,221432,1,0,0:0:0:0:
256,192,221599,1,8,0:0:0:0:
256,192,221766,1,0,0:0:0:0:
256,192,221932,1,0,0:0:0:0:
256,192,222099,1,0,0:0:0:0:
256,192,222266,1,8,0:0:0:0:
256,192,222433,1,0,0:0:0:0:
256,192,222599,1,8,0:0:0:0:
256,192,222932,1,8,0:0:0:0:
256,192,223099,1,8,0:0:0:0:
256,192,223266,1,4,0:0:0:0:
256,192,223598,1,0,0:0:0:0:
256,192,223932,1,8,0:0:0:0:
256,192,224432,1,0,0:0:0:0:
256,192,224765,1,0,0:0:0:0:
256,192,224932,1,0,0:0:0:0:
256,192,225265,1,8,0:0:0:0:
256,192,225598,1,0,0:0:0:0:
256,192,225765,1,8,0:0:0:0:
256,192,225932,1,0,0:0:0:0:
256,192,226265,1,0,0:0:0:0:
256,192,226598,1,8,0:0:0:0:
256,192,227098,1,0,0:0:0:0:
256,192,227432,1,0,0:0:0:0:
256,192,227598,1,0,0:0:0:0:
256,192,227932,1,8,0:0:0:0:
256,192,228098,1,0,0:0:0:0:
256,192,228265,1,8,0:0:0:0:
256,192,228432,1,8,0:0:0:0:
256,192,228598,1,0,0:0:0:0:
256,192,228932,1,0,0:0:0:0:
256,192,229265,1,8,0:0:0:0:
256,192,229765,1,0,0:0:0:0:
256,192,230098,1,0,0:0:0:0:
256,192,230265,1,0,0:0:0:0:
256,192,230598,1,8,0:0:0:0:
256,192,231265,1,0,0:0:0:0:
256,192,231598,1,0,0:0:0:0:
256,192,231932,1,8,0:0:0:0:
256,192,232432,1,0,0:0:0:0:
256,192,232765,1,0,0:0:0:0:
256,192,232932,1,0,0:0:0:0:
256,192,233265,1,8,0:0:0:0:
256,192,233598,1,8,0:0:0:0:
256,192,233765,1,8,0:0:0:0:
