osu file format v12

[General]
AudioFilename: Destrudo.mp3
AudioLeadIn: 1500
PreviewTime: 59854
Countdown: 0
SampleSet: Soft
StackLeniency: 0.5
Mode: 0
LetterboxInBreaks: 1
WidescreenStoryboard: 0

[Editor]
Bookmarks: 5937,16604,26266,27271,37937,48604,59271,60604,65930,71263,76596,81930,87271,97937,108604,109937,115263,120596,125930,131263,136604,139930,141937,152604,163271,164604,175271,185937,191263,196596,201930,207263,212604,223271
DistanceSpacing: 1.2
BeatDivisor: 4
GridSize: 4

[Metadata]
Title:Destrudo
TitleUnicode:Destrudo
Artist:Yousei Teikoku
ArtistUnicode:妖精帝國
Creator:lolcubes
Version:Light Insane
Source:Kurokami The Animation
Tags:gothic lolita doctrine iro no nai sekai itsuki yui karen taiko haruka sweet_serenitee 黑神
BeatmapID:247937
BeatmapSetID:46349

[Difficulty]
HPDrainRate:6
CircleSize:4
OverallDifficulty:7
ApproachRate:8
SliderMultiplier:1.6
SliderTickRate:1

[Events]
//Background and Video events
0,0,"backgroundimg.jpg",0,0
//Break Periods
2,87465,97182
2,142132,147848
//Storyboard Layer 0 (Background)
Sprite,Background,Centre,"backgroundimg.jpg",320,240 F,0,2,,0
Sprite,Background,Centre,"SB\sample1.jpg",320,240 S,0,5932,,0.625 F,0,5932,6932,0,1 F,0,6932,17265,1 F,0,17265,27265,0 F,0,27265,38598,1 F,0,38598,48598,0 F,0,48598,57932,1 F,0,57932,59265,1,0 F,0,97932,107265,1 F,0,107265,108598,1,0 F,0,141932,143265,0,1 F,0,143265,147932,1 F,0,147932,149932,1,0 F,0,175265,176265,0,1 F,0,176265,183265,1 F,0,183265,184598,1,0 F,0,212598,223265,1 F,0,223265,228598,1,0
Sprite,Background,Centre,"SB\sample2.jpg",320,240 S,0,16598,,0.625 F,0,16598,17265,0,1 F,0,17265,27265,1 F,0,27265,28265,1,0 F,0,37932,38598,0,1 F,0,38598,48598,1 F,0,48598,49598,1,0 F,0,87265,97932,1 F,0,97932,98932,1,0 F,0,152598,163265,1 F,0,163265,164598,1,0
Sprite,Background,Centre,"SB\sample3.jpg",320,240 S,0,60598,,0.625 F,0,60598,87265,1 F,0,87265,88598,1,0 F,0,109932,136598,1 F,0,136598,137932,1,0 F,0,185932,212598,1 F,0,212598,213932,1,0
Sprite,Background,Centre,"SB\white.png",320,240 F,0,60515,60598,0,0.45 F,0,60598,60848,0.45,0 F,0,109848,109932,0,0.45 F,0,109932,110182,0.45,0 F,0,152515,152598,0,0.45 F,0,152598,152848,0.45,0 F,0,185848,185932,0,0.45 F,0,185932,186182,0.45,0
//Storyboard Layer 1 (Fail)
//Storyboard Layer 2 (Pass)
//Storyboard Layer 3 (Foreground)
Animation,Foreground,Centre,"SB\static\noise.png",320,240,15,30,LoopForever F,0,164598,165265,0,0.15 F,0,165265,171015,0.15 F,0,171015,172598,0.15,0.3 F,0,172598,173932,0.3,0.2 F,0,173932,175265,0.2,0.08 F,0,175265,176015,0.08,0.3 F,0,176015,177932,0.3,0.1 F,0,177932,181932,0.1 F,0,181932,183265,0.1,0.25 F,0,183265,185265,0.25,0
//Storyboard Sound Samples
//Background Colour Transformations
3,100,0,0,0

[TimingPoints]
599,333.333333333333,4,2,1,60,1,0
599,-133.333333333333,4,2,1,60,0,0
5598,-100,4,1,1,55,0,0
16598,-100,4,1,1,65,0,0
27348,-100,4,2,1,65,0,0
37598,-100,4,1,1,65,0,0
40598,-100,4,2,1,70,0,0
40682,-100,4,1,1,65,0,0
45932,-100,4,2,1,70,0,0
46015,-100,4,1,1,65,0,0
48682,-100,4,2,1,65,0,0
59932,-100,4,1,1,65,0,0
60182,-100,4,1,1,70,0,0
60432,-100,4,1,1,75,0,0
60599,-100,4,1,1,80,0,1
60682,-100,4,1,1,75,0,0
65932,-100,4,1,1,70,0,0
68598,-100,4,2,1,75,0,0
68682,-100,4,1,1,70,0,0
71265,-100,4,1,1,75,0,0
76598,-100,4,1,1,70,0,0
76682,-100,4,1,1,75,0,0
79265,-100,4,2,1,80,0,0
79348,-100,4,1,1,75,0,0
84598,-100,4,2,1,80,0,0
84682,-100,4,1,1,75,0,0
87265,-100,4,1,1,75,0,0
97932,-100,4,2,1,65,0,0
109265,-100,4,1,1,65,0,0
109515,-100,4,1,1,70,0,0
109765,-100,4,1,1,75,0,0
109932,-100,4,1,1,75,0,1
110015,-100,4,1,1,75,0,0
115348,-100,4,1,1,70,0,0
117932,-100,4,2,1,75,0,0
118015,-100,4,1,1,70,0,0
120598,-100,4,1,1,70,0,0
120682,-100,4,1,1,75,0,0
125932,-100,4,1,1,70,0,0
126015,-100,4,1,1,70,0,0
128598,-100,4,2,1,75,0,0
128682,-100,4,1,1,70,0,0
133932,-100,4,2,1,75,0,0
134015,-100,4,1,1,70,0,0
136598,-200,4,1,0,70,0,0
136682,-200,4,2,1,50,0,0
139265,-200,4,2,1,40,0,0
139348,-200,4,2,1,50,0,0
140598,-200,4,2,1,50,0,0
140765,-200,4,2,1,55,0,0
140932,-200,4,2,1,60,0,0
141098,-200,4,2,1,65,0,0
141265,-100,4,1,1,63,0,0
141598,-100,4,1,1,75,0,0
141932,-100,4,1,0,70,0,0
151598,-100,4,1,1,70,0,0
152598,-100,4,1,0,60,0,0
152682,-100,4,1,1,65,0,0
155265,-100,4,2,1,70,0,0
155348,-100,4,1,1,65,0,0
160598,-100,4,2,1,70,0,0
160682,-100,4,1,1,65,0,0
163932,-100,4,1,1,40,0,0
164598,-200,4,2,1,60,0,0
173765,-100,4,1,1,60,0,0
175265,-133.333333333333,4,1,1,60,0,0
175348,-133.333333333333,4,2,1,65,0,0
181265,-133.333333333333,4,1,1,55,0,0
181598,-133.333333333333,4,2,1,60,0,0
182598,-133.333333333333,4,1,1,55,0,0
182682,-133.333333333333,4,2,1,60,0,0
183932,-133.333333333333,4,1,1,55,0,0
184015,-133.333333333333,4,2,1,60,0,0
184598,-100,4,2,1,60,0,0
184682,-100,4,1,1,60,0,0
185265,-100,4,1,1,65,0,0
185515,-100,4,1,1,75,0,0
185765,-100,4,1,1,80,0,0
185932,-100,4,1,1,80,0,1
186015,-100,4,1,1,75,0,1
193932,-100,4,2,1,80,0,1
194015,-100,4,1,1,75,0,1
204598,-100,4,2,1,80,0,1
204682,-100,4,1,1,75,0,1
209932,-100,4,2,1,80,0,1
210015,-100,4,1,1,75,0,1
212515,-100,4,1,1,75,0,0
212599,-100,4,1,1,80,0,1
212682,-100,4,1,1,80,0,0
223265,-100,4,2,1,60,0,0
223348,-100,4,2,1,5,0,0

[Colours]
Combo1 : 180,180,180
Combo2 : 224,0,0
Combo3 : 200,180,128
Combo4 : 240,240,240

[HitObjects]
96,264,599,54,0,B|96:336,2,60.0000022888184,2|0|0,0:0|0:0|0:0,0:0:0:0:
96,184,1098,1,2,0:0:0:0:
168,56,1432,1,2,0:0:0:0:
24,56,1765,1,2,0:0:0:0:
416,120,3265,38,0,B|416:48,2,60.0000022888184,2|0|0,0:0|0:0|0:0,0:0:0:0:
416,200,3765,1,2,0:0:0:0:
344,328,4098,1,2,0:0:0:0:
488,328,4432,1,2,0:0:0:0:
304,192,5598,21,8,0:0:0:0:
304,192,5765,1,8,0:0:0:0:
232,248,5932,6,0,B|256:284|304:284,1,80,4|0,0:0|0:0,0:0:0:0:
216,160,6265,2,0,B|191:122|150:122,1,80,0|0,0:0|0:0,0:0:0:0:
56,108,6598,1,8,0:0:0:0:
56,108,6765,1,0,0:0:0:0:
192,332,7098,1,0,0:0:0:0:
384,152,7432,1,0,0:0:0:0:
384,152,7598,2,0,B|384:72,1,80,2|0,0:0|0:0,0:0:0:0:
304,20,7932,1,8,0:1:0:0:
304,112,8098,1,0,0:0:0:0:
304,112,8265,2,0,B|304:192,1,80,2|0,0:0|0:0,0:0:0:0:
384,320,8598,38,0,B|384:240,1,80
304,288,8932,2,0,B|304:368,1,80
384,320,9265,1,8,0:0:0:0:
384,320,9432,1,0,0:0:0:0:
224,64,9765,1,0,0:0:0:0:
96,336,10098,5,0,2:0:0:0:
96,336,10265,2,0,B|168:300,1,80,2|0,2:0|2:0,2:0:0:0:
104,228,10598,2,0,B|66:208|57:166,1,80,8|0,2:1|2:0,2:0:0:0:
220,112,10932,2,0,B|148:148,1,80,2|0,2:0|2:0,2:0:0:0:
212,220,11265,38,0,B|284:184,1,80,4|0,0:0|0:0,0:0:0:0:
312,96,11599,2,0,B|312:52|272:32,1,80
176,24,11932,1,8,0:0:0:0:
176,24,12099,1,0,0:0:0:0:
400,172,12432,1,0,0:0:0:0:
168,308,12765,1,0,0:0:0:0:
168,308,12932,2,0,B|144:344|100:344,1,80,2|0,0:0|0:0,0:0:0:0:
92,248,13265,1,8,0:1:0:0:
180,208,13432,1,0,0:0:0:0:
180,208,13599,2,0,B|224:204|252:168,1,80,2|0,0:0|0:0,0:0:0:0:
244,16,13932,6,0,B|208:40|208:83,1,80
344,160,14265,2,0,B|344:116|304:92,1,80
208,84,14599,1,8,0:0:0:0:
208,84,14765,1,0,0:0:0:0:
16,276,15099,1,0,0:0:0:0:
272,368,15432,38,0,B|312:380|352:368,1,80,0|2,2:0|2:0,2:0:0:0:
440,340,15765,1,0,2:0:0:0:
368,272,15932,2,0,B|340:240|352:196,1,80,8|0,2:1|2:0,2:0:0:0:
512,180,16265,2,0,B|440:216,1,80,2|2,2:0|2:0,2:0:0:0:
272,168,16599,6,0,B|179:154|168:64,1,160,4|8,0:0|0:0,0:0:0:0:
80,32,17099,1,0,0:0:0:0:
96,124,17265,2,0,B|120:196|72:212|96:280,1,160,0|8,0:0|0:0,0:0:0:0:
168,340,17765,1,0,0:0:0:0:
256,312,17932,2,0,B|298:323|331:298,1,80
424,280,18265,1,8,0:0:0:0:
360,208,18432,2,0,B|360:128,1,80,0|2,0:0|0:0,0:0:0:0:
96,44,18932,2,0,B|96:124,1,80,10|0,0:0|0:0,0:0:0:0:
128,212,19265,38,0,B|192:199|174:123|240:104,1,160,4|8,0:2|0:0,0:0:0:0:
312,48,19765,1,0,0:0:0:0:
360,128,19932,2,0,B|446:137|488:212,1,160,0|8,0:0|0:0,0:0:0:0:
424,280,20432,1,0,0:0:0:0:
336,304,20598,2,0,B|306:334|263:328,1,80
184,272,20932,2,0,B|104:272,2,80,8|0|2,0:0|0:0|0:0,0:0:0:0:
312,48,21598,2,0,B|232:48,1,80,8|2,0:0|0:0,0:0:0:0:
160,108,21932,6,0,B|184:184|236:144|264:224,1,160,4|8,0:0|0:0,0:0:0:0:
184,272,22432,1,0,0:0:0:0:
104,224,22598,2,0,B|16:246|16:340,1,160,0|8,0:0|0:0,0:0:0:0:
104,316,23098,1,0,0:0:0:0:
104,224,23265,2,0,B|72:196|80:152,1,80
120,72,23598,1,8,0:0:0:0:
192,128,23765,1,0,0:0:0:0:
232,48,23932,1,2,0:0:0:0:
424,240,24265,2,0,B|391:313,1,80,10|0,0:0|0:0,0:0:0:0:
328,240,24598,38,0,B|261:174|304:88,1,160,4|8,0:2|0:0,0:0:0:0:
388,64,25098,1,0,0:0:0:0:
376,156,25265,2,0,B|294:207|224:152,1,160,0|8,0:0|0:0,0:0:0:0:
208,64,25765,1,0,0:0:0:0:
136,120,25932,2,0,B|94:123|72:160,1,80
184,288,26265,2,0,B|152:216,1,80,8|0,0:0|0:0,0:0:0:0:
104,336,26598,6,0,B|120:376|164:381,1,80,2|0,0:0|0:0,0:0:0:0:
308,152,26932,2,0,B|228:152,1,80,10|2,0:0|0:0,0:0:0:0:
360,288,27265,38,0,B|448:264|456:168,1,160,4|0,0:0|0:0,0:0:0:0:
388,108,27765,1,2,0:0:0:0:
308,152,27932,2,0,B|252:192|216:120|156:152,1,160,8|2,0:0|0:0,0:0:0:0:
192,240,28432,2,0,B|204:331|120:368,1,160,0|0,0:0|0:0,0:0:0:0:
56,300,28932,1,0,0:0:0:0:
100,220,29098,1,2,0:0:0:0:
192,240,29265,2,0,B|272:240,2,80,8|0|2,0:0|0:0|0:0,0:0:0:0:
324,112,29932,6,0,B|400:68|476:112,1,160
420,188,30432,1,2,0:0:0:0:
344,240,30598,2,0,B|268:284|192:240,1,160,8|2,0:0|0:0,0:0:0:0:
100,220,31098,2,0,B|88:292|144:300|132:372,1,160,0|0,0:0|0:0,0:0:0:0:
40,348,31598,1,2,0:0:0:0:
16,260,31765,1,0,0:0:0:0:
100,220,31932,2,0,B|108:180|144:156,2,80,8|2|0,0:0|0:0|0:0,0:0:0:0:
312,140,32598,38,0,B|268:60|179:72,1,160,4|0,0:0|0:0,0:0:0:0:
88,84,33098,1,0,0:0:0:0:
144,156,33265,2,0,B|76:212|96:304,1,160,8|2,0:0|0:0,0:0:0:0:
176,344,33765,2,0,B|336:344,1,160
384,264,34265,2,0,B|304:264,1,80,2|0,0:0|0:0,0:0:0:0:
240,196,34598,1,8,0:0:0:0:
312,140,34765,1,0,0:0:0:0:
404,140,34932,1,2,0:0:0:0:
216,284,35265,6,0,B|132:240|160:144,1,160,0|2,0:0|0:0,0:0:0:0:
240,104,35765,1,0,0:0:0:0:
240,196,35932,2,0,B|172:256|92:216,1,160,8|2,0:0|0:0,0:0:0:0:
16,160,36432,2,0,B|32:68|120:52,1,160
208,32,36932,2,0,B|240:104,1,80,2|0,0:0|0:0,0:0:0:0:
240,196,37265,2,0,B|272:268,1,80,8|0,0:0|0:0,0:0:0:0:
340,328,37598,37,8,0:0:0:0:
356,324,37682,1,8,0:0:0:0:
372,320,37765,1,8,0:0:0:0:
384,312,37848,1,8,0:0:0:0:
396,300,37932,6,0,B|428:228,1,80,4|0,0:0|0:0,0:0:0:0:
428,136,38265,2,0,B|460:62,1,80,8|0,0:0|0:0,0:0:0:0:
300,152,38765,1,0,0:0:0:0:
300,152,38932,2,0,B|264:224,1,80,8|0,0:0|0:0,0:0:0:0:
176,248,39265,1,0,0:0:0:0:
88,280,39432,1,0,0:0:0:0:
88,280,39598,2,0,B|101:320|139:335,1,80,8|2,0:0|0:0,0:0:0:0:
240,80,40099,1,2,0:0:0:0:
240,80,40265,2,0,B|160:80,1,80,8|2,0:0|0:0,0:0:0:0:
300,152,40599,38,0,B|333:123|332:80,1,80,4|0,0:0|0:0,0:0:0:0:
208,168,40932,2,0,B|216:211|254:231,1,80,8|0,0:0|0:0,0:0:0:0:
404,344,41432,1,0,0:0:0:0:
404,344,41599,2,0,B|404:264,1,80,8|0,0:0|0:0,0:0:0:0:
464,192,41932,1,0,0:0:0:0:
372,176,42099,1,0,0:0:0:0:
432,104,42265,2,0,B|471:86|481:46,1,80,8|0,0:0|0:0,0:0:0:0:
392,24,42599,6,0,B|308:24,1,80,2|0,0:0|0:0,0:0:0:0:
245,174,42932,2,0,B|284:156|296:116,1,80,10|2,0:0|0:0,0:0:0:0:
208,92,43265,38,0,B|124:92,1,80,4|0,0:0|0:0,0:0:0:0:
152,180,43599,2,0,B|154:222|187:248,1,80,8|0,0:0|0:0,0:0:0:0:
328,368,44099,1,0,0:0:0:0:
328,368,44265,2,0,B|328:288,1,80,8|0,0:0|0:0,0:0:0:0:
356,200,44599,1,0,0:0:0:0:
292,132,44765,1,0,0:0:0:0:
292,132,44932,2,0,B|310:94|292:56,1,80,8|2,0:0|0:0,0:0:0:0:
96,268,45432,1,2,0:0:0:0:
96,268,45599,2,0,B|78:306|96:345,1,80,8|2,0:0|0:0,0:0:0:0:
176,220,45932,6,0,B|152:180|112:176,1,80,4|0,0:0|0:0,0:0:0:0:
180,308,46265,2,0,B|260:308,1,80,8|0,0:0|0:0,0:0:0:0:
292,132,46765,1,0,0:0:0:0:
244,52,46932,1,8,0:0:0:0:
200,132,47099,1,0,0:0:0:0:
244,216,47265,2,0,B|281:238|320:224,1,80
384,152,47599,2,0,B|384:72,1,80,8|0,0:0|0:0,0:0:0:0:
416,240,47932,38,0,B|434:279|416:316,1,80,2|0,0:0|0:0,0:0:0:0:
292,132,48265,2,0,B|274:93|292:56,1,80,10|2,0:0|0:0,0:0:0:0:
156,212,48599,6,0,B|64:224|48:316,1,160,4|8,0:0|0:0,0:0:0:0:
112,384,49099,1,0,0:0:0:0:
140,296,49265,2,0,B|56:256|80:160,1,160,2|8,0:0|0:0,0:0:0:0:
160,120,49765,2,0,B|320:120,1,160,2|0,0:0|0:0,0:0:0:0:
404,160,50265,1,8,0:0:0:0:
324,212,50432,1,0,0:0:0:0:
320,120,50599,37,2,0:0:0:0:
400,68,50765,1,0,0:0:0:0:
484,112,50932,1,8,0:0:0:0:
332,304,51265,2,0,B|313:343|332:380,1,80
416,344,51599,5,8,0:0:0:0:
408,252,51765,1,0,0:0:0:0:
324,212,51932,2,0,B|248:264|176:212,1,160,2|8,0:0|0:0,0:0:0:0:
176,120,52432,2,0,B|100:68|28:120,1,160,2|0,0:0|0:0,0:0:0:0:
52,208,52932,2,0,B|34:246|52:284,1,80,8|0,0:0|0:0,0:0:0:0:
232,296,53265,37,2,0:0:0:0:
164,228,53432,1,2,0:0:0:0:
140,320,53599,1,8,0:0:0:0:
324,60,53932,6,0,B|280:136|324:212,1,160,4|8,0:0|0:0,0:0:0:0:
416,224,54432,1,0,0:0:0:0:
380,140,54599,2,0,B|220:140,1,160,2|8,0:0|0:0,0:0:0:0:
156,72,55099,1,2,0:0:0:0:
128,160,55265,2,0,B|88:160|44:160,1,80
0,240,55599,1,8,0:0:0:0:
44,320,55765,1,0,0:0:0:0:
140,320,55932,38,0,B|184:320|220:320,2,80,2|2|8,0:0|0:0|0:0,0:0:0:0:
268,28,56599,2,0,B|348:28,1,80
420,88,56932,5,8,0:0:0:0:
352,152,57099,1,0,0:0:0:0:
420,216,57265,2,0,B|464:292|420:368,1,160,2|8,0:0|0:0,0:0:0:0:
272,304,57765,2,0,B|352:304,1,80,2|0,0:0|0:0,0:0:0:0:
204,368,58099,2,0,B|176:336|180:292,2,80,0|8|0,0:0|0:0|0:0,0:0:0:0:
232,216,58599,37,2,0:0:0:0:
232,124,58765,1,2,0:0:0:0:
152,76,58932,1,8,0:0:0:0:
72,124,59099,1,8,0:0:0:0:
72,216,59265,2,0,B|72:296,2,80,4|0|8,0:0|0:0|0:0,0:0:0:0:
308,16,59932,5,8,0:0:0:0:
468,176,60182,1,8,0:0:0:0:
248,236,60432,1,8,0:0:0:0:
328,180,60599,38,0,B|404:220|404:312,1,160,4|8,0:0|0:0,0:0:0:0:
312,304,61099,2,0,P|240:324|168:284,1,160,2|2,0:0|0:0,0:0:0:0:
164,192,61599,1,8,0:0:0:0:
248,236,61765,1,0,0:0:0:0:
244,144,61932,2,0,P|176:104|100:124,1,160,2|8,0:0|0:0,0:0:0:0:
12,152,62432,1,2,0:0:0:0:
76,216,62599,2,0,B|44:244|48:288,1,80,0|0,0:0|0:0,0:0:0:0:
192,340,62932,2,0,B|138:281,1,80,10|0,0:0|0:0,0:0:0:0:
152,124,63265,6,0,P|176:192|248:236,1,160,4|8,1:2|0:0,0:0:0:0:
328,188,63765,1,0,0:0:0:0:
324,96,63932,1,0,0:0:0:0:
244,144,64099,1,0,0:0:0:0:
248,236,64265,2,0,B|227:273|242:313,1,80,8|0,0:0|0:0,0:0:0:0:
388,380,64599,2,0,B|444:308|408:228,1,160,2|8,0:0|0:0,0:0:0:0:
328,188,65099,1,0,0:0:0:0:
324,96,65265,1,2,0:0:0:0:
408,56,65432,2,0,B|488:56,1,80,0|8,0:0|0:0,0:0:0:0:
456,144,65765,37,8,0:0:0:0:
456,144,65849,1,8,0:0:0:0:
456,144,65932,2,0,B|296:144,1,160,4|0,0:0|0:0,0:0:0:0:
236,216,66432,1,0,0:0:0:0:
148,184,66599,1,8,0:0:0:0:
156,92,66765,1,0,0:0:0:0:
244,68,66932,1,2,0:0:0:0:
160,280,67265,2,0,B|188:308,2,40
68,292,67599,2,0,B|36:364,1,80
8,144,67932,2,0,B|-8:184|8:224,1,80,8|0,0:0|0:0,0:0:0:0:
80,88,68265,2,0,B|96:48|80:8,1,80,2|0,0:0|0:0,0:0:0:0:
172,60,68599,6,0,P|184:128|252:184,1,160,4|0,0:0|0:0,0:0:0:0:
312,256,69099,1,0,0:0:0:0:
344,168,69265,2,0,B|392:100,1,80,8|0,0:0|0:0,0:0:0:0:
320,40,69599,1,2,0:0:0:0:
264,336,69932,2,0,B|216:336,2,40
356,336,70265,1,0,0:0:0:0:
312,256,70432,1,0,0:0:0:0:
220,256,70599,38,0,B|140:256,1,80,8|0,0:0|0:0,0:0:0:0:
344,168,70932,2,0,B|424:168,1,80,8|8,0:0|0:0,0:0:0:0:
312,256,71265,6,0,P|268:192|268:112,1,160,4|8,0:0|0:0,0:0:0:0:
344,168,71765,2,0,B|256:177|220:256,1,160,2|2,0:0|0:0,0:0:0:0:
176,336,72265,1,8,0:0:0:0:
84,320,72432,1,0,0:0:0:0:
76,228,72599,2,0,B|32:152|76:76,1,160,2|8,0:0|0:0,0:0:0:0:
148,136,73099,1,2,0:0:0:0:
160,48,73265,2,0,B|236:20,1,80,0|0,0:0|0:0,0:0:0:0:
308,80,73599,2,0,B|232:108,1,80,10|0,0:0|0:0,0:0:0:0:
220,200,73932,38,0,P|232:272|296:328,1,160,4|8,1:2|0:0,0:0:0:0:
388,348,74432,1,0,0:0:0:0:
460,288,74599,1,0,0:0:0:0:
452,196,74765,1,0,0:0:0:0:
392,124,74932,2,0,B|374:85|392:48,1,80,8|0,0:0|0:0,0:0:0:0:
480,108,75265,2,0,B|324:136,1,160,2|8,0:0|0:0,0:0:0:0:
236,108,75765,1,0,0:0:0:0:
236,108,75849,1,0,0:0:0:0:
236,108,75932,1,2,0:0:0:0:
220,200,76099,2,0,B|220:240,5,40,8|8|8|8|8|8,0:0|0:0|0:0|0:0|0:0|0:0,0:0:0:0:
220,240,76599,6,0,P|196:308|124:352,1,160,4|0,0:0|0:0,0:0:0:0:
40,316,77099,1,0,0:0:0:0:
32,224,77265,2,0,B|14:186|32:148,1,80,8|0,0:0|0:0,0:0:0:0:
80,68,77599,1,2,0:0:0:0:
316,108,77932,1,0,0:0:0:0:
316,108,78015,1,0,0:0:0:0:
316,108,78099,2,0,B|278:126|240:108,1,80
280,24,78432,1,0,0:0:0:0:
372,40,78598,2,0,B|406:64|406:110,1,80,8|0,0:0|0:0,0:0:0:0:
364,264,78932,2,0,B|346:225|364:188,1,80,2|0,0:0|0:0,0:0:0:0:
444,312,79265,38,0,P|375:351|300:332,1,160,4|0,0:0|0:0,0:0:0:0:
272,244,79765,1,0,0:0:0:0:
196,192,79932,2,0,B|156:179|120:200,1,80,8|0,0:0|0:0,0:0:0:0:
164,357,80265,2,0,B|183:318|168:280,1,80,2|0,0:0|0:0,0:0:0:0:
76,284,80598,1,0,0:0:0:0:
76,284,80682,1,0,0:0:0:0:
76,284,80765,1,0,0:0:0:0:
28,204,80932,1,0,0:0:0:0:
72,124,81098,1,0,0:0:0:0:
160,100,81265,6,0,B|240:100,1,80,8|0,0:0|0:0,0:0:0:0:
372,184,81598,2,0,B|292:184,1,80,8|8,0:0|0:0,0:0:0:0:
336,96,81932,38,0,P|412:104|468:164,1,160,4|0,0:0|0:0,0:0:0:0:
440,252,82432,1,0,0:0:0:0:
352,276,82598,2,0,B|336:360,1,80,8|0,0:0|0:0,0:0:0:0:
264,300,82932,2,0,B|226:318|188:300,1,80,2|0,0:0|0:0,0:0:0:0:
108,252,83265,2,0,B|72:272,2,40
88,160,83598,1,0,0:0:0:0:
148,88,83765,1,0,0:0:0:0:
240,76,83932,2,0,B|276:56|284:8,1,80,8|0,0:0|0:0,0:0:0:0:
204,160,84265,2,0,B|204:200|236:232,1,80,2|0,0:0|0:0,0:0:0:0:
148,88,84598,6,0,P|76:76|4:120,1,160,4|0,0:0|0:0,0:0:0:0:
12,212,85098,1,0,0:0:0:0:
80,288,85265,2,0,B|152:248,1,80,8|0,0:0|0:0,0:0:0:0:
172,340,85598,2,0,B|244:296,1,80,2|0,0:0|0:0,0:0:0:0:
284,216,85932,2,0,B|280:176,2,40
336,296,86265,2,0,B|376:276|380:232,1,80,0|0,0:0|0:0,0:0:0:0:
380,140,86598,1,8,0:0:0:0:
308,80,86765,1,0,0:0:0:0:
212,80,86932,37,8,0:0:0:0:
212,96,87015,1,8,0:0:0:0:
212,112,87098,1,8,0:0:0:0:
212,128,87182,1,8,0:0:0:0:
212,144,87265,1,4,0:0:0:0:
180,232,97932,5,4,0:0:0:0:
140,320,98098,1,0,0:0:0:0:
88,240,98265,2,0,B|43:233|24:192,1,80,8|0,0:0|0:0,0:0:0:0:
128,72,98598,2,0,B|104:152,1,80
24,104,98932,1,8,0:0:0:0:
128,72,99098,2,0,P|188:112|272:96,1,160,2|2,0:0|0:0,0:0:0:0:
432,80,99598,2,0,B|360:120,1,80,8|0,0:0|0:0,0:0:0:0:
280,272,99932,37,2,0:0:0:0:
368,240,100098,1,0,0:0:0:0:
296,184,100265,1,8,0:0:0:0:
128,304,100598,2,0,B|64:352,1,80
8,280,100932,5,8,0:0:0:0:
32,192,101098,1,0,0:0:0:0:
112,152,101265,2,0,P|184:120|216:48,1,160,2|8,0:0|0:0,0:0:0:0:
128,64,101765,2,0,P|176:116|260:140,1,160,2|0,0:0|0:0,0:0:0:0:
352,132,102265,2,0,B|390:111|392:68,1,80,8|0,0:0|0:0,0:0:0:0:
300,56,102598,37,2,0:0:0:0:
320,208,102765,1,2,0:0:0:0:
456,144,102932,1,8,0:0:0:0:
112,152,103265,2,0,B|74:173|72:216,1,80,4|0,0:0|0:0,0:0:0:0:
192,304,103598,6,0,B|193:261|160:232,1,80,8|0,0:0|0:0,0:0:0:0:
104,304,103932,1,0,0:0:0:0:
144,384,104098,2,0,B|224:384,1,80,2|8,0:0|0:0,0:0:0:0:
316,376,104432,2,0,P|392:340|420:272,1,160,2|0,0:0|0:0,0:0:0:0:
380,188,104932,2,0,B|336:184|312:148,1,80,8|0,0:0|0:0,0:0:0:0:
312,60,105265,37,2,0:0:0:0:
392,12,105432,1,0,0:0:0:0:
472,56,105598,1,8,0:0:0:0:
332,264,105932,2,0,B|300:292|256:288,1,80
172,168,106265,6,0,B|196:204|240:208,1,80,8|0,0:0|0:0,0:0:0:0:
312,148,106598,2,0,P|284:72|216:36,1,160,2|8,0:0|0:0,0:0:0:0:
132,76,107098,2,0,P|90:137|92:220,1,160,2|0,0:0|0:0,0:0:0:0:
172,344,107598,2,0,B|172:264,1,80,8|0,0:0|0:0,0:0:0:0:
172,168,107932,37,2,0:0:0:0:
12,168,108098,1,2,0:0:0:0:
92,308,108265,1,8,0:0:0:0:
92,308,108432,1,8,0:0:0:0:
252,304,108598,2,0,B|292:320|332:304,1,80,4|0,0:0|0:0,0:0:0:0:
420,268,108932,1,8,0:0:0:0:
212,28,109265,5,8,0:0:0:0:
176,256,109515,1,8,0:0:0:0:
388,172,109765,1,8,0:0:0:0:
288,144,109932,38,0,P|212:168|140:140,1,160,4|8,0:0|0:0,0:0:0:0:
64,200,110432,2,0,P|36:272|64:348,1,160,2|2,0:0|0:0,0:0:0:0:
156,376,110932,1,8,0:0:0:0:
240,328,111098,1,0,0:0:0:0:
332,356,111265,2,0,P|356:280|328:208,1,160,2|8,0:0|0:0,0:0:0:0:
256,144,111765,1,2,0:0:0:0:
164,120,111932,2,0,P|137:88|132:48,1,80
188,212,112265,2,0,P|164:256|136:276,1,80,10|0,0:0|0:0,0:0:0:0:
232,52,112598,6,0,P|308:40|388:56,1,160,4|8,0:2|0:0,0:0:0:0:
460,120,113098,1,0,0:0:0:0:
480,216,113265,1,0,0:0:0:0:
440,304,113432,1,0,0:0:0:0:
352,340,113598,2,0,P|312:348|272:340,1,80,8|0,0:0|0:0,0:0:0:0:
60,268,113932,2,0,P|140:292|210:269,1,160,2|8,0:0|0:0,0:0:0:0:
280,200,114432,1,0,0:0:0:0:
288,104,114598,2,0,P|264:68|228:52,1,80,2|0,0:0|0:0,0:0:0:0:
136,48,114932,1,8,0:0:0:0:
68,116,115098,37,8,0:0:0:0:
68,116,115182,1,8,0:0:0:0:
68,116,115265,2,0,P|44:184|60:268,1,160,4|0,0:0|0:0,0:0:0:0:
128,336,115765,1,0,0:0:0:0:
216,296,115932,2,0,L|296:296,2,80,8|0|2,0:0|0:0|0:0,0:0:0:0:
292,104,116598,2,0,L|280:64,2,40
364,168,116932,2,0,L|444:168,1,80
380,76,117265,2,0,P|390:36|380:0,1,80,8|0,0:0|0:0,0:0:0:0:
276,196,117598,2,0,P|266:236|276:272,1,80,2|0,0:0|0:0,0:0:0:0:
360,320,117932,6,0,P|384:248|364:168,1,160,4|0,0:0|0:0,0:0:0:0:
292,104,118432,1,0,0:0:0:0:
200,132,118598,1,8,0:0:0:0:
184,228,118765,1,0,0:0:0:0:
92,260,118932,1,2,0:0:0:0:
52,36,119265,2,0,L|12:36,2,40
148,52,119598,1,0,0:0:0:0:
200,132,119765,1,0,0:0:0:0:
184,228,119932,38,0,P|174:267|184:304,1,80,8|0,0:0|0:0,0:0:0:0:
292,104,120265,2,0,P|302:65|292:28,1,80,8|8,0:0|0:0,0:0:0:0:
200,132,120598,6,0,P|257:189|332:192,1,160,4|8,0:0|0:0,0:0:0:0:
388,112,121098,2,0,P|426:180|408:256,1,160,2|2,0:0|0:0,0:0:0:0:
372,344,121598,2,0,P|338:322|320:288,1,80,8|0,0:0|0:0,0:0:0:0:
244,228,121932,2,0,P|171:202|96:228,1,160,2|8,0:0|0:0,0:0:0:0:
20,284,122432,1,2,0:0:0:0:
84,356,122598,2,0,L|164:372,1,80
244,308,122932,2,0,L|164:292,1,80,10|0,0:0|0:0,0:0:0:0:
96,228,123265,38,0,P|48:160|52:84,1,160,4|8,0:2|0:0,0:0:0:0:
124,24,123765,1,0,0:0:0:0:
148,116,123932,1,0,0:0:0:0:
216,48,124098,1,0,0:0:0:0:
244,140,124265,2,0,P|279:120|304:88,1,80,8|0,0:0|0:0,0:0:0:0:
216,48,124598,2,0,L|216:208,1,160,2|8,0:0|0:0,0:0:0:0:
256,296,125098,1,0,0:0:0:0:
256,296,125182,1,0,0:0:0:0:
256,296,125265,1,2,0:0:0:0:
348,324,125432,2,0,L|388:328,5,40,8|8|8|8|8|8,0:0|0:0|0:0|0:0|0:0|0:0,0:0:0:0:
387,327,125932,6,0,B|448:308|456:252|440:196,1,160,4|0,0:0|0:0,0:0:0:0:
424,104,126432,1,0,0:0:0:0:
360,32,126598,2,0,P|396:12|436:8,2,80,8|0|2,0:0|0:0|0:0,0:0:0:0:
216,208,127265,1,0,0:0:0:0:
216,208,127348,1,0,0:0:0:0:
216,208,127432,2,0,P|180:228|140:232,1,80
52,200,127765,1,0,0:0:0:0:
24,108,127932,2,0,P|28:68|52:36,1,80,8|0,0:0|0:0,0:0:0:0:
188,100,128265,2,0,L|104:100,1,80,2|0,0:0|0:0,0:0:0:0:
244,36,128598,38,0,P|292:96|292:176,1,160,4|0,0:0|0:0,0:0:0:0:
272,268,129098,1,0,0:0:0:0:
336,340,129265,2,0,P|372:360|412:356,1,80,8|0,0:0|0:0,0:0:0:0:
492,308,129598,2,0,P|512:272|512:232,1,80,2|0,0:0|0:0,0:0:0:0:
472,148,129932,1,0,0:0:0:0:
472,148,130015,1,0,0:0:0:0:
472,148,130098,1,0,0:0:0:0:
376,128,130265,1,0,0:0:0:0:
292,176,130432,1,0,0:0:0:0:
272,268,130598,6,0,L|200:304,1,80,8|0,0:0|0:0,0:0:0:0:
96,256,130932,2,0,L|168:220,1,80,8|8,0:0|0:0,0:0:0:0:
104,352,131265,38,0,P|28:320|0:252,1,160,4|0,0:0|0:0,0:0:0:0:
12,156,131765,1,0,0:0:0:0:
108,156,131932,2,0,P|136:128|152:92,1,80,8|0,0:0|0:0,0:0:0:0:
228,32,132265,2,0,P|240:72|264:100,1,80,2|0,0:0|0:0,0:0:0:0:
348,148,132598,2,0,L|388:148,2,40
264,196,132932,1,0,0:0:0:0:
264,292,133098,1,0,0:0:0:0:
348,340,133265,2,0,L|428:340,1,80,8|0,0:0|0:0,0:0:0:0:
268,384,133598,2,0,L|188:384,1,80,2|0,0:0|0:0,0:0:0:0:
264,292,133932,6,0,P|268:228|212:156,1,160,4|0,0:0|0:0,0:0:0:0:
116,152,134432,1,0,0:0:0:0:
80,240,134598,2,0,P|84:280|108:312,1,80,8|0,0:0|0:0,0:0:0:0:
192,356,134932,2,0,L|268:384,1,80,2|0,0:0|0:0,0:0:0:0:
348,340,135265,2,0,L|388:340,2,40
264,292,135598,2,0,P|256:252|268:216,1,80
340,152,135932,37,8,0:0:0:0:
192,356,136182,1,8,0:0:0:0:
92,124,136432,1,8,0:0:0:0:
192,52,136598,22,0,B|228:36|228:36|268:40,1,80,4|0,0:0|0:0,0:0:0:0:
416,140,137265,2,0,B|380:156|380:156|340:152,1,80,8|0,0:0|0:0,0:0:0:0:
260,140,137765,1,2,0:0:0:0:
184,168,137932,2,0,L|144:168,2,40,0|0|2,0:0|0:0|0:0,0:0:0:0:
336,264,138598,1,8,0:0:0:0:
176,348,138932,1,2,0:0:0:0:
32,240,139265,6,0,B|21:202|21:202|32:164,1,80,4|2,0:0|0:0,0:0:0:0:
200,16,139932,2,0,B|211:54|211:54|200:92,1,80,8|2,0:0|0:0,0:0:0:0:
240,264,140598,37,0,0:0:0:0:
248,312,140765,1,0,0:0:0:0:
282,348,140932,1,2,0:0:0:0:
328,364,141098,1,2,0:0:0:0:
376,352,141265,21,0,0:0:0:0:
432,272,141432,2,0,L|472:272,2,40,0|0|8,0:0|0:0|0:0,0:0:0:0:
336,264,141765,1,8,0:0:0:0:
389,184,141932,1,4,0:0:0:0:
256,192,148598,12,8,151931,0:0:0:0:
116,148,152599,6,0,P|140:122|148:80,1,80,4|0,0:0|0:0,0:0:0:0:
140,236,152932,2,0,P|116:262|108:304,1,80,8|0,0:0|0:0,0:0:0:0:
408,192,153432,1,0,0:0:0:0:
408,192,153599,2,0,B|328:192,1,80,8|0,0:0|0:0,0:0:0:0:
368,276,153932,1,0,0:0:0:0:
460,272,154099,1,0,0:0:0:0:
460,272,154265,2,0,P|488:248|504:208,1,80,8|2,0:0|0:0,0:0:0:0:
204,92,154766,1,2,0:0:0:0:
204,92,154932,2,0,B|204:172,1,80,8|2,0:0|0:0,0:0:0:0:
288,220,155266,38,0,B|288:140,1,80,4|0,0:0|0:0,0:0:0:0:
204,268,155599,2,0,B|204:348,1,80,8|0,0:0|0:0,0:0:0:0:
380,80,156099,1,0,0:0:0:0:
380,80,156266,2,0,P|352:48|316:32,1,80,8|0,0:0|0:0,0:0:0:0:
224,20,156599,1,0,0:0:0:0:
136,56,156766,1,0,0:0:0:0:
84,136,156932,2,0,P|70:171|72:212,1,80,8|0,0:0|0:0,0:0:0:0:
128,288,157266,6,0,B|208:288,1,80,2|0,0:0|0:0,0:0:0:0:
260,136,157599,2,0,L|180:136,1,80,10|2,0:0|0:0,0:0:0:0:
296,276,157932,38,0,P|320:244|324:204,1,80,4|0,0:0|0:0,0:0:0:0:
232,212,158265,2,0,B|148:212,1,80,8|0,0:0|0:0,0:0:0:0:
396,356,158766,1,0,0:0:0:0:
396,356,158932,2,0,B|476:356,1,80,8|0,0:0|0:0,0:0:0:0:
512,272,159266,1,0,0:0:0:0:
456,200,159432,1,0,0:0:0:0:
456,200,159599,2,0,B|438:162|456:124,1,80,8|2,0:0|0:0,0:0:0:0:
148,32,160099,1,2,0:0:0:0:
148,32,160266,2,0,B|166:70|148:109,1,80,8|2,0:0|0:0,0:0:0:0:
88,180,160599,6,0,B|8:180,1,80,4|0,0:0|0:0,0:0:0:0:
52,264,160932,2,0,P|68:300|104:320,1,80,8|0,0:0|0:0,0:0:0:0:
292,132,161432,1,0,0:0:0:0:
248,52,161599,1,8,0:0:0:0:
200,132,161766,1,0,0:0:0:0:
248,216,161932,2,0,P|292:228|324:220,1,80
384,152,162266,2,0,B|464:152,1,80,8|0,0:0|0:0,0:0:0:0:
416,239,162599,38,0,B|407:282|371:301,1,80,2|0,0:0|0:0,0:0:0:0:
292,132,162932,2,0,B|300:89|336:70,1,80,10|2,0:0|0:0,0:0:0:0:
384,152,163265,1,4,0:0:0:0:
320,220,163432,1,0,0:0:0:0:
228,200,163598,1,8,0:0:0:0:
88,28,163932,5,8,0:0:0:0:
100,256,164182,1,8,0:0:0:0:
292,132,164432,1,8,0:0:0:0:
204,116,164598,6,0,L|124:116,2,80,4|0|8,0:0|0:0|0:0,0:0:0:0:
324,220,165598,2,0,L|376:220,2,40,0|2|0,0:0|0:0|0:0,0:0:0:0:
172,264,166265,2,0,L|128:264,2,40,0|2|8,0:0|0:0|0:0,0:0:0:0:
300,360,166932,1,2,0:0:0:0:
300,360,167098,1,8,0:0:0:0:
300,360,167265,6,0,B|332:336|332:336|348:300,1,80
272,132,167932,2,0,B|240:156|240:156|224:192,1,80,8|2,0:0|0:0,0:0:0:0:
376,136,168598,2,0,L|404:136,2,20
340,200,168932,2,0,B|340:240,2,40,0|2|8,0:0|0:0|0:0,0:0:0:0:
292,44,169599,1,2,0:0:0:0:
292,44,169765,1,8,0:0:0:0:
292,44,169932,38,0,B|212:44,1,80
144,192,170599,2,0,B|224:192,1,80,8|2,0:0|0:0,0:0:0:0:
292,340,171265,2,0,L|316:340,2,20
220,360,171598,2,0,L|168:360,2,40,0|2|8,0:0|0:0|0:0,0:0:0:0:
296,216,172265,1,2,0:0:0:0:
176,104,172599,6,0,B|176:24,2,80,0|0|8,0:0|0:0|0:0,0:0:0:0:
76,232,173599,1,2,0:0:0:0:
4,272,173765,5,0,0:0:0:0:
4,272,173848,1,0,0:0:0:0:
4,272,173932,2,0,P|-4:232|4:192,1,80
176,104,174432,1,2,0:0:0:0:
176,104,174598,2,0,P|218:169|212:248,1,160,0|2,0:0|0:0,0:0:0:0:
76,232,175265,6,0,P|72:172|96:116,1,120.000004577637,4|8,0:0|0:0,0:0:0:0:
240,48,175932,2,0,B|360:48,1,120.000004577637,8|8,0:0|0:0,0:0:0:0:
396,120,176432,6,0,B|336:120,1,60.0000022888184,2|8,0:0|0:0,0:0:0:0:
212,248,176932,2,0,B|276:248,1,60.0000022888184,8|2,0:0|0:0,0:0:0:0:
352,248,177265,1,8,0:0:0:0:
240,360,177599,1,10,0:0:0:0:
128,248,177932,22,0,P|112:192|128:132,1,120.000004577637,12|8,0:0|0:0,0:0:0:0:
304,40,178598,2,0,P|320:96|304:156,1,120.000004577637,8|8,0:0|0:0,0:0:0:0:
260,220,179099,1,2,0:0:0:0:
188,192,179265,38,0,B|64:192,1,120.000004577637,8|10,0:0|0:0,0:0:0:0:
160,324,179932,2,0,P|220:328|272:300,1,120.000004577637,8|10,0:0|0:0,0:0:0:0:
440,220,180599,22,0,P|404:168|352:148,1,120.000004577637,4|10,1:1|0:0,0:0:0:0:
440,300,181265,1,8,0:0:0:0:
476,128,181599,1,10,0:0:0:0:
312,72,181932,6,0,B|254:58|254:58|196:72,1,120.000004577637,8|10,0:0|0:0,0:0:0:0:
128,264,182598,2,0,B|186:278|186:278|244:264,1,120.000004577637,8|10,0:0|0:0,0:0:0:0:
72,192,183265,22,0,P|41:242|44:304,1,120.000004577637,12|10,0:0|0:0,0:0:0:0:
328,288,183932,2,0,P|326:234|288:180,1,120.000004577637,8|10,0:0|0:0,0:0:0:0:
192,356,184598,1,12,0:0:0:0:
192,356,184765,1,0,0:0:0:0:
192,356,184932,1,8,0:0:0:0:
172,52,185265,5,8,0:0:0:0:
248,260,185515,1,8,0:0:0:0:
392,88,185765,1,8,0:0:0:0:
308,136,185932,38,0,P|244:170|164:148,1,160,4|8,0:0|0:0,0:0:0:0:
96,212,186432,2,0,P|42:273|44:348,1,160,2|2,0:0|0:0,0:0:0:0:
132,384,186932,1,8,0:0:0:0:
216,348,187098,1,0,0:0:0:0:
248,260,187265,2,0,B|260:216|236:184|236:184|208:144|224:108,1,160,2|8,0:0|0:0,0:0:0:0:
304,56,187765,1,2,0:0:0:0:
392,88,187932,2,0,B|464:124,1,80,0|0,0:0|0:0,0:0:0:0:
496,208,188265,2,0,P|475:239|436:248,1,80,10|0,0:0|0:0,0:0:0:0:
372,180,188598,6,0,P|296:198|248:260,1,160,4|8,1:2|0:0,0:0:0:0:
272,352,189098,1,0,0:0:0:0:
364,376,189265,1,0,0:0:0:0:
444,328,189432,1,0,0:0:0:0:
424,236,189598,2,0,P|388:212|372:180,1,80,8|0,0:0|0:0,0:0:0:0:
392,88,189932,2,0,P|356:156|280:176,1,160,2|8,0:0|0:0,0:0:0:0:
204,120,190432,1,0,0:0:0:0:
112,120,190598,1,2,0:0:0:0:
36,176,190765,2,0,P|20:216|24:252,1,80,0|8,0:0|0:0,0:0:0:0:
72,332,191098,37,8,0:0:0:0:
72,332,191182,1,8,0:0:0:0:
72,332,191265,2,0,P|144:360|220:336,1,160,4|0,0:0|0:0,0:0:0:0:
276,264,191765,1,0,0:0:0:0:
240,180,191932,2,0,P|203:165|164:168,1,80,8|0,0:0|0:0,0:0:0:0:
88,224,192265,1,2,0:0:0:0:
332,188,192598,2,0,B|372:188,2,40
276,264,192932,2,0,P|277:306|296:340,1,80
432,284,193265,2,0,P|392:276|352:284,1,80,8|0,0:0|0:0,0:0:0:0:
492,336,193598,2,0,P|509:303|510:261,1,80,2|0,0:0|0:0,0:0:0:0:
444,192,193932,6,0,P|377:184|328:112,1,160,4|0,0:0|0:0,0:0:0:0:
376,32,194432,1,0,0:0:0:0:
468,48,194598,2,0,P|494:77|500:116,1,80,8|0,0:0|0:0,0:0:0:0:
444,192,194932,1,2,0:0:0:0:
236,56,195265,2,0,B|236:12,2,40
224,148,195598,1,0,0:0:0:0:
144,196,195765,1,0,0:0:0:0:
56,164,195932,38,0,P|36:135|36:92,1,80,8|0,0:0|0:0,0:0:0:0:
68,252,196265,2,0,P|52:283|15:305,1,80,8|8,0:0|0:0,0:0:0:0:
144,196,196598,6,0,P|216:188|284:236,1,160,4|8,0:0|0:0,0:0:0:0:
352,300,197098,2,0,P|416:272|444:192,1,160,2|2,0:0|0:0,0:0:0:0:
388,116,197598,1,8,0:0:0:0:
296,140,197765,1,0,0:0:0:0:
284,236,197932,2,0,P|268:312|304:384,1,160,2|8,0:0|0:0,0:0:0:0:
352,300,198432,1,2,0:0:0:0:
284,236,198598,2,0,B|204:236,1,80,0|0,0:0|0:0,0:0:0:0:
156,152,198932,2,0,B|236:152,1,80,10|0,0:0|0:0,0:0:0:0:
108,236,199265,38,0,P|39:211|4:136,1,160,4|8,1:2|0:0,0:0:0:0:
48,52,199765,1,0,0:0:0:0:
140,60,199932,1,0,0:0:0:0:
156,152,200098,1,0,0:0:0:0:
108,236,200265,2,0,P|73:264|60:296,1,80,8|0,0:0|0:0,0:0:0:0:
152,320,200598,2,0,P|229:346|300:320,1,160,2|8,0:0|0:0,0:0:0:0:
344,236,201098,1,0,0:0:0:0:
344,236,201182,1,0,0:0:0:0:
344,236,201265,1,2,0:0:0:0:
300,152,201432,2,0,B|308:108,5,40,8|8|8|8|8|8,0:0|0:0|0:0|0:0|0:0|0:0,0:0:0:0:
308,112,201932,6,0,P|361:56|440:52,1,160,4|0,0:0|0:0,0:0:0:0:
512,112,202432,1,0,0:0:0:0:
468,192,202598,2,0,P|436:220|400:224,2,80,8|0|2,0:0|0:0|0:0,0:0:0:0:
224,72,203265,1,0,0:0:0:0:
224,72,203348,1,0,0:0:0:0:
224,72,203432,2,0,P|188:76|156:104,1,80,0|0,0:0|0:0,0:0:0:0:
128,192,203765,1,0,0:0:0:0:
172,272,203931,2,0,P|208:296|244:296,1,80,8|0,0:0|0:0,0:0:0:0:
80,272,204265,2,0,P|41:291|23:322,1,80,2|0,0:0|0:0,0:0:0:0:
128,192,204598,38,0,P|140:112|100:48,1,160,4|0,0:0|0:0,0:0:0:0:
56,132,205098,1,0,0:0:0:0:
128,192,205265,2,0,L|208:192,1,80,8|0,0:0|0:0,0:0:0:0:
284,244,205598,2,0,P|300:284|332:304,1,80,2|0,0:0|0:0,0:0:0:0:
420,324,205932,1,0,0:0:0:0:
420,324,206015,1,0,0:0:0:0:
420,324,206098,1,0,0:0:0:0:
488,260,206265,1,0,0:0:0:0:
472,168,206432,1,0,0:0:0:0:
388,132,206598,6,0,L|308:132,1,80,8|0,0:0|0:0,0:0:0:0:
180,48,206932,2,0,L|260:48,1,80,8|8,0:0|0:0,0:0:0:0:
216,132,207265,38,0,L|56:132,1,160,4|0,0:0|0:0,0:0:0:0:
0,208,207765,1,0,0:0:0:0:
92,220,207932,2,0,P|100:256|128:288,1,80,8|0,0:0|0:0,0:0:0:0:
196,352,208265,2,0,P|228:344|256:308,1,80,2|0,0:0|0:0,0:0:0:0:
224,220,208598,2,0,L|180:220,2,40
256,132,208932,1,0,0:0:0:0:
336,88,209098,1,0,0:0:0:0:
428,112,209265,2,0,P|464:128|488:160,1,80,8|0,0:0|0:0,0:0:0:0:
392,272,209598,2,0,L|416:192,1,80,2|0,0:0|0:0,0:0:0:0:
472,272,209932,6,0,L|312:272,1,160,4|0,0:0|0:0,0:0:0:0:
228,312,210432,1,0,0:0:0:0:
140,288,210598,2,0,P|108:264|96:224,1,80,8|0,0:0|0:0,0:0:0:0:
176,176,210932,2,0,P|196:148|200:104,1,80,2|0,0:0|0:0,0:0:0:0:
124,48,211265,2,0,L|124:8,2,40
108,140,211598,2,0,P|137:166|176:176,1,80
260,132,211932,37,8,0:0:0:0:
275,118,212015,1,8,0:0:0:0:
292,108,212098,1,8,0:0:0:0:
311,102,212182,1,8,0:0:0:0:
333,98,212265,2,0,P|353:96|376:100,3,40,8|8|8|8,0:0|0:0|0:0|0:0,0:0:0:0:
392,106,212598,6,0,P|452:152|476:232,1,160,4|8,0:0|0:0,0:0:0:0:
424,308,213098,1,0,0:0:0:0:
332,316,213264,2,0,P|280:280|256:188,1,160,0|8,0:0|0:0,0:0:0:0:
344,224,213764,1,0,0:0:0:0:
332,316,213931,2,0,P|308:352|276:368,1,80
184,348,214265,2,0,B|100:348,2,80,8|0|2,0:0|0:0|0:0,0:0:0:0:
328,132,214931,2,0,B|412:132,1,80,10|0,0:0|0:0,0:0:0:0:
368,48,215265,38,0,P|296:48|236:108,1,160,4|8,0:2|0:0,0:0:0:0:
260,196,215764,1,0,0:0:0:0:
196,268,215932,2,0,P|136:327|64:327,1,160,0|8,0:2|0:0,0:0:0:0:
0,264,216431,1,0,0:0:0:0:
60,192,216598,2,0,P|97:182|136:192,1,80
196,268,216931,2,0,P|233:279|272:268,1,80,8|0,0:0|0:0,0:0:0:0:
328,192,217265,1,2,0:0:0:0:
128,32,217598,2,0,B|48:32,1,80,8|2,0:0|0:0,0:0:0:0:
92,116,217931,6,0,P|169:110|216:48,1,160,4|8,0:0|0:0,0:0:0:0:
308,36,218431,1,0,0:0:0:0:
344,120,218598,2,0,P|324:192|364:264,1,160,0|8,0:0|0:0,0:0:0:0:
412,184,219097,1,0,0:0:0:0:
344,120,219265,2,0,B|264:120,1,80
176,152,219597,1,8,0:0:0:0:
248,212,219764,1,0,0:0:0:0:
160,240,219931,1,2,0:0:0:0:
308,36,220265,2,0,B|388:36,1,80,10|0,0:0|0:0,0:0:0:0:
468,88,220598,38,0,P|494:161|468:236,1,160,4|8,0:2|0:0,0:0:0:0:
400,300,221097,1,0,0:0:0:0:
316,260,221264,2,0,P|273:210|272:120,1,160,0|8,0:0|0:0,0:0:0:0:
352,172,221764,1,0,0:0:0:0:
316,260,221931,2,0,L|284:336,1,80
176,348,222265,2,0,L|208:272,1,80,8|0,0:0|0:0,0:0:0:0:
188,180,222598,2,0,P|156:156|116:144,1,80,2|0,0:0|0:0,0:0:0:0:
116,240,222932,5,10,0:0:0:0:
260,216,223098,1,2,0:0:0:0:
192,84,223265,1,4,0:0:0:0:
256,192,223432,12,0,228598,0:0:0:0:
