osu file format v12

[General]
AudioFilename: Destrudo.mp3
AudioLeadIn: 1500
PreviewTime: 59854
Countdown: 0
SampleSet: Normal
StackLeniency: 0.7
Mode: 0
LetterboxInBreaks: 1
WidescreenStoryboard: 0

[Editor]
Bookmarks: 5937,16604,26266,27271,37937,48604,55932,59271,60604,65930,71263,76596,81930,87271,97937,108604,109937,115263,120596,125930,131263,136604,139930,141937,152604,163271,164604,175271,185937,191263,196596,201930,207263,212604,223271
DistanceSpacing: 1.2
BeatDivisor: 4
GridSize: 4

[Metadata]
Title:Destrudo
TitleUnicode:Destrudo
Artist:Yousei Teikoku
ArtistUnicode:妖精帝國
Creator:lolcubes
Version:Hard
Source:Kurokami The Animation
Tags:gothic lolita doctrine iro no nai sekai itsuki yui karen taiko haruka sweet_serenitee 黑神
BeatmapID:175810
BeatmapSetID:46349

[Difficulty]
HPDrainRate:5
CircleSize:4
OverallDifficulty:6
ApproachRate:7
SliderMultiplier:1.4
SliderTickRate:1

[Events]
//Background and Video events
0,0,"backgroundimg.jpg",0,0
//Break Periods
2,87465,97032
2,142132,147698
//Storyboard Layer 0 (Background)
Sprite,Background,Centre,"backgroundimg.jpg",320,240 F,0,2,,0
Sprite,Background,Centre,"SB\sample1.jpg",320,240 S,0,5932,,0.625 F,0,5932,6932,0,1 F,0,6932,17265,1 F,0,17265,27265,0 F,0,27265,38598,1 F,0,38598,48598,0 F,0,48598,57932,1 F,0,57932,59265,1,0 F,0,97932,107265,1 F,0,107265,108598,1,0 F,0,141932,143265,0,1 F,0,143265,147932,1 F,0,147932,149932,1,0 F,0,175265,176265,0,1 F,0,176265,183265,1 F,0,183265,184598,1,0 F,0,212598,223265,1 F,0,223265,228598,1,0
Sprite,Background,Centre,"SB\sample2.jpg",320,240 S,0,16598,,0.625 F,0,16598,17265,0,1 F,0,17265,27265,1 F,0,27265,28265,1,0 F,0,37932,38598,0,1 F,0,38598,48598,1 F,0,48598,49598,1,0 F,0,87265,97932,1 F,0,97932,98932,1,0 F,0,152598,163265,1 F,0,163265,164598,1,0
Sprite,Background,Centre,"SB\sample3.jpg",320,240 S,0,60598,,0.625 F,0,60598,87265,1 F,0,87265,88598,1,0 F,0,109932,136598,1 F,0,136598,137932,1,0 F,0,185932,212598,1 F,0,212598,213932,1,0
Sprite,Background,Centre,"SB\white.png",320,240 F,0,60515,60598,0,0.45 F,0,60598,60848,0.45,0 F,0,109848,109932,0,0.45 F,0,109932,110182,0.45,0 F,0,152515,152598,0,0.45 F,0,152598,152848,0.45,0 F,0,185848,185932,0,0.45 F,0,185932,186182,0.45,0
//Storyboard Layer 1 (Fail)
//Storyboard Layer 2 (Pass)
//Storyboard Layer 3 (Foreground)
Animation,Foreground,Centre,"SB\static\noise.png",320,240,15,30,LoopForever F,0,164598,165265,0,0.15 F,0,165265,171015,0.15 F,0,171015,172598,0.15,0.3 F,0,172598,173932,0.3,0.2 F,0,173932,175265,0.2,0.08 F,0,175265,176015,0.08,0.3 F,0,176015,177932,0.3,0.1 F,0,177932,181932,0.1 F,0,181932,183265,0.1,0.25 F,0,183265,185265,0.25,0
//Storyboard Sound Samples
//Background Colour Transformations
3,100,0,0,0

[TimingPoints]
599,333.333333333333,4,2,1,60,1,0
599,-133.333333333333,4,2,1,60,0,0
5598,-100,4,1,1,55,0,0
16598,-100,4,1,1,65,0,0
27348,-100,4,2,1,65,0,0
37598,-100,4,1,1,65,0,0
40598,-100,4,2,1,70,0,0
40682,-100,4,1,1,65,0,0
45932,-100,4,2,1,70,0,0
46015,-100,4,1,1,65,0,0
48682,-100,4,2,1,65,0,0
59932,-100,4,1,1,65,0,0
60182,-100,4,1,1,70,0,0
60432,-100,4,1,1,75,0,0
60599,-100,4,1,1,80,0,1
60682,-100,4,1,1,75,0,0
65932,-100,4,1,1,70,0,0
68598,-100,4,2,1,75,0,0
68682,-100,4,1,1,70,0,0
71265,-100,4,1,1,75,0,0
76598,-100,4,1,1,70,0,0
76682,-100,4,1,1,75,0,0
79265,-100,4,2,1,80,0,0
79348,-100,4,1,1,75,0,0
84598,-100,4,2,1,80,0,0
84682,-100,4,1,1,75,0,0
87265,-100,4,1,1,75,0,0
97932,-100,4,2,1,65,0,0
109265,-100,4,1,1,65,0,0
109515,-100,4,1,1,70,0,0
109765,-100,4,1,1,75,0,0
109932,-100,4,1,1,75,0,1
110015,-100,4,1,1,75,0,0
115348,-100,4,1,1,70,0,0
117932,-100,4,2,1,75,0,0
118015,-100,4,1,1,70,0,0
120598,-100,4,1,1,70,0,0
120682,-100,4,1,1,75,0,0
125932,-100,4,1,1,70,0,0
126015,-100,4,1,1,70,0,0
128598,-100,4,2,1,75,0,0
128682,-100,4,1,1,70,0,0
133932,-100,4,2,1,75,0,0
134015,-100,4,1,1,70,0,0
136598,-133.333333333333,4,1,0,70,0,0
136682,-133.333333333333,4,2,1,50,0,0
139265,-133.333333333333,4,2,1,40,0,0
139348,-133.333333333333,4,2,1,50,0,0
140598,-133.333333333333,4,2,1,50,0,0
140765,-133.333333333333,4,2,1,55,0,0
140932,-133.333333333333,4,2,1,60,0,0
141098,-133.333333333333,4,2,1,65,0,0
141265,-100,4,1,1,63,0,0
141598,-100,4,1,1,75,0,0
141932,-100,4,1,0,70,0,0
147265,-100,4,2,0,5,0,0
151598,-100,4,1,1,70,0,0
152598,-100,4,1,0,60,0,0
152682,-100,4,1,1,65,0,0
155265,-100,4,2,1,70,0,0
155348,-100,4,1,1,65,0,0
160598,-100,4,2,1,70,0,0
160682,-100,4,1,1,65,0,0
163348,-100,4,2,1,60,0,0
163932,-100,4,1,1,55,0,0
164598,-133.333333333333,4,2,1,60,0,0
173765,-100,4,1,1,60,0,0
175265,-133.333333333333,4,1,1,60,0,0
175348,-133.333333333333,4,2,1,65,0,0
181265,-133.333333333333,4,1,1,55,0,0
181598,-133.333333333333,4,2,1,60,0,0
182598,-133.333333333333,4,1,1,55,0,0
182682,-133.333333333333,4,2,1,60,0,0
183932,-133.333333333333,4,1,1,55,0,0
184015,-133.333333333333,4,2,1,60,0,0
184598,-100,4,2,1,60,0,0
184682,-100,4,1,1,60,0,0
185265,-100,4,1,1,65,0,0
185515,-100,4,1,1,75,0,0
185765,-100,4,1,1,80,0,0
185932,-100,4,1,1,80,0,1
186015,-100,4,1,1,75,0,1
193932,-100,4,2,1,80,0,1
194015,-100,4,1,1,75,0,1
204598,-100,4,2,1,80,0,1
204682,-100,4,1,1,75,0,1
212515,-100,4,1,1,75,0,0
212599,-100,4,1,1,80,0,1
212682,-100,4,1,1,80,0,0
223348,-100,4,2,1,5,0,0

[Colours]
Combo1 : 180,180,180
Combo2 : 224,0,0
Combo3 : 200,180,128
Combo4 : 240,240,240

[HitObjects]
80,296,599,54,0,B|24:296,2,52.5000020027161
152,296,1098,1,2,0:0:0:0:
256,236,1432,1,2,0:0:0:0:
256,356,1765,1,2,0:0:0:0:
432,92,3265,38,0,B|488:92,2,52.5000020027161
360,92,3764,1,2,0:0:0:0:
256,152,4098,1,2,0:0:0:0:
256,32,4431,1,2,0:0:0:0:
320,168,5598,21,8,0:0:0:0:
320,168,5765,1,8,0:0:0:0:
256,112,5932,6,0,B|224:152|164:172|104:152|72:112,1,210,4|0,0:0|0:0,0:0:0:0:
128,48,6598,2,0,B|200:48,1,70,8|0,0:0|0:0,0:0:0:0:
320,168,7098,1,0,0:0:0:0:
160,224,7432,1,0,0:0:0:0:
160,224,7598,2,0,B|126:237|112:272,1,70,2|0,0:0|0:0,0:0:0:0:
336,88,8098,1,0,0:0:0:0:
336,88,8265,2,0,B|370:75|384:40,1,70,2|0,0:0|0:0,0:0:0:0:
256,112,8598,38,0,P|262:226|328:288,1,210,0|0,0:0|0:0,0:0:0:0:
408,320,9265,1,8,0:0:0:0:
396,236,9432,1,0,0:0:0:0:
272,352,9765,1,0,0:0:0:0:
160,224,10098,6,0,B|160:152,2,70,0|2|0,2:0|2:0|2:0,2:0:0:0:
96,280,10598,2,0,B|32:240|40:160,1,140,8|2,2:1|2:0,2:0:0:0:
96,96,11098,1,2,2:0:0:0:
176,72,11265,38,0,P|249:149|256:248,1,210,4|0,0:0|0:0,0:0:0:0:
224,328,11932,2,0,B|156:340,1,70,8|0,0:0|0:0,0:0:0:0:
160,160,12432,1,0,0:0:0:0:
336,184,12765,1,0,0:0:0:0:
336,184,12932,2,0,B|360:252,1,70,2|0,0:0|0:0,0:0:0:0:
80,168,13432,1,0,0:0:0:0:
80,168,13599,2,0,B|96:96,1,70,2|0,0:0|0:0,0:0:0:0:
128,232,13932,6,0,P|206:306|304:312,1,210
360,248,14599,2,0,B|360:176,1,70,8|0,0:0|0:0,0:0:0:0:
280,32,15099,1,0,0:0:0:0:
160,152,15432,37,0,2:0:0:0:
128,232,15599,2,0,B|128:304,2,70,2|0|8,2:0|2:0|2:1,2:0:0:0:
376,96,16265,2,0,B|444:96,1,70,2|2,2:0|2:0,2:0:0:0:
360,176,16599,6,0,B|303:231|232:200,1,140,4|8,0:0|0:0,0:0:0:0:
160,152,17099,1,0,0:0:0:0:
128,232,17265,2,0,B|71:284|96:360,1,140,0|8,0:0|0:0,0:0:0:0:
232,116,17932,2,0,B|232:44,2,70,2|0|8,0:0|0:0|0:0,0:0:0:0:
232,200,18432,1,2,0:0:0:0:
304,248,18599,1,0,0:0:0:0:
376,96,18932,1,8,0:0:0:0:
232,200,19265,38,0,P|223:274|264:328,1,140,4|8,0:0|0:0,0:0:0:0:
336,364,19765,1,0,0:0:0:0:
380,288,19932,2,0,P|382:214|340:168,1,140,0|8,0:0|0:0,0:0:0:0:
64,104,20598,2,0,B|-8:104,2,70,2|0|8,0:0|0:0|0:0,0:0:0:0:
108,180,21098,1,0,0:0:0:0:
152,104,21265,1,2,0:0:0:0:
260,320,21598,2,0,P|233:346|200:352,1,70,8|2,0:0|0:0,0:0:0:0:
196,276,21932,6,0,P|182:206|212:148,1,140,4|8,0:0|0:0,0:0:0:0:
248,72,22432,1,0,0:0:0:0:
320,120,22598,2,0,B|464:120,1,140,0|8,0:0|0:0,0:0:0:0:
376,272,23265,2,0,B|343:251|340:214,1,70,2|0,0:0|0:0,0:0:0:0:
424,200,23598,2,0,B|496:200,1,70,8|2,0:0|0:0,0:0:0:0:
456,280,23932,1,0,0:0:0:0:
304,360,24265,1,8,0:0:0:0:
160,272,24598,38,0,P|102:302|32:288,1,140,4|8,0:0|0:0,0:0:0:0:
12,204,25098,1,0,0:0:0:0:
88,168,25265,2,0,P|98:104|64:40,1,140,0|8,0:0|0:0,0:0:0:0:
168,192,25932,2,0,B|240:192,1,70,2|0,0:0|0:0,0:0:0:0:
312,112,26265,2,0,B|240:112,1,70,8|0,0:0|0:0,0:0:0:0:
320,192,26598,2,0,B|400:200|432:128,2,140,2|8|4,0:0|0:0|0:0,0:0:0:0:
148,108,27598,5,0,0:0:0:0:
88,168,27765,1,2,0:0:0:0:
168,192,27932,2,0,P|232:264|344:272,1,210,8|2,0:0|0:0,0:0:0:0:
488,192,28765,1,0,0:0:0:0:
440,120,28932,2,0,P|377:89|312:104,1,140,2|8,0:0|0:0,0:0:0:0:
312,104,29432,1,0,0:0:0:0:
311,104,29598,1,2,0:0:0:0:
240,264,29932,1,0,0:0:0:0:
88,168,30265,37,0,0:0:0:0:
148,108,30432,1,2,0:0:0:0:
168,192,30598,2,0,P|129:278|24:304,1,210,8|2,0:0|0:0,0:0:0:0:
16,128,31432,1,0,0:0:0:0:
16,128,31598,1,2,0:0:0:0:
152,24,31932,2,0,P|184:16|220:24,2,70,8|2|0,0:0|0:0|0:0,0:0:0:0:
168,192,32598,1,4,0:0:0:0:
232,348,32932,6,0,P|196:356|164:348,1,70,2|0,0:0|0:0,0:0:0:0:
192,272,33265,2,0,P|274:244|320:136,1,210,8|2,0:0|0:0,0:0:0:0:
472,224,34098,2,0,B|472:296,1,70,0|2,0:0|0:0,0:0:0:0:
316,360,34598,1,8,0:0:0:0:
232,348,34765,1,0,0:0:0:0:
192,272,34932,1,2,0:0:0:0:
232,104,35265,1,0,0:0:0:0:
336,236,35598,38,0,P|304:248|280:276,1,70,2|0,0:0|0:0,0:0:0:0:
192,272,35932,2,0,B|151:338|72:320,1,140,8|2,0:0|0:0,0:0:0:0:
72,320,36432,1,0,0:0:0:0:
112,160,36765,2,0,P|144:178|176:180,1,70,0|2,0:0|0:0,0:0:0:0:
292,60,37265,1,8,0:0:0:0:
208,44,37432,1,2,0:0:0:0:
136,80,37598,1,8,0:0:0:0:
136,80,37682,1,8,0:0:0:0:
136,80,37765,1,8,0:0:0:0:
112,160,37932,6,0,L|128:228,1,70,4|0,0:0|0:0,0:0:0:0:
212,256,38265,2,0,L|196:188,1,70,8|0,0:0|0:0,0:0:0:0:
392,136,38765,2,0,L|464:136,2,70,0|8|0,0:0|0:0|0:0,0:0:0:0:
324,180,39265,2,0,P|316:216|324:248,1,70,0|0,0:0|0:0,0:0:0:0:
396,284,39598,2,0,P|404:248|396:216,1,70,8|2,0:0|0:0,0:0:0:0:
248,44,40098,1,2,0:0:0:0:
248,44,40265,2,0,P|212:38|180:44,1,70,8|2,0:0|0:0,0:0:0:0:
116,96,40598,38,0,P|81:102|48:96,2,70,4|0|8,0:0|0:0|0:0,0:0:0:0:
80,24,41098,1,0,0:0:0:0:
20,212,41432,1,0,0:0:0:0:
20,212,41598,2,0,P|24:249|40:276,1,70,8|0,0:0|0:0,0:0:0:0:
284,208,42098,1,0,0:0:0:0:
284,208,42265,2,0,P|252:202|216:208,1,70,8|0,0:0|0:0,0:0:0:0:
252,276,42598,6,0,P|260:312|284:340,1,70,2|0,0:0|0:0,0:0:0:0:
360,208,42932,2,0,P|352:172|328:144,1,70,10|2,0:0|0:0,0:0:0:0:
328,280,43265,38,0,L|400:280,1,70,4|0,0:0|0:0,0:0:0:0:
508,208,43598,2,0,L|436:208,1,70,8|0,0:0|0:0,0:0:0:0:
192,152,44098,2,0,P|156:155|132:176,1,70,0|8,0:0|0:0,0:0:0:0:
112,252,44431,1,0,0:0:0:0:
312,348,44765,1,0,0:0:0:0:
312,348,44931,2,0,L|380:360,1,70,8|2,0:0|0:0,0:0:0:0:
260,140,45431,1,2,0:0:0:0:
260,140,45598,2,0,L|192:152,1,70,8|2,0:0|0:0,0:0:0:0:
116,132,45931,6,0,P|98:100|96:68,1,70,4|0,0:0|0:0,0:0:0:0:
152,12,46265,2,0,P|170:44|172:76,1,70,8|0,0:0|0:0,0:0:0:0:
72,264,46765,2,0,P|48:288|40:324,1,70,0|8,0:0|0:0,0:0:0:0:
116,328,47098,1,0,0:0:0:0:
332,212,47431,1,0,0:0:0:0:
332,212,47598,2,0,P|322:180|298:153,1,70,8|0,0:0|0:0,0:0:0:0:
256,220,47931,38,0,L|184:220,1,70,2|0,0:0|0:0,0:0:0:0:
268,80,48265,2,0,L|340:80,1,70,10|2,0:0|0:0,0:0:0:0:
220,144,48598,6,0,P|148:140|104:92,1,140,4|8,0:0|0:0,0:0:0:0:
128,16,49098,1,0,0:0:0:0:
184,72,49265,2,0,P|168:136|108:172,1,140,2|8,0:0|0:0,0:0:0:0:
36,208,49765,2,0,P|8:272|24:340,1,140,2|0,0:0|0:0,0:0:0:0:
96,368,50265,1,8,0:0:0:0:
300,324,50598,37,2,0:0:0:0:
336,252,50765,1,0,0:0:0:0:
308,176,50932,1,8,0:0:0:0:
452,40,51265,6,0,P|488:104|476:168,1,140,0|8,0:0|0:0,0:0:0:0:
440,236,51765,1,0,0:0:0:0:
380,188,51932,2,0,P|343:124|356:60,1,140,2|8,0:0|0:0,0:0:0:0:
416,116,52432,2,0,P|336:132|292:100,1,140,2|0,0:0|0:0,0:0:0:0:
252,32,52932,1,8,0:0:0:0:
124,324,53265,37,2,0:0:0:0:
232,356,53432,1,2,0:0:0:0:
208,248,53598,1,8,0:0:0:0:
4,288,53932,1,4,0:0:0:0:
52,84,54265,6,0,P|80:104|116:104,1,70,8|0,0:0|0:0,0:0:0:0:
188,124,54598,2,0,P|256:152|316:132,1,140,2|8,0:0|0:0,0:0:0:0:
396,120,55098,1,2,0:0:0:0:
444,184,55265,2,0,L|456:252,2,70,0|0|8,0:0|0:0|0:0,0:0:0:0:
256,72,55932,38,0,L|244:4,2,70,2|0|8,0:0|0:0|0:0,0:0:0:0:
256,292,56598,6,0,P|200:336|132:336,1,140,0|8,0:0|0:0,0:0:0:0:
60,304,57098,1,0,0:0:0:0:
48,224,57265,2,0,P|64:164|124:120,1,140,2|8,0:0|0:0,0:0:0:0:
196,156,57765,2,0,P|232:204|308:208,1,140,2|0,0:0|0:0,0:0:0:0:
368,156,58265,2,0,P|392:132|428:120,1,70,8|0,0:0|0:0,0:0:0:0:
380,232,58598,37,2,0:0:0:0:
292,132,58765,1,2,0:0:0:0:
392,44,58932,1,8,0:0:0:0:
396,40,59098,1,8,0:0:0:0:
400,36,59265,1,4,0:0:0:0:
256,336,59932,5,8,0:0:0:0:
132,208,60182,1,8,0:0:0:0:
292,132,60432,1,8,0:0:0:0:
292,132,60598,38,0,P|288:204|324:260,1,140,4|8,0:0|0:0,0:0:0:0:
400,240,61098,2,0,P|444:184|444:116,1,140,2|2,0:0|0:0,0:0:0:0:
408,44,61598,1,8,0:0:0:0:
212,180,61932,2,0,P|143:176|96:128,1,140,2|8,0:0|0:0,0:0:0:0:
136,60,62432,2,0,P|180:36|268:48,1,140,2|0,0:0|0:0,0:0:0:0:
320,104,62932,1,10,0:0:0:0:
292,180,63098,1,0,0:0:0:0:
212,180,63265,6,0,P|168:232|164:304,1,140,4|8,0:0|0:0,0:0:0:0:
328,368,63932,2,0,P|293:371|260:360,1,70
304,295,64265,2,0,P|338:289|367:269,1,70,8|0,0:0|0:0,0:0:0:0:
308,220,64598,37,2,0:0:0:0:
132,336,64932,1,8,0:0:0:0:
16,160,65265,1,2,0:0:0:0:
192,44,65598,1,8,0:0:0:0:
220,116,65765,5,8,0:0:0:0:
220,116,65848,1,8,0:0:0:0:
220,116,65932,2,0,P|176:164|172:236,1,140,4|0,0:0|0:0,0:0:0:0:
204,308,66432,1,0,0:0:0:0:
272,344,66598,2,0,L|344:344,2,70,8|0|2,0:0|0:0|0:0,0:0:0:0:
36,268,67265,2,0,L|-12:268,2,35
112,240,67598,1,0,0:0:0:0:
156,172,67765,1,0,0:0:0:0:
144,92,67932,2,0,L|112:28,2,70,8|0|2,0:0|0:0|0:0,0:0:0:0:
348,248,68598,38,0,P|412:250|472:208,1,140,4|0,0:0|0:0,0:0:0:0:
488,128,69098,1,0,0:0:0:0:
428,72,69265,2,0,P|421:38|428:4,2,70,8|0|2,0:0|0:0|0:0,0:0:0:0:
412,296,69932,2,0,L|440:316,2,35
348,248,70265,1,0,0:0:0:0:
272,276,70432,1,0,0:0:0:0:
264,356,70598,5,8,0:0:0:0:
216,80,70932,1,8,0:0:0:0:
60,300,71265,38,0,P|28:256|32:172,1,140,4|8,0:0|0:0,0:0:0:0:
104,208,71765,2,0,P|128:148|112:76,1,140,2|2,0:0|0:0,0:0:0:0:
56,20,72265,1,8,0:0:0:0:
188,232,72598,2,0,P|152:292|156:360,1,140,2|8,0:0|0:0,0:0:0:0:
228,324,73098,2,0,P|283:371|348:372,1,140,2|0,0:0|0:0,0:0:0:0:
416,332,73598,1,10,0:0:0:0:
464,128,73932,6,0,P|388:116|332:140,1,140,4|8,0:0|0:0,0:0:0:0:
112,120,74598,2,0,P|80:100|64:72,1,70
136,48,74932,2,0,P|168:33|204:36,1,70,8|0,0:0|0:0,0:0:0:0:
184,108,75265,37,2,0:0:0:0:
56,308,75598,1,8,0:0:0:0:
284,376,75932,1,2,0:0:0:0:
412,176,76265,1,8,0:0:0:0:
332,168,76432,5,8,0:0:0:0:
332,168,76515,1,8,0:0:0:0:
332,168,76598,2,0,P|296:240|244:264,1,140,4|0,0:0|0:0,0:0:0:0:
164,272,77098,1,0,0:0:0:0:
96,228,77265,2,0,L|24:228,2,70,8|0|2,0:0|0:0|0:0,0:0:0:0:
268,120,77932,2,0,L|256:84,2,35
332,168,78265,1,0,0:0:0:0:
412,176,78432,1,0,0:0:0:0:
484,140,78598,2,0,L|496:72,2,70,8|0|2,0:0|0:0|0:0,0:0:0:0:
352,372,79265,38,0,P|340:304|364:240,1,140,4|0,0:0|0:0,0:0:0:0:
412,176,79765,1,0,0:0:0:0:
380,104,79932,2,0,P|352:76|324:64,1,70,8|0,0:0|0:0,0:0:0:0:
244,60,80265,1,2,0:0:0:0:
52,204,80598,2,0,L|20:184,2,35
64,284,80932,1,0,0:0:0:0:
120,340,81098,1,0,0:0:0:0:
200,356,81265,5,8,0:0:0:0:
412,176,81598,1,8,0:0:0:0:
412,176,81765,1,8,0:0:0:0:
364,240,81932,38,0,P|336:304|276:332,1,140,4|0,0:0|0:0,0:0:0:0:
216,276,82432,1,0,0:0:0:0:
212,196,82598,2,0,P|223:163|248:140,1,70,8|0,0:0|0:0,0:0:0:0:
328,120,82932,1,2,0:0:0:0:
144,240,83265,2,0,L|128:280,2,35
212,196,83598,1,0,0:0:0:0:
204,116,83765,1,0,0:0:0:0:
128,88,83932,1,8,0:0:0:0:
60,132,84098,1,0,0:0:0:0:
68,212,84265,1,2,0:0:0:0:
256,344,84598,6,0,P|321:346|376:300,1,140,4|0,0:0|0:0,0:0:0:0:
404,224,85098,2,0,P|372:198|364:172,1,70,0|8,0:0|0:0,0:0:0:0:
368,92,85432,2,0,P|400:68|412:40,1,70,0|2,0:0|0:0,0:0:0:0:
136,164,85932,2,0,L|88:164,2,35
204,116,86265,2,0,L|184:48,2,70,0|0|8,0:0|0:0|0:0,0:0:0:0:
256,308,86932,38,0,L|256:348,4,35,8|8|8|8|4,0:0|0:0|0:0|0:0|0:0,0:0:0:0:
176,184,97932,53,4,0:0:0:0:
288,356,98265,6,0,P|305:328|304:292,1,70,8|0,0:0|0:0,0:0:0:0:
296,212,98598,1,2,0:0:0:0:
288,132,98765,2,0,P|260:108|248:76,1,70,0|8,0:0|0:0,0:0:0:0:
360,160,99098,2,0,P|412:116|428:48,1,140,2|0,0:0|0:0,0:0:0:0:
428,48,99598,1,8,0:0:0:0:
404,256,99932,2,0,L|428:324,2,70,2|0|8,0:0|0:0|0:0,0:0:0:0:
224,148,100598,2,0,P|188:148|156:160,1,70
204,224,100932,38,0,P|236:240|256:268,1,70,8|0,0:0|0:0,0:0:0:0:
184,300,101265,1,2,0:0:0:0:
112,332,101432,2,0,P|80:348|60:376,1,70,0|8,0:0|0:0,0:0:0:0:
56,268,101765,2,0,P|80:200|64:136,1,140,2|0,0:0|0:0,0:0:0:0:
16,72,102265,1,8,0:0:0:0:
224,148,102598,5,2,0:0:0:0:
284,244,102765,1,2,0:0:0:0:
304,164,102932,1,8,0:0:0:0:
204,224,103098,1,0,0:0:0:0:
264,324,103265,1,4,0:0:0:0:
456,240,103598,38,0,P|420:228|400:204,1,70,8|0,0:0|0:0,0:0:0:0:
372,128,103932,1,2,0:0:0:0:
292,132,104098,2,0,P|260:132|224:148,1,70,0|8,0:0|0:0,0:0:0:0:
204,224,104432,2,0,P|212:292|184:356,1,140,2|0,0:0|0:0,0:0:0:0:
100,344,104932,2,0,P|92:276|120:212,1,140,8|2,0:0|0:0,0:0:0:0:
128,132,105432,1,0,0:0:0:0:
64,84,105598,1,8,0:0:0:0:
204,224,105932,2,0,P|240:224|272:212,1,70
340,172,106265,6,0,P|368:188|392:216,1,70,8|0,0:0|0:0,0:0:0:0:
420,292,106598,2,0,P|384:316|372:340,1,70,2|0,0:0|0:0,0:0:0:0:
448,368,106932,1,8,0:0:0:0:
496,264,107098,2,0,P|484:192|436:148,1,140,2|0,0:0|0:0,0:0:0:0:
368,108,107598,2,0,P|344:128|300:140,1,70,8|0,0:0|0:0,0:0:0:0:
300,64,107932,37,2,0:0:0:0:
440,68,108098,1,2,0:0:0:0:
376,192,108265,1,8,0:0:0:0:
372,196,108432,1,8,0:0:0:0:
368,200,108598,1,4,0:0:0:0:
364,204,109265,5,8,0:0:0:0:
244,336,109515,1,8,0:0:0:0:
92,240,109765,1,8,0:0:0:0:
92,240,109932,38,0,P|128:168|120:112,1,140,4|8,0:0|0:0,0:0:0:0:
88,36,110432,2,0,P|31:78|13:144,1,140,2|2,0:0|0:0,0:0:0:0:
12,224,110932,1,8,0:0:0:0:
244,336,111266,2,0,P|313:332|360:284,1,140,2|8,0:0|0:0,0:0:0:0:
312,220,111766,2,0,P|288:176|300:88,1,140,2|0,0:0|0:0,0:0:0:0:
364,44,112266,1,10,0:0:0:0:
444,52,112432,1,0,0:0:0:0:
496,112,112599,6,0,P|492:182|448:232,1,140,4|8,0:0|0:0,0:0:0:0:
248,264,113266,2,0,P|216:259|184:238,1,70
240,184,113599,2,0,P|260:158|294:141,1,70,8|0,0:0|0:0,0:0:0:0:
312,220,113932,37,2,0:0:0:0:
164,368,114266,1,8,0:0:0:0:
164,160,114599,1,2,0:0:0:0:
320,300,114932,1,8,0:0:0:0:
252,344,115099,5,8,0:0:0:0:
252,344,115182,1,8,0:0:0:0:
252,344,115266,2,0,P|210:293|140:276,1,140,4|0,0:0|0:0,0:0:0:0:
68,312,115765,1,0,0:0:0:0:
40,236,115931,2,0,L|16:168,2,70,8|0|2,0:0|0:0|0:0,0:0:0:0:
260,184,116598,2,0,L|304:184,2,35
188,152,116931,1,0,0:0:0:0:
140,88,117098,1,0,0:0:0:0:
72,48,117265,2,0,L|0:48,2,70,8|0|2,0:0|0:0|0:0,0:0:0:0:
264,36,117931,38,0,P|328:34|388:76,1,140,4|0,0:0|0:0,0:0:0:0:
432,144,118431,1,0,0:0:0:0:
392,212,118598,2,0,L|404:284,2,70,8|0|2,0:0|0:0|0:0,0:0:0:0:
188,152,119265,2,0,L|180:116,2,35
160,228,119598,1,0,0:0:0:0:
176,308,119765,1,0,0:0:0:0:
236,364,119931,5,8,0:0:0:0:
288,88,120265,1,8,0:0:0:0:
500,272,120598,38,0,P|461:333|400:352,1,140,4|8,0:0|0:0,0:0:0:0:
352,284,121098,2,0,P|328:224|344:152,1,140,2|2,0:0|0:0,0:0:0:0:
408,100,121598,1,8,0:0:0:0:
156,160,121931,2,0,P|88:143|42:92,1,140,2|8,0:0|0:0,0:0:0:0:
116,60,122431,2,0,P|184:38|245:62,1,140,2|0,0:0|0:0,0:0:0:0:
236,144,122931,1,10,0:0:0:0:
464,128,123265,6,0,P|388:116|332:140,1,140,4|8,0:0|0:0,0:0:0:0:
340,328,123931,2,0,P|372:308|388:280,1,70
316,256,124265,2,0,P|284:241|248:244,1,70,8|0,0:0|0:0,0:0:0:0:
268,316,124598,37,2,0:0:0:0:
396,116,124931,1,8,0:0:0:0:
168,44,125265,1,2,0:0:0:0:
40,244,125598,1,8,0:0:0:0:
104,196,125765,5,8,0:0:0:0:
104,196,125848,1,8,0:0:0:0:
104,196,125931,2,0,P|140:268|192:292,1,140,4|0,0:0|0:0,0:0:0:0:
268,316,126432,1,0,0:0:0:0:
344,292,126598,2,0,L|416:292,2,70,8|0|2,0:0|0:0|0:0,0:0:0:0:
256,72,127265,2,0,L|256:36,2,35
296,140,127598,1,0,0:0:0:0:
256,208,127765,1,0,0:0:0:0:
216,140,127931,2,0,P|187:109|180:84,2,70,8|0|2,0:0|0:0|0:0,0:0:0:0:
436,184,128598,38,0,P|464:241|440:312,1,140,4|0,0:0|0:0,0:0:0:0:
372,352,129098,1,0,0:0:0:0:
300,316,129265,2,0,P|284:288|284:248,1,70,8|0,0:0|0:0,0:0:0:0:
328,184,129598,1,2,0:0:0:0:
160,56,129931,2,0,L|140:24,2,35
204,124,130265,1,0,0:0:0:0:
160,192,130431,1,0,0:0:0:0:
116,124,130598,5,8,0:0:0:0:
296,336,130931,1,8,0:0:0:0:
168,336,131098,1,8,0:0:0:0:
232,228,131265,38,0,P|288:192|312:124,1,140,4|0,0:0|0:0,0:0:0:0:
300,44,131765,1,0,0:0:0:0:
220,36,131931,2,0,P|184:28|152:36,1,70,8|0,0:0|0:0,0:0:0:0:
188,108,132265,1,2,0:0:0:0:
392,172,132598,2,0,L|436:172,2,35
336,232,132932,2,0,P|330:267|342:300,1,70
316,152,133265,2,0,P|321:116|309:83,1,70,8|0,0:0|0:0,0:0:0:0:
260,212,133598,1,2,0:0:0:0:
104,348,133931,6,0,L|244:368,1,140,4|0,0:0|0:0,0:0:0:0:
216,288,134431,2,0,P|184:262|176:236,1,70,0|8,0:0|0:0,0:0:0:0:
232,176,134765,2,0,L|308:188,1,70,0|2,0:0|0:0,0:0:0:0:
448,60,135265,2,0,L|500:68,2,35
380,104,135598,2,0,L|300:88,1,70
232,68,135932,37,8,0:0:0:0:
320,204,136182,1,8,0:0:0:0:
168,264,136432,1,8,0:0:0:0:
248,248,136598,22,0,L|236:140,1,105.000004005432,4|0,0:0|0:0,0:0:0:0:
112,144,137265,2,0,L|100:36,1,105.000004005432,8|2,0:0|0:0,0:0:0:0:
124,236,137932,2,0,L|72:256,2,52.5000020027161
240,192,138598,2,0,L|252:304,1,105.000004005432,8|2,0:0|0:0,0:0:0:0:
364,188,139265,6,0,B|372:136|372:136|352:88,1,105.000004005432
188,20,139932,2,0,B|180:72|180:72|200:120,1,105.000004005432,8|2,0:0|0:0,0:0:0:0:
264,264,140598,1,0,0:0:0:0:
264,264,140765,1,0,0:0:0:0:
264,264,140932,1,2,0:0:0:0:
108,248,141265,5,8,0:0:0:0:
340,220,141598,1,8,0:0:0:0:
264,176,141765,1,8,0:0:0:0:
264,264,141932,1,4,0:0:0:0:
256,192,148598,12,8,151932,0:0:0:0:
112,160,152599,6,0,L|96:232,1,70,4|0,0:0|0:0,0:0:0:0:
192,296,152932,2,0,L|176:228,1,70,8|0,0:0|0:0,0:0:0:0:
356,104,153432,2,0,L|428:104,2,70,0|8|0,0:0|0:0|0:0,0:0:0:0:
284,72,153932,2,0,P|264:40|235:23,1,70,0|0,0:0|0:0,0:0:0:0:
212,100,154265,2,0,L|228:168,1,70,8|2,0:0|0:0,0:0:0:0:
360,336,154765,1,2,0:0:0:0:
360,336,154932,2,0,L|344:268,1,70,8|2,0:0|0:0,0:0:0:0:
324,188,155265,38,0,P|318:153|324:120,2,70,4|0|8,0:0|0:0|0:0,0:0:0:0:
400,212,155765,1,0,0:0:0:0:
244,56,156099,1,0,0:0:0:0:
244,56,156265,2,0,L|172:56,1,70,8|0,0:0|0:0,0:0:0:0:
64,236,156765,1,0,0:0:0:0:
64,236,156932,2,0,L|140:236,1,70,8|0,0:0|0:0,0:0:0:0:
192,296,157265,6,0,P|212:320|248:332,1,70,2|0,0:0|0:0,0:0:0:0:
336,200,157598,2,0,P|305:205|276:230,1,70,10|2,0:0|0:0,0:0:0:0:
356,300,157932,38,0,L|424:320,1,70,4|0,0:0|0:0,0:0:0:0:
472,256,158265,2,0,L|404:236,1,70,8|0,0:0|0:0,0:0:0:0:
252,108,158765,2,0,P|216:105|192:84,1,70,0|8,0:0|0:0,0:0:0:0:
248,32,159098,1,0,0:0:0:0:
212,224,159432,1,0,0:0:0:0:
212,224,159598,2,0,L|196:292,1,70,8|2,0:0|0:0,0:0:0:0:
68,92,160098,1,2,0:0:0:0:
68,92,160265,2,0,L|84:160,1,70,8|2,0:0|0:0,0:0:0:0:
68,240,160598,6,0,P|70:272|88:304,1,70,4|0,0:0|0:0,0:0:0:0:
164,280,160932,2,0,P|162:248|144:216,1,70,8|0,0:0|0:0,0:0:0:0:
312,348,161432,2,0,L|384:348,2,70,0|8|0,0:0|0:0|0:0,0:0:0:0:
240,152,162098,1,0,0:0:0:0:
240,152,162265,2,0,P|264:124|296:112,1,70,8|0,0:0|0:0,0:0:0:0:
312,188,162598,38,0,L|328:256,1,70,2|0,0:0|0:0,0:0:0:0:
208,72,162932,2,0,L|192:4,1,70,10|2,0:0|0:0,0:0:0:0:
240,152,163265,1,4,2:0:0:0:
240,152,163932,5,8,0:0:0:0:
248,300,164182,1,8,0:0:0:0:
104,336,164432,1,8,0:0:0:0:
160,264,164598,6,0,B|130:222|130:222|136:168,1,105.000004005432,4|0,0:0|0:0,0:0:0:0:
216,56,165265,2,0,B|246:98|246:98|240:152,1,105.000004005432,8|2,0:0|0:0,0:0:0:0:
288,280,165932,2,0,L|292:336,1,52.5000020027161
356,304,166265,2,0,L|404:324,1,52.5000020027161,0|2,0:0|0:0,0:0:0:0:
408,256,166598,1,8,0:0:0:0:
340,132,166932,1,2,0:0:0:0:
216,200,167265,6,0,L|112:216,1,105.000004005432
184,336,167932,2,0,L|288:320,1,105.000004005432,8|2,0:0|0:0,0:0:0:0:
348,200,168598,2,0,L|380:196,2,26.2500010013581
300,144,168932,2,0,L|248:132,2,52.5000020027161,0|2|8,0:0|0:0|0:0,0:0:0:0:
372,24,169598,1,2,0:0:0:0:
408,160,169932,38,0,B|416:212|416:212|388:260,1,105.000004005432
288,352,170598,2,0,B|250:315|250:315|245:262,1,105.000004005432,8|2,0:0|0:0,0:0:0:0:
240,120,171265,2,0,L|248:64,1,52.5000020027161
180,88,171598,2,0,L|148:44,1,52.5000020027161,0|2,0:0|0:0,0:0:0:0:
112,104,171932,2,0,B|84:148|84:148|88:200,1,105.000004005432,8|2,0:0|0:0,0:0:0:0:
176,312,172598,6,0,L|280:304,1,105.000004005432
344,180,173265,2,0,L|240:188,1,105.000004005432,8|2,0:0|0:0,0:0:0:0:
176,140,173765,6,0,L|128:144,2,35
248,112,174098,1,0,0:0:0:0:
408,252,174432,1,2,0:0:0:0:
408,252,174598,2,0,P|360:312|300:320,1,140,8|2,0:0|0:0,0:0:0:0:
328,160,175265,6,0,L|436:172,1,105.000004005432,4|8,0:0|0:0,0:0:0:0:
324,240,175932,2,0,B|216:228,1,105.000004005432,8|8,0:0|0:0,0:0:0:0:
148,204,176432,6,0,B|88:196,1,52.5000020027161,2|8,0:0|0:0,0:0:0:0:
152,84,176932,2,0,B|208:76,1,52.5000020027161,8|2,0:0|0:0,0:0:0:0:
276,100,177265,2,0,L|380:112,1,105.000004005432,8|10,0:0|0:0,0:0:0:0:
432,228,177932,22,0,P|440:280|416:324,1,105.000004005432,12|8,0:0|0:0,0:0:0:0:
300,276,178598,2,0,P|288:224|312:180,1,105.000004005432,8|8,0:0|0:0,0:0:0:0:
360,236,179099,1,2,0:0:0:0:
300,276,179265,38,0,B|196:288,1,105.000004005432,8|10,0:0|0:0,0:0:0:0:
116,188,179932,2,0,P|160:168|220:168,1,105.000004005432,8|10,0:0|0:0,0:0:0:0:
108,280,180599,22,0,P|56:260|28:220,1,105.000004005432,4|10,1:1|0:0,0:0:0:0:
80,96,181265,1,8,0:0:0:0:
80,96,181599,1,10,0:0:0:0:
212,136,181932,6,0,P|260:156|312:148,1,105.000004005432,8|10,0:0|0:0,0:0:0:0:
404,48,182598,1,8,0:0:0:0:
404,48,182932,1,10,0:0:0:0:
268,80,183265,22,0,P|240:128|244:176,1,105.000004005432,12|10,0:0|0:0,0:0:0:0:
256,344,183932,2,0,P|284:296|280:248,1,105.000004005432,8|10,0:0|0:0,0:0:0:0:
112,268,184598,1,12,0:0:0:0:
112,268,184765,1,0,0:0:0:0:
112,268,184932,1,8,0:0:0:0:
208,52,185265,5,8,0:0:0:0:
256,192,185515,1,8,0:0:0:0:
392,136,185765,1,8,0:0:0:0:
316,100,185932,38,0,P|264:140|192:136,1,140,4|8,0:0|0:0,0:0:0:0:
116,104,186432,2,0,P|56:132|24:196,1,140,2|2,0:0|0:0,0:0:0:0:
44,272,186932,1,8,0:0:0:0:
112,312,187098,1,2,0:0:0:0:
192,296,187265,2,0,P|224:262|228:172,1,140,2|8,0:0|0:0,0:0:0:0:
188,104,187765,2,0,P|238:150|307:157,1,140,2|0,0:0|0:0,0:0:0:0:
380,128,188265,1,10,0:0:0:0:
428,64,188431,1,0,0:0:0:0:
352,56,188598,6,0,L|344:196,1,140,4|8,0:0|0:0,0:0:0:0:
232,352,189265,2,0,L|236:280,1,70
160,216,189598,2,0,L|156:288,1,70,8|0,0:0|0:0,0:0:0:0:
256,204,189931,37,2,0:0:0:0:
428,64,190265,1,8,0:0:0:0:
232,184,190598,1,2,0:0:0:0:
404,44,190931,1,8,0:0:0:0:
320,56,191098,5,8,0:0:0:0:
320,56,191181,1,8,0:0:0:0:
320,56,191265,2,0,P|267:101|200:104,1,140,4|0,0:0|0:0,0:0:0:0:
128,140,191764,1,0,0:0:0:0:
128,60,191932,2,0,P|104:36|68:16,2,70,8|0|2,0:0|0:0|0:0,0:0:0:0:
36,304,192599,2,0,L|-16:304,2,35
108,340,192932,1,0,0:0:0:0:
188,328,193099,1,0,0:0:0:0:
224,256,193266,2,0,L|216:184,1,70,8|0,0:0|0:0,0:0:0:0:
284,120,193598,2,0,L|292:192,1,70,2|0,0:0|0:0,0:0:0:0:
280,296,193932,38,0,P|216:298|156:256,1,140,4|0,0:0|0:0,0:0:0:0:
140,176,194432,1,0,0:0:0:0:
184,108,194599,2,0,L|184:28,2,70,8|0|2,0:0|0:0|0:0,0:0:0:0:
400,288,195266,2,0,L|400:328,2,35
440,220,195599,1,0,0:0:0:0:
368,188,195766,1,0,0:0:0:0:
408,120,195932,5,8,0:0:0:0:
96,244,196266,1,8,0:0:0:0:
320,32,196599,38,0,P|288:100|296:164,1,140,4|8,0:0|0:0,0:0:0:0:
220,200,197099,2,0,P|228:267|196:332,1,140,2|2,0:0|0:0,0:0:0:0:
116,324,197599,1,8,0:0:0:0:
96,244,197765,1,2,0:0:0:0:
140,176,197932,2,0,P|176:136|166:51,1,140,2|8,0:0|0:0,0:0:0:0:
108,104,198432,2,0,L|248:116,1,140,2|0,0:0|0:0,0:0:0:0:
316,76,198932,1,10,0:0:0:0:
344,284,199266,6,0,P|412:296|476:272,1,140,4|8,0:0|0:0,0:0:0:0:
272,80,199932,2,0,L|316:136,1,70
236,160,200266,2,0,P|236:192|216:228,1,70,8|0,0:0|0:0,0:0:0:0:
156,176,200599,37,2,0:0:0:0:
396,172,200932,1,8,0:0:0:0:
200,40,201266,1,2,0:0:0:0:
272,112,201432,2,0,L|276:76,2,35,8|8|8,0:0|0:0|0:0,0:0:0:0:
292,192,201766,5,8,0:0:0:0:
292,192,201849,1,8,0:0:0:0:
292,192,201932,2,0,P|304:256|268:320,1,140,4|0,0:0|0:0,0:0:0:0:
192,344,202433,1,0,0:0:0:0:
112,328,202599,2,0,L|40:328,2,70,8|0|2,0:0|0:0|0:0,0:0:0:0:
372,200,203266,2,0,L|412:200,2,35
292,192,203599,1,0,0:0:0:0:
256,120,203766,1,0,0:0:0:0:
176,112,203932,2,0,L|104:112,1,70,8|0,0:0|0:0,0:0:0:0:
24,120,204265,1,2,0:0:0:0:
168,368,204599,38,0,P|220:332|235:259,1,140,4|0,0:0|0:0,0:0:0:0:
204,188,205099,1,0,0:0:0:0:
176,112,205266,2,0,P|168:80|180:40,1,70,8|0,0:0|0:0,0:0:0:0:
248,80,205599,1,2,0:0:0:0:
96,328,205932,2,0,L|60:328,2,35
168,288,206266,1,0,0:0:0:0:
96,248,206432,1,8,0:0:0:0:
168,368,206598,5,4,0:0:0:0:
356,140,206932,1,8,0:0:0:0:
356,140,207098,1,8,0:0:0:0:
272,60,207266,38,0,P|240:112|252:188,1,140,4|0,0:0|0:0,0:0:0:0:
292,256,207766,1,0,0:0:0:0:
256,328,207932,2,0,P|228:352|197:362,1,70,8|0,0:0|0:0,0:0:0:0:
116,356,208266,1,2,0:0:0:0:
376,256,208599,2,0,L|412:252,2,35
292,256,208933,2,0,L|220:244,1,70
176,180,209266,2,0,L|104:168,1,70,8|0,0:0|0:0,0:0:0:0:
56,108,209599,1,2,0:0:0:0:
344,60,209932,6,0,P|362:137|336:188,1,140,4|0,0:0|0:0,0:0:0:0:
264,232,210432,2,0,L|196:248,1,70,0|8,0:0|0:0,0:0:0:0:
256,312,210765,2,0,L|332:324,1,70,0|2,0:0|0:0,0:0:0:0:
364,112,211265,1,0,0:0:0:0:
364,112,211348,1,0,0:0:0:0:
364,112,211432,1,0,0:0:0:0:
284,100,211598,2,0,L|204:88,1,70
136,80,211932,38,0,L|96:92,3,35,8|8|8|8,0:0|0:0|0:0|0:0,0:0:0:0:
84,116,212265,2,0,L|64:148,3,35,8|8|8|8,0:0|0:0|0:0|0:0,0:0:0:0:
64,176,212598,6,0,B|121:231|192:200,1,140,4|8,0:0|0:0,0:0:0:0:
256,152,213098,1,0,0:0:0:0:
320,200,213265,2,0,B|391:231|448:176,1,140,0|8,0:0|0:0,0:0:0:0:
256,248,213931,2,0,B|256:318,2,70,2|0|8,0:0|0:0|0:0,0:0:0:0:
216,176,214431,1,2,0:0:0:0:
296,176,214598,1,0,0:0:0:0:
120,316,214931,1,8,0:0:0:0:
392,316,215264,38,0,B|400:280|388:244|388:244|376:208|384:176,1,140,4|8,0:0|0:0,0:0:0:0:
448,132,215764,1,0,0:0:0:0:
456,212,215931,2,0,L|316:228,1,140,0|8,0:0|0:0,0:0:0:0:
124,120,216598,2,0,B|52:112,2,70,2|0|8,0:0|0:0|0:0,0:0:0:0:
192,168,217097,1,0,0:0:0:0:
200,92,217264,1,2,0:0:0:0:
276,360,217598,2,0,L|348:352,1,70,8|2,0:0|0:0,0:0:0:0:
416,312,217931,6,0,P|430:242|400:184,1,140,4|8,0:0|0:0,0:0:0:0:
332,228,218431,1,0,0:0:0:0:
272,176,218598,2,0,P|280:116|340:68,1,140,0|8,0:0|0:0,0:0:0:0:
260,256,219265,2,0,B|188:256,1,70,2|0,0:0|0:0,0:0:0:0:
48,212,219598,2,0,B|120:212,1,70,8|2,0:0|0:0,0:0:0:0:
192,176,219931,1,0,0:0:0:0:
16,88,220264,1,8,0:0:0:0:
20,284,220598,38,0,P|72:324|144:320,1,140,4|8,0:0|0:0,0:0:0:0:
196,256,221097,1,0,0:0:0:0:
192,176,221264,2,0,P|182:112|216:48,1,140,0|8,0:0|0:0,0:0:0:0:
364,216,221931,2,0,B|364:288,1,70,2|0,0:0|0:0,0:0:0:0:
288,248,222265,2,0,B|288:176,1,70,8|0,0:0|0:0,0:0:0:0:
356,140,222598,2,0,B|436:148|468:76,1,140,2|8,0:0|0:0,0:0:0:0:
256,192,223265,5,4,2:0:0:0:
256,192,223432,12,0,228598,0:0:0:0:
