osu file format v12

[General]
AudioFilename: 06. Deep sea.mp3
AudioLeadIn: 0
PreviewTime: 22606
Countdown: 0
SampleSet: None
StackLeniency: 0.7
Mode: 0
LetterboxInBreaks: 0
WidescreenStoryboard: 0

[Editor]
Bookmarks: 77440,99382
DistanceSpacing: 0
BeatDivisor: 4
GridSize: 16

[Metadata]
Title:Deep sea
TitleUnicode:Deep sea
Artist:Yousei Teikoku
ArtistUnicode:Yousei Teikoku
Creator:Kitsuneko
Version:WIP
Source:
Tags:
BeatmapID:303611
BeatmapSetID:117929

[Difficulty]
HPDrainRate:7
CircleSize:4
OverallDifficulty:7
ApproachRate:8
SliderMultiplier:1.5
SliderTickRate:1

[Events]
//Background and Video events
0,0,"633911.jpg",0,0
//Break Periods
//Storyboard Layer 0 (Background)
//Storyboard Layer 1 (Fail)
//Storyboard Layer 2 (Pass)
//Storyboard Layer 3 (Foreground)
//Storyboard Sound Samples
//Background Colour Transformations
3,100,163,162,255

[TimingPoints]
640,342.857142857143,4,2,1,50,1,0
11611,-100,4,1,1,50,0,0
11697,-100,4,2,1,50,0,0
12125,-100,4,1,1,50,0,0
12211,-100,4,2,1,50,0,0
12982,-100,4,1,1,50,0,0
13068,-100,4,2,1,50,0,0
13497,-100,4,1,1,50,0,0
13582,-100,4,2,1,50,0,0
14354,-100,4,1,1,50,0,0
14440,-100,4,2,1,50,0,0
14868,-100,4,1,1,50,0,0
14954,-100,4,2,1,50,0,0
15725,-100,4,1,1,50,0,0
15811,-100,4,2,1,50,0,0
16240,-100,4,1,1,50,0,0
16325,-100,4,2,1,50,0,0
17097,-100,4,1,1,50,0,0
17182,-100,4,2,1,50,0,0
17611,-100,4,1,1,50,0,0
17697,-100,4,2,1,50,0,0
18468,-100,4,1,1,50,0,0
18554,-100,4,2,1,50,0,0
18982,-100,4,1,1,50,0,0
19068,-100,4,2,1,50,0,0
19840,-100,4,1,1,50,0,0
19925,-100,4,2,1,50,0,0
20354,-100,4,1,1,50,0,0
20440,-100,4,2,1,50,0,0
21211,-100,4,1,1,50,0,0
21297,-100,4,2,1,50,0,0
21725,-100,4,1,1,50,0,0
21811,-100,4,2,1,50,0,0
22582,-100,4,2,1,60,0,0
22668,-100,4,2,1,50,0,0
23097,-100,4,1,1,50,0,0
23182,-100,4,2,1,50,0,0
23954,-100,4,1,1,50,0,0
24040,-100,4,2,1,50,0,0
24468,-100,4,1,1,50,0,0
24554,-100,4,2,1,50,0,0
25325,-100,4,1,1,50,0,0
25411,-100,4,2,1,50,0,0
25840,-100,4,1,1,50,0,0
25925,-100,4,2,1,50,0,0
26697,-100,4,1,1,50,0,0
26782,-100,4,2,1,50,0,0
27211,-100,4,1,1,50,0,0
27297,-100,4,2,1,50,0,0
28068,-100,4,1,1,50,0,0
28154,-100,4,2,1,50,0,0
28582,-100,4,1,1,50,0,0
28668,-100,4,2,1,50,0,0
29440,-100,4,1,1,50,0,0
29525,-100,4,2,1,50,0,0
29954,-100,4,1,1,50,0,0
30040,-100,4,2,1,50,0,0
30811,-100,4,1,1,50,0,0
30897,-100,4,2,1,50,0,0
31325,-100,4,1,1,50,0,0
31411,-100,4,2,1,50,0,0
32182,-100,4,1,1,50,0,0
32268,-100,4,2,1,50,0,0
32697,-100,4,1,1,50,0,0
33040,-100,4,2,1,60,0,0
33211,-100,4,2,1,60,0,0
33254,-100,4,2,1,40,0,0
33382,-100,4,2,1,60,0,0
33425,-100,4,2,1,40,0,0
33554,-100,4,2,1,60,0,0
34068,-100,4,1,1,60,0,0
34154,-100,4,2,1,60,0,0
34411,-100,4,1,1,60,0,0
34668,-100,4,2,1,60,0,0
34925,-100,4,1,1,60,0,0
35011,-100,4,2,1,60,0,0
35440,-100,4,1,1,60,0,0
35525,-100,4,2,1,60,0,0
35954,-100,4,1,1,60,0,0
36382,-100,4,2,1,60,0,0
36811,-100,4,1,1,60,0,0
36897,-100,4,2,1,60,0,0
37154,-100,4,1,1,60,0,0
37411,-100,4,2,1,60,0,0
37668,-100,4,1,1,60,0,0
37754,-100,4,2,1,60,0,0
38182,-100,4,1,1,60,0,0
38268,-100,4,2,1,60,0,0
38525,-100,4,1,1,60,0,0
38611,-100,4,2,1,60,0,0
38868,-100,4,1,1,60,0,0
39125,-100,4,2,1,60,0,0
39554,-100,4,1,1,60,0,0
39640,-100,4,2,1,60,0,0
39897,-100,4,1,1,60,0,0
40497,-100,4,2,1,60,0,0
40925,-100,4,1,1,60,0,0
41011,-100,4,2,1,60,0,0
41440,-100,4,1,1,60,0,0
41868,-100,4,2,1,60,0,0
42297,-100,4,1,1,60,0,0
42382,-100,4,2,1,60,0,0
42640,-100,4,1,1,60,0,0
42897,-100,4,2,1,60,0,0
43154,-100,4,1,1,60,0,0
43240,-100,4,2,1,60,0,0
43668,-100,4,1,1,60,0,0
43754,-100,4,2,1,60,0,0
44011,-100,4,1,1,60,0,0
44182,-100,4,2,1,60,0,0
44354,-100,4,1,1,60,0,0
44525,-100,4,1,1,75,0,0
44697,-100,4,2,1,60,0,0
45040,-100,4,1,1,60,0,0
45125,-100,4,2,1,60,0,0
45382,-100,4,1,1,60,0,0
45640,-100,4,2,1,60,0,0
45897,-100,4,1,1,60,0,0
45982,-100,4,2,1,60,0,0
46154,-100,4,2,1,60,0,0
46411,-100,4,1,1,60,0,0
46497,-100,4,2,1,60,0,0
46754,-100,4,1,1,60,0,0
47011,-100,4,2,1,60,0,0
47268,-100,4,1,1,60,0,0
47354,-100,4,2,1,60,0,0
47782,-100,4,1,1,60,0,0
47868,-100,4,2,1,60,0,0
48125,-100,4,1,1,60,0,0
48382,-100,4,2,1,60,0,0
48640,-100,4,1,1,60,0,0
48725,-100,4,2,1,60,0,0
49154,-100,4,1,1,60,0,0
49240,-100,4,2,1,60,0,0
49497,-100,4,1,1,60,0,0
49582,-100,4,2,1,60,0,0
49840,-100,4,1,1,60,0,0
50097,-100,4,2,1,60,0,0
50525,-100,4,1,1,60,0,0
50611,-100,4,2,1,60,0,0
50868,-100,4,1,1,60,0,0
51125,-100,4,2,1,60,0,0
51382,-100,4,1,1,60,0,0
51468,-100,4,2,1,60,0,0
51897,-100,4,1,1,60,0,0
51982,-100,4,2,1,60,0,0
52411,-100,4,1,1,60,0,0
52840,-100,4,2,1,60,0,0
53268,-100,4,1,1,60,0,0
53354,-100,4,2,1,60,0,0
53611,-100,4,1,1,60,0,0
53868,-100,4,2,1,60,0,0
54125,-100,4,1,1,60,0,0
54211,-100,4,2,1,60,0,0
54640,-100,4,1,1,60,0,0
54725,-100,4,2,1,60,0,0
54982,-100,4,1,1,60,0,0
55068,-100,4,2,1,60,0,0
55325,-100,4,1,1,60,0,0
55497,-133.333333333333,4,2,1,70,0,0
55668,-133.333333333333,4,2,1,45,0,0
56182,-133.333333333333,4,1,1,45,0,0
56611,-133.333333333333,4,2,1,45,0,0
57211,-133.333333333333,4,1,1,45,0,0
57297,-133.333333333333,4,2,1,45,0,0
57554,-133.333333333333,4,1,1,45,0,0
57811,-133.333333333333,4,2,1,45,0,0
58068,-133.333333333333,4,1,1,45,0,0
58325,-133.333333333333,4,2,1,45,0,0
58754,-133.333333333333,4,1,1,45,0,0
59011,-133.333333333333,4,2,1,45,0,0
59268,-133.333333333333,4,1,1,45,0,0
59354,-133.333333333333,4,2,1,45,0,0
59611,-133.333333333333,4,1,1,45,0,0
59868,-133.333333333333,4,2,1,45,0,0
60125,-133.333333333333,4,1,1,45,0,0
60640,-133.333333333333,4,2,1,45,0,0
60811,-133.333333333333,4,1,1,45,0,0
60982,-100,4,2,1,60,0,0
61497,-100,4,1,1,60,0,0
61582,-100,4,2,1,60,0,0
61840,-100,4,1,1,60,0,0
62097,-100,4,2,1,60,0,0
62354,-100,4,1,1,60,0,0
62440,-100,4,2,1,60,0,0
62868,-100,4,1,1,60,0,0
62954,-100,4,2,1,60,0,0
63382,-100,4,1,1,60,0,0
63811,-100,4,2,1,60,0,0
64240,-100,4,1,1,60,0,0
64325,-100,4,2,1,60,0,0
64582,-100,4,1,1,60,0,0
64840,-100,4,2,1,60,0,0
65097,-100,4,1,1,60,0,0
65182,-100,4,2,1,60,0,0
65611,-100,4,1,1,60,0,0
65697,-100,4,2,1,60,0,0
65954,-100,4,1,1,60,0,0
66040,-100,4,2,1,60,0,0
66297,-100,4,1,1,60,0,0
66554,-100,4,2,1,60,0,0
66982,-100,4,1,1,60,0,0
67582,-100,4,2,1,60,0,0
67840,-100,4,1,1,60,0,0
67925,-100,4,2,1,60,0,0
68354,-100,4,1,1,60,0,0
68440,-100,4,2,1,60,0,0
68868,-100,4,1,1,60,0,0
69297,-100,4,2,1,60,0,0
69725,-100,4,1,1,60,0,0
70668,-100,4,2,1,60,0,0
71097,-100,4,1,1,60,0,0
71525,-100,4,2,1,60,0,0
71782,-100,4,1,1,60,0,0
72040,-100,4,2,1,60,0,0
72468,-100,4,1,1,60,0,0
72554,-100,4,2,1,60,0,0
72811,-100,4,1,1,60,0,0
73068,-100,4,2,1,60,0,0
73325,-100,4,1,1,60,0,0
73411,-100,4,2,1,60,0,0
73840,-100,4,1,1,60,0,0
73925,-100,4,2,1,60,0,0
74354,-100,4,1,1,60,0,0
74782,-100,4,2,1,60,0,0
75211,-100,4,1,1,60,0,0
75297,-100,4,2,1,60,0,0
75554,-100,4,1,1,60,0,0
75811,-100,4,2,1,60,0,0
76068,-100,4,1,1,60,0,0
76154,-100,4,2,1,60,0,0
76582,-100,4,1,1,60,0,0
76668,-100,4,2,1,60,0,0
76925,-100,4,1,1,60,0,0
77011,-100,4,2,1,60,0,0
77268,-100,4,1,1,60,0,0
77354,-100,4,2,1,60,0,0

[Colours]
Combo1 : 84,165,167
Combo2 : 64,187,247
Combo3 : 21,101,221
Combo4 : 182,228,221

[HitObjects]
468,113,11268,6,0,B|495:120,4,18.75
445,107,11525,1,0,0:0:0:0:
421,102,11611,2,0,B|348:136|254:156,1,150,4|2,0:0|0:0,0:0:0:0:
114,162,12125,2,0,B|121:219|141:281,1,112.5
129,293,12468,2,0,B|163:316|198:334,1,75,8|8,0:0|0:0,0:0:0:0:
114,162,12811,1,0,0:0:0:0:
275,270,12982,6,0,B|347:241|428:240,1,150,0|2,0:0|0:0,0:0:0:0:
504,78,13497,2,0,B|432:107|351:108,1,150,0|0,0:0|0:0,0:0:0:0:
256,81,14011,1,8,0:0:0:0:
256,81,14182,1,8,0:0:0:0:
366,216,14354,6,0,B|407:217|454:204,1,75
275,270,14697,1,2,0:0:0:0:
221,167,14868,2,0,B|163:165|104:181,1,112.5
91,194,15211,1,8,0:0:0:0:
51,343,15382,2,0,B|88:342|128:331,1,75,8|0,0:0|0:0,0:0:0:0:
231,255,15725,5,0,0:0:0:0:
45,195,15897,1,0,0:0:0:0:
152,166,16068,1,2,0:0:0:0:
22,303,16240,2,0,B|80:282|148:291,1,112.5
157,298,16582,1,8,0:0:0:0:
331,250,16754,2,0,B|291:247|257:235,1,75,0|8,0:0|0:0,0:0:0:0:
225,79,17097,6,0,B|154:101|79:114,1,150,0|2,0:0|0:0,0:0:0:0:
301,150,17611,1,0,0:0:0:0:
322,139,17954,2,0,B|362:143|402:153,1,75,8|8,0:0|0:0,0:0:0:0:
490,102,18297,1,0,0:0:0:0:
430,252,18468,6,0,B|426:292|416:332,1,75,0|0,0:0|0:0,0:0:0:0:
412,142,18811,1,2,0:0:0:0:
301,76,18982,1,0,0:0:0:0:
279,86,19068,2,0,B|269:139|259:212,1,112.5,0|0,0:0|0:0,0:0:0:0:
314,288,19497,1,8,0:0:0:0:
314,288,19668,1,8,0:0:0:0:
219,183,19840,6,0,B|148:201|68:204,1,150,0|2,0:0|0:0,0:0:0:0:
83,368,20354,2,0,B|160:365|231:347,1,150,0|8,0:0|0:0,0:0:0:0:
83,368,20868,1,8,0:0:0:0:
59,112,21211,5,0,0:0:0:0:
196,171,21554,1,2,0:0:0:0:
196,171,21725,2,0,B|205:251|231:325,1,150,0|8,0:0|0:0,0:0:0:0:
336,332,22240,1,0,0:0:0:0:
421,243,22582,6,0,B|365:234|314:206,1,112.5,4|2,0:0|0:0,0:0:0:0:
301,189,22925,2,0,B|222:205,1,75
199,338,23268,1,0,0:0:0:0:
199,338,23440,2,0,B|159:334|129:314,1,75,8|8,0:0|0:0,0:0:0:0:
164,66,23954,5,0,0:0:0:0:
57,210,24125,1,0,0:0:0:0:
221,245,24297,1,2,0:0:0:0:
152,168,24468,2,0,B|226:153|297:120,1,150
278,302,24982,2,0,B|313:274|336:242,1,75,8|8,0:0|0:0,0:0:0:0:
373,48,25325,6,0,B|433:58|484:85,1,112.5
493,102,25668,1,2,0:0:0:0:
438,193,25840,2,0,B|452:274|490:340,1,150,0|8,0:0|0:0,0:0:0:0:
438,193,26354,1,8,0:0:0:0:
194,326,26697,6,0,B|179:244|141:178,1,150,0|2,0:0|0:0,0:0:0:0:
37,141,27211,2,0,P|16:138|-11:140,2,37.5
53,246,27554,1,8,0:0:0:0:
115,70,27725,2,0,B|154:53|197:46,1,75,0|8,0:0|0:0,0:0:0:0:
299,80,28068,5,0,0:0:0:0:
263,220,28240,2,0,B|273:256|286:292,1,75,0|2,0:0|0:0,0:0:0:0:
299,80,28582,1,0,0:0:0:0:
168,295,28925,1,8,0:0:0:0:
168,295,29097,1,8,0:0:0:0:
407,216,29440,5,0,0:0:0:0:
482,150,29611,1,0,0:0:0:0:
432,63,29782,1,2,0:0:0:0:
385,203,29954,2,0,B|313:204|236:183,1,150
115,90,30468,1,8,0:0:0:0:
17,233,30640,1,8,0:0:0:0:
99,111,30811,6,0,B|103:192|128:263,1,150,0|2,0:0|0:0,0:0:0:0:
329,334,31325,2,0,B|325:253|300:182,1,150,0|8,0:0|0:0,0:0:0:0:
329,334,31840,1,8,0:0:0:0:
197,277,32011,1,0,0:0:0:0:
287,170,32182,6,0,B|364:188|435:190,1,150,0|2,0:0|0:0,0:0:0:0:
266,160,32697,1,0,0:0:0:0:
23,276,33040,5,8,0:0:0:0:
103,215,33211,2,0,B|134:210,1,18.75,8|0,0:0|0:0,0:0:0:0:
9,152,33382,2,0,B|42:159,1,18.75,8|0,0:0|0:0,0:0:0:0:
109,100,33554,6,0,B|186:97|254:67,1,150,4|2,0:0|0:0,0:0:0:0:
382,88,34068,1,0,0:0:0:0:
382,88,34154,1,0,0:0:0:0:
382,88,34240,1,0,0:0:0:0:
276,71,34411,1,8,0:2:0:0:
245,172,34582,2,0,B|210:186|167:192,1,75,8|0,0:2|0:0,0:0:0:0:
138,337,34925,6,0,B|215:334|283:304,1,150,0|2,0:0|0:0,0:0:0:0:
210,205,35440,1,0,0:0:0:0:
235,211,35525,2,0,B|295:201|345:177,1,112.5
453,236,35954,1,8,0:2:0:0:
453,236,36125,1,8,0:2:0:0:
282,234,36297,6,0,B|211:200|136:192,1,150,0|2,0:0|0:0,0:0:0:0:
96,62,36811,2,0,B|62:82|22:93,1,75
211,78,37154,1,8,0:2:0:0:
211,78,37325,1,8,0:2:0:0:
137,192,37497,5,0,0:0:0:0:
137,192,37582,1,0,0:0:0:0:
137,192,37668,2,0,B|208:226|283:234,1,150,0|2,0:0|0:0,0:0:0:0:
351,122,38182,1,0,0:0:0:0:
362,102,38268,2,0,B|422:82|482:81,1,112.5,0|8,0:0|0:2,0:0:0:0:
415,260,38697,2,0,B|451:246|491:247,1,75,0|8,0:0|0:2,0:0:0:0:
299,232,39040,6,0,B|263:246|223:245,1,75
124,175,39382,1,2,0:0:0:0:
142,357,39554,2,0,B|219:364|293:343,1,150,0|8,0:0|0:2,0:0:0:0:
142,357,40068,1,8,0:2:0:0:
347,59,40411,6,0,B|354:101|365:132,1,75
496,182,40754,1,2,0:0:0:0:
383,260,40925,1,0,0:0:0:0:
359,254,41011,2,0,B|310:281|252:292,1,112.5,0|0,0:0|0:0,0:0:0:0:
148,265,41440,1,8,0:2:0:0:
274,300,41611,1,8,0:2:0:0:
124,259,41782,5,0,0:0:0:0:
200,171,41954,2,0,B|232:165|271:148,1,75,0|2,0:0|0:0,0:0:0:0:
347,60,42297,1,0,0:0:0:0:
59,118,42554,1,0,0:0:0:0:
83,114,42640,1,8,0:2:0:0:
190,91,42811,2,0,B|176:132|172:171,1,75,8|0,0:2|0:0,0:0:0:0:
94,258,43154,6,0,B|100:304|115:343,1,75
172,163,43497,1,2,0:0:0:0:
262,230,43668,2,0,B|316:253|371:259,1,112.5
386,278,44011,2,0,B|470:258,1,75,8|0,0:2|0:0,0:0:0:0:
497,159,44354,1,8,0:2:0:0:
453,63,44525,5,0,0:0:0:0:
325,137,44697,1,0,0:0:0:0:
473,153,44868,1,2,0:0:0:0:
356,54,45040,1,0,0:0:0:0:
396,200,45211,1,0,0:0:0:0:
438,81,45382,5,8,0:2:0:0:
300,125,45554,1,8,0:2:0:0:
404,224,45725,2,0,L|388:307,1,75
486,348,46068,5,0,0:0:0:0:
433,206,46240,1,2,0:0:0:0:
322,314,46411,1,0,0:0:0:0:
238,232,46582,5,0,0:0:0:0:
350,264,46754,1,8,0:2:0:0:
423,173,46925,2,0,B|451:151|491:142,2,75,8|0|0,0:2|0:0|0:0,0:0:0:0:
202,46,47440,5,0,0:0:0:0:
313,99,47611,2,0,B|346:110|387:104,2,75,2|0|0,0:0|0:0|0:0,0:0:0:0:
181,68,48125,1,8,0:2:0:0:
211,192,48297,2,0,B|241:175|282:172,1,75,8|0,0:2|0:0,0:0:0:0:
83,182,48640,1,0,0:0:0:0:
152,82,48811,5,0,0:0:0:0:
94,267,48982,2,0,B|64:284|23:287,1,75,2|0,0:0|0:0,0:0:0:0:
52,90,49325,2,0,B|82:73|123:70,1,75,0|8,0:0|0:2,0:0:0:0:
284,211,49668,2,0,B|249:209|212:191,2,75,0|8|0,0:0|0:2|0:0,0:0:0:0:
348,56,50182,5,0,0:0:0:0:
348,56,50268,1,0,0:0:0:0:
348,56,50354,2,0,P|384:38|429:33,1,75,2|0,0:0|0:0,0:0:0:0:
436,195,50697,2,0,B|473:211|508:208,2,75,0|8|8,0:0|0:2|0:2,0:0:0:0:
343,99,51211,1,0,0:0:0:0:
211,147,51382,6,0,B|174:131|139:134,2,75,0|0|2,0:0|0:0|0:0,0:0:0:0:
184,320,51897,2,0,B|270:306|270:306|296:285,1,112.5,0|0,0:0|0:0,0:0:0:0:
321,297,52240,1,0,0:0:0:0:
133,268,52411,1,8,0:2:0:0:
52,323,52582,1,8,0:2:0:0:
45,209,52754,5,0,0:0:0:0:
30,60,52925,1,0,0:0:0:0:
101,128,53097,5,2,0:0:0:0:
260,44,53268,1,0,0:0:0:0:
226,134,53440,5,0,0:0:0:0:
261,299,53611,1,8,0:2:0:0:
329,227,53782,5,8,0:2:0:0:
511,251,53954,1,0,0:0:0:0:
461,162,54125,5,0,0:0:0:0:
381,316,54297,1,0,0:0:0:0:
329,227,54468,5,2,0:0:0:0:
358,86,54640,1,0,0:0:0:0:
183,157,54811,5,0,0:0:0:0:
221,265,54982,1,8,0:2:0:0:
329,227,55154,1,0,0:0:0:0:
291,119,55325,1,8,0:2:0:0:
256,192,55497,5,4,0:2:0:0:
109,345,56011,1,0,0:0:0:0:
109,345,56182,2,0,P|112:294|101:229,1,112.500004291535,8|0,0:2|0:0,0:0:0:0:
83,57,57040,2,0,L|29:38,1,56.2500021457673,0|0,0:0|0:0,0:0:0:0:
127,188,57554,2,0,L|146:132,1,56.2500021457673,8|0,0:2|0:0,0:0:0:0:
224,126,57897,2,0,L|243:70,1,56.2500021457673,0|0,0:0|0:0,0:0:0:0:
318,49,58240,6,0,P|348:38|386:36,1,56.2500021457673
399,254,58582,2,0,P|410:284|412:322,1,56.2500021457673,0|0,0:0|0:0,0:0:0:0:
194,335,58925,2,0,P|164:346|126:348,1,56.2500021457673,8|0,0:2|0:0,0:0:0:0:
113,130,59268,2,0,P|102:100|100:62,1,56.2500021457673,0|0,0:0|0:0,0:0:0:0:
274,84,59611,6,0,P|296:61|330:43,1,56.2500021457673
364,210,59954,2,0,P|386:232|404:266,1,56.2500021457673,0|0,0:2|0:0,0:0:0:0:
238,300,60297,2,0,P|215:322|181:340,1,56.2500021457673,8|0,0:2|0:0,0:0:0:0:
148,174,60640,2,0,P|125:151|107:117,1,56.2500021457673,0|0,0:0|0:0,0:0:0:0:
140,28,60982,6,0,P|205:53|286:61,1,150,4|2,0:0|0:0,0:0:0:0:
397,39,61497,1,0,0:0:0:0:
397,39,61582,1,0,0:0:0:0:
397,39,61668,1,0,0:0:0:0:
512,114,61840,1,8,0:2:0:0:
379,58,62011,2,0,P|366:95|365:146,1,75,8|0,0:2|0:0,0:0:0:0:
484,282,62354,6,0,P|504:212|497:129,1,150,0|2,0:0|0:0,0:0:0:0:
348,65,62868,2,0,P|328:135|335:218,1,150,0|0,0:0|0:0,0:0:0:0:
457,295,63382,1,8,0:2:0:0:
289,354,63554,1,8,0:2:0:0:
217,287,63725,5,0,0:0:0:0:
232,109,63897,1,0,0:0:0:0:
164,175,64068,5,2,0:0:0:0:
14,210,64240,1,0,0:0:0:0:
42,120,64411,5,0,0:0:0:0:
114,283,64582,1,8,0:2:0:0:
7,232,64754,5,8,0:2:0:0:
118,307,64925,1,0,0:0:0:0:
160,153,65097,5,0,0:0:0:0:
217,287,65268,1,0,0:0:0:0:
112,259,65440,5,2,0:0:0:0:
239,283,65611,1,0,0:0:0:0:
295,97,65782,5,0,0:0:0:0:
161,153,65954,1,8,0:2:0:0:
217,287,66125,1,0,0:0:0:0:
351,231,66297,1,8,0:2:0:0:
256,191,66468,6,0,L|177:202,2,75,4|0|2,0:0|0:0|0:0,0:0:0:0:
351,231,66982,2,0,L|509:209,1,150,0|8,0:0|0:2,0:0:0:0:
499,210,67497,1,8,0:2:0:0:
397,41,67840,6,0,L|476:52,2,75,0|0|2,0:0|0:0|0:0,0:0:0:0:
302,81,68354,2,0,L|144:59,1,150
51,91,68869,1,8,0:2:0:0:
51,91,69040,1,8,0:2:0:0:
5,216,69211,6,0,P|72:196|154:197,1,150,0|2,0:0|0:0,0:0:0:0:
259,251,69725,2,0,P|333:252|405:231,1,150,0|8,0:0|0:2,0:0:0:0:
490,161,70240,1,8,0:2:0:0:
414,267,70582,6,0,P|347:287|265:286,1,150,0|2,0:0|0:0,0:0:0:0:
225,85,71096,2,0,P|299:86|371:65,1,150,0|8,0:0|0:2,0:0:0:0:
490,161,71611,2,0,P|452:153|416:151,1,75,0|8,0:0|0:2,0:0:0:0:
318,226,71954,5,0,0:0:0:0:
215,159,72125,2,0,P|223:121|225:85,1,75,0|2,0:0|0:2,0:0:0:0:
114,38,72468,1,0,0:0:0:0:
38,262,72811,1,8,0:2:0:0:
38,262,72982,1,8,0:2:0:0:
257,344,73325,6,0,P|328:322|408:329,1,150,0|2,0:0|0:0,0:0:0:0:
405,189,73840,2,0,P|334:211|254:204,1,150,0|0,0:0|0:0,0:0:0:0:
177,270,74354,1,8,0:2:0:0:
141,133,74525,1,8,0:2:0:0:
54,189,74697,6,0,L|39:271,2,75,0|0|2,0:0|0:0|0:0,0:0:0:0:
77,50,75211,1,0,0:0:0:0:
259,205,75554,1,8,0:2:0:0:
259,205,75725,2,0,P|298:193|349:191,1,75,8|0,0:2|0:0,0:0:0:0:
442,206,76068,6,0,L|491:213,3,37.5
451,129,76411,2,0,L|402:136,1,37.5,2|0,0:0|0:0,0:0:0:0:
448,54,76582,2,0,L|497:61,3,37.5
375,35,76925,6,0,L|326:42,1,37.5,8|0,0:2|0:0,0:0:0:0:
292,101,77097,2,0,L|243:90,1,37.5,0|0,0:0|0:0,0:0:0:0:
167,42,77268,2,0,L|205:37,1,37.5,8|0,0:2|0:0,0:0:0:0:
