osu file format v12

[General]
AudioFilename: Deep Sea.mp3
AudioLeadIn: 0
PreviewTime: 54933
Countdown: 0
SampleSet: Soft
StackLeniency: 0.7
Mode: 0
LetterboxInBreaks: 0
WidescreenStoryboard: 1

[Editor]
Bookmarks: 11031,22002,32974,43945,54917,65888,76860
DistanceSpacing: 1
BeatDivisor: 4
GridSize: 4

[Metadata]
Title:Deep Sea
TitleUnicode:Deep Sea
Artist:Yousei Teikoku
ArtistUnicode:妖精帝國
Creator:Nemis
Version:Normal
Source:
Tags:-kevincela- kevincela ocean water blue stigma
BeatmapID:286004
BeatmapSetID:109554

[Difficulty]
HPDrainRate:4
CircleSize:3
OverallDifficulty:4
ApproachRate:5
SliderMultiplier:1
SliderTickRate:1

[Events]
//Background and Video events
0,0,"Deep Sea.png",0,0
//Break Periods
//Storyboard Layer 0 (Background)
//Storyboard Layer 1 (Fail)
//Storyboard Layer 2 (Pass)
//Storyboard Layer 3 (Foreground)
//Storyboard Sound Samples
//Background Colour Transformations
3,100,0,0,0

[TimingPoints]
60,342.857142857143,4,2,1,100,1,0
10688,-133.333333333333,4,2,1,65,0,0
11031,-100,4,2,1,50,0,0
43945,-100,4,2,1,60,0,0
54917,-133.333333333333,4,2,1,50,0,1
60402,-100,4,2,1,60,0,1
65888,-100,4,2,1,50,0,0
75488,-100,4,2,1,55,0,0
75831,-100,4,2,1,60,0,0
76174,-100,4,2,1,65,0,0
76517,-100,4,2,1,70,0,0
76774,-100,4,2,1,40,0,0

[Colours]
Combo1 : 249,128,131
Combo2 : 41,239,175
Combo3 : 252,120,101
Combo4 : 41,235,216
SliderBorder : 255,255,255

[HitObjects]
268,88,10688,1,0,0:0:0:0:
268,88,11031,2,0,L|168:80,1,100,4|0,3:2|0:0,0:0:0:0:
68,68,11717,2,0,P|44:136|76:260,1,200,2|0,0:0|3:2,0:0:0:0:
140,332,12745,1,0,0:0:0:0:
176,240,13088,2,0,L|276:232,1,100,2|0,0:0|0:0,0:0:0:0:
320,324,13774,6,0,L|420:332,1,100,0|0,3:2|0:0,0:0:0:0:
480,252,14460,2,0,P|496:180|460:60,1,200,2|0,0:0|3:2,0:0:0:0:
364,32,15488,1,0,0:0:0:0:
284,92,15831,2,0,L|184:88,1,100,2|0,0:0|0:0,0:0:0:0:
84,80,16517,6,0,P|56:172|88:272,1,200,0|2,3:2|0:0,0:0:0:0:
152,344,17545,2,0,L|252:340,1,100,0|0,0:0|3:2,0:0:0:0:
344,300,18231,2,0,L|444:304,2,100,0|2|0,0:0|0:0|0:0,0:0:0:0:
260,244,19260,6,0,P|236:168|260:44,1,200,0|2,3:2|0:0,0:0:0:0:
352,16,20288,2,0,L|452:12,2,100,0|0|0,0:0|3:0|0:0,0:0:0:0:
332,116,21317,2,0,L|432:112,2,100,2|0|4,0:0|2:2|3:2,0:0:0:0:
256,51,22345,6,0,L|140:44,1,100,0|2,0:0|0:0,0:0:0:0:
56,44,23031,1,0,0:0:0:0:
16,132,23374,2,0,P|8:180|24:244,1,100,0|0,3:2|0:0,0:0:0:0:
76,312,24060,1,2,0:0:0:0:
120,224,24402,1,0,0:0:0:0:
176,308,24745,6,0,L|380:300,1,200,0|2,3:2|0:0,0:0:0:0:
464,256,25774,1,0,0:0:0:0:
380,200,26117,2,0,L|388:96,1,100,0|0,3:2|0:0,0:0:0:0:
332,16,26802,1,2,0:0:0:0:
292,108,27145,1,0,0:0:0:0:
232,28,27488,6,0,P|136:48|36:24,1,200,0|2,3:2|0:0,0:0:0:0:
8,120,28517,1,0,0:0:0:0:
104,144,28860,2,0,L|112:248,1,100,0|0,3:2|0:0,0:0:0:0:
176,320,29545,1,2,0:0:0:0:
212,228,29888,1,0,0:0:0:0:
272,308,30231,6,0,L|472:292,1,200,0|2,3:2|0:0,0:0:0:0:
504,196,31260,2,0,L|400:184,1,100,0|0,0:0|3:2,0:0:0:0:
368,92,31945,1,0,0:0:0:0:
276,132,32288,2,0,L|176:140,1,100,2|0,0:0|0:0,0:0:0:0:
80,112,32974,6,0,P|60:200|88:312,1,200,4|2,3:2|0:0,0:0:0:0:
156,376,34002,1,0,0:0:0:0:
188,280,34345,2,0,L|288:268,1,100,0|0,3:2|0:0,0:0:0:0:
372,216,35031,2,0,P|388:272|372:324,1,100,2|0,0:0|0:0,0:0:0:0:
287,268,35717,6,0,P|272:216|368:112,1,200,0|2,3:2|0:0,0:0:0:0:
448,156,36745,1,0,0:0:0:0:
444,56,37088,1,0,3:2:0:0:
352,12,37431,2,0,L|248:24,1,100,0|2,0:0|0:0,0:0:0:0:
168,76,38117,1,0,0:0:0:0:
72,48,38460,6,0,P|36:152|64:240,1,200,0|2,3:2|0:0,0:0:0:0:
128,312,39488,2,0,L|232:304,1,100,0|0,0:0|3:2,0:0:0:0:
320,268,40174,2,0,L|424:276,2,100,0|2|0,0:0|0:0|0:0,0:0:0:0:
372,188,41202,6,0,P|396:112|348:8,1,200,0|2,3:2|0:0,0:0:0:0:
268,68,42231,1,0,0:0:0:0:
176,28,42574,2,0,L|72:24,1,100,0|0,3:2|0:0,0:0:0:0:
0,88,43260,1,2,0:0:0:0:
96,116,43602,1,0,0:0:0:0:
24,184,43945,6,0,P|12:280|52:376,1,200,6|2,3:2|0:0,0:0:0:0:
148,360,44974,2,0,L|248:348,1,100,0|2,0:0|3:2,0:0:0:0:
272,252,45660,1,0,0:0:0:0:
368,284,46002,2,0,L|468:296,1,100,2|0,0:0|0:0,0:0:0:0:
504,204,46688,6,0,P|520:128|476:16,1,200,2|2,3:2|0:0,0:0:0:0:
404,88,47717,1,0,0:0:0:0:
304,72,48060,2,0,L|204:64,1,100,2|0,3:2|0:0,0:0:0:0:
136,136,48745,2,0,P|124:196|140:260,1,100,2|0,0:0|0:0,0:0:0:0:
172,324,49431,6,0,L|372:312,1,200,2|2,3:2|0:0,0:0:0:0:
452,252,50460,1,0,0:0:0:0:
360,216,50802,1,2,3:2:0:0:
436,152,51145,2,0,L|444:52,2,100,0|2|0,0:0|0:0|0:0,0:0:0:0:
360,216,52174,6,0,P|276:192|160:192,1,200,2|2,3:2|0:0,0:0:0:0:
80,140,53202,2,0,L|64:40,2,100,0|2|0,0:0|3:2|0:0,0:0:0:0:
164,192,54231,1,2,0:0:0:0:
76,236,54574,1,0,0:0:0:0:
160,288,54917,6,0,L|312:296,1,150.000005722046,4|0,0:0|3:0,0:0:0:0:
404,272,55945,1,0,0:0:0:0:
336,204,56288,1,0,0:0:0:0:
432,180,56631,2,0,L|440:104,1,75.0000028610231,0|0,0:0|3:0,0:0:0:0:
452,8,57317,1,0,0:0:0:0:
360,44,57660,6,0,P|260:52|188:28,1,150.000005722046,0|0,0:0|3:0,0:0:0:0:
144,108,58688,2,0,P|120:100|40:112,1,75.0000028610231
1,172,59374,1,0,0:0:0:0:
96,200,59717,1,0,3:0:0:0:
32,276,60060,1,0,0:0:0:0:
132,296,60402,6,0,L|332:288,1,200,6|2,3:2|0:0,0:0:0:0:
428,316,61431,1,0,0:0:0:0:
404,220,61774,2,0,L|416:120,1,100,2|0,3:2|0:0,0:0:0:0:
320,92,62460,2,0,L|308:192,1,100,2|0,0:0|0:0,0:0:0:0:
212,164,63145,6,0,L|12:180,1,200,2|2,3:2|0:0,0:0:0:0:
0,280,64174,1,0,0:0:0:0:
100,296,64517,2,0,L|200:312,1,100,2|0,3:2|0:0,0:0:0:0:
276,248,65202,2,0,L|376:232,1,100,2|0,0:0|0:0,0:0:0:0:
464,280,65888,6,0,P|488:184|464:88,1,200,4|2,3:2|0:0,0:0:0:0:
400,12,66917,1,0,0:0:0:0:
364,104,67260,2,0,L|260:120,1,100,0|0,3:2|0:0,0:0:0:0:
176,72,67945,2,0,L|72:56,1,100,2|0,0:0|0:0,0:0:0:0:
44,152,68631,6,0,P|28:228|68:344,1,200,0|2,3:2|0:0,0:0:0:0:
160,372,69660,1,0,0:0:0:0:
236,308,70002,1,0,3:2:0:0:
236,308,70345,2,0,L|336:320,2,100,0|2|0,0:0|0:0|0:0,0:0:0:0:
220,208,71374,6,0,L|420:232,1,200,0|2,3:2|0:0,0:0:0:0:
484,156,72402,1,0,0:0:0:0:
424,76,72745,2,0,L|324:88,1,100,0|0,3:2|0:0,0:0:0:0:
228,112,73431,1,2,0:0:0:0:
148,52,73774,1,0,0:0:0:0:
80,124,74117,6,0,P|60:224|104:320,1,200,0|2,3:2|0:0,0:0:0:0:
192,336,75145,1,0,0:0:0:0:
256,192,75488,12,0,76774,0:0:0:0:
