osu file format v7

[General]
AudioFilename: Dare so Ka no Gekka.mp3
AudioLeadIn: 0
PreviewTime: 54177
Countdown: 1
SampleSet: Soft
StackLeniency: 0.7
Mode: 0
LetterboxInBreaks: 1

[Editor]
DistanceSpacing: 1.20000004768372
BeatDivisor: 8
GridSize: 8

[Metadata]
Title:Dare so Ka no Gekka (TV Size)
Artist:Yousei Teikoku
Creator:NatsumeRin
Version:Insane
Source:Katana Gatari
Tags:Nisio Isin uranuss8600 climbb65588

[Difficulty]
HPDrainRate:6
CircleSize:5
OverallDifficulty:8
SliderMultiplier:1.5
SliderTickRate:0.5

[Events]
//Background and Video events
0,0,"KatanaGatari 01.jpg"
//Break Periods
//Storyboard Layer 0 (Background)
//Storyboard Layer 1 (Fail)
//Storyboard Layer 2 (Pass)
//Storyboard Layer 3 (Foreground)
//Storyboard Sound Samples
//Background Colour Transformations
3,100,163,162,255

[TimingPoints]
910,705.882352941176,4,2,0,49,1,0
3645,-200,4,2,0,33,0,0
4351,-200,4,2,0,16,0,0
4748,705.882352941176,4,2,0,31,1,0
5012,-200,4,2,0,38,0,0
5718,-200,4,2,0,13,0,0
6175,705.882352941176,4,2,0,43,1,0
6439,-200,4,2,0,41,0,0
7145,-200,4,2,0,10,0,0
7498,-200,4,2,0,37,0,0
8635,705.882352941176,4,2,0,50,1,0
9715,705.882352941176,4,2,0,50,1,0
12356,645.161290322581,4,2,0,47,1,0
12882,319.58064516129,4,2,0,46,1,0
13621,309.4,4,2,0,46,1,0
14311,325.155614973262,4,2,0,46,1,0
15886,-100,4,2,0,0,0,0
16413,352.941176470588,4,2,1,90,1,0
17823,-100,4,1,1,38,0,0
29118,-100,4,1,1,59,0,0
30530,-100,4,2,1,76,0,0
31854,-100,4,2,1,48,0,0
32030,-100,4,2,1,76,0,0
37148,-100,4,2,1,16,0,0
37324,-100,4,2,1,75,0,0
54530,-100,4,2,1,75,0,1
67148,-100,4,2,1,60,0,1
67324,-100,4,2,1,75,0,1
68560,-100,4,2,1,60,0,1
68736,-100,4,2,1,75,0,1
77118,-100,4,1,1,37,0,0
82765,-100,4,2,1,60,0,0
86912,-100,4,2,1,0,0,0

[Colours]
Combo1 : 233,233,188
Combo2 : 240,0,0
Combo3 : 145,9,236

[HitObjects]
416,96,3027,1,0
376,72,3380,1,0
336,64,3733,2,0,B|312:48|272:72|256:56|256:56,1,75,2|0
224,56,4748,1,0
200,56,4924,1,0
176,56,5100,2,0,B|128:56|104:96|104:96,1,75
80,120,6175,5,0
72,144,6351,1,0
72,168,6527,2,0,B|48:208|96:224|64:248|64:248,1,75,2|0
80,288,7586,2,0,B|96:304|80:320|80:320,2,18.75
432,96,8635,1,0
160,72,9715,5,2
128,104,9891,1,2
112,144,10067,1,2
104,192,10244,2,0,B|88:224|112:248|112:248,1,37.5
112,272,10597,1,2
144,304,10773,6,0,B|168:328|208:320|208:320,1,56.25,2|2
280,312,11303,1,2
320,304,11479,1,2
360,288,11656,1,0
400,264,11832,1,2
408,80,12356,6,0,B|440:88|448:56|448:56,2,37.5,2|2|2
341,87,12882,1,2
248,48,13161,1,0
160,64,13401,1,2
112,128,13621,5,2
160,216,13853,1,0
120,296,14085,1,0
200,272,14311,6,0,B|248:308|317:280|321:292|321:292,2,112.5,0|0|0
256,192,15042,12,2,16099
112,128,16413,5,0
160,200,16589,1,0
208,128,16765,1,0
256,200,16942,1,0
336,152,17118,1,0
336,152,17207,1,0
336,152,17295,1,0
336,152,17383,1,0
336,152,17471,1,0
336,152,17560,1,0
336,152,17648,1,0
336,152,17736,1,0
336,152,17824,6,0,L|416:168|416:168,1,75,8|0
360,224,18177,2,0,L|416:304|416:304,1,75
328,296,18530,1,8
256,312,18707,1,0
184,304,18883,2,0,L|80:288|80:288,1,75
80,224,19236,6,0,L|72:144|72:144,1,75,8|0
136,192,19589,2,0,L|176:112|176:112,1,75,0|0
208,56,19942,1,0
248,120,20118,1,8
288,56,20295,1,0
328,120,20471,1,8
368,56,20648,6,0,L|464:64|464:64,1,75,8|0
408,128,21001,1,0
344,160,21177,1,0
280,200,21354,2,0,L|192:144|192:144,1,75,8|0
152,120,21707,1,0
104,176,21883,1,0
144,240,22060,6,0,L|176:336|176:336,1,75,8|0
240,280,22413,2,0,L|336:320|336:320,1,75
376,272,22765,2,0,L|448:200|448:200,1,75,0|8
352,216,23118,2,0,L|416:152|416:152,1,75,0|8
328,160,23471,5,8
368,96,23648,1,0
296,96,23824,2,0,L|208:56|208:56,1,75
152,64,24177,1,8
112,128,24354,2,0,L|88:208|88:208,1,75
128,264,24707,1,0
192,304,24883,6,0,L|272:336|272:336,1,75,8|0
288,264,25236,2,0,L|384:248|384:248,1,75
400,192,25589,2,0,L|432:152|432:152,2,37.5,0|0|8
328,160,25942,1,0
296,144,26030,1,0
256,136,26118,1,8
184,120,26295,5,8
112,144,26471,1,0
184,176,26648,1,0
112,200,26824,1,0
184,224,27001,1,8
112,256,27177,1,0
184,280,27354,2,0,L|272:304|272:304,1,75
328,320,27707,6,0,L|432:288|432:288,1,75,8|0
448,240,28060,2,0,L|424:152|424:152,1,75
416,96,28413,1,0
416,96,28589,1,8
344,72,28765,1,8
344,72,28942,1,8
344,72,29118,5,0
232,40,29295,1,0
120,72,29471,1,0
88,176,29648,1,0
144,272,29824,1,0
256,280,30001,1,0
360,232,30177,1,0
368,120,30354,1,0
368,120,30530,6,0,L|400:96|400:96,8,37.5
232,64,31589,5,0
152,80,31765,1,0
80,120,31942,2,0,B|64:200|72:256|176:304|176:304,1,225,4|0
173,302,32648,1,2
216,144,33001,5,0
280,200,33177,1,0
296,120,33354,2,0,B|352:64|448:88|432:224|432:224,1,225,0|2
432,215,34060,1,2
296,312,34413,5,0
256,240,34589,1,0
216,312,34765,2,0,B|104:192|192:104|192:104,1,225
256,56,35471,1,0
256,328,35824,5,2
256,56,36177,1,2
400,136,36530,1,0
456,192,36707,1,0
400,248,36883,1,2
56,192,37236,1,4
56,192,37589,6,0,B|24:144|32:80|128:72|128:72,1,150,2|0
184,56,38118,1,0
264,56,38295,1,0
344,80,38471,1,0
384,96,38560,1,0
408,128,38648,1,0
424,208,38824,1,0
392,288,39001,6,0,B|328:336|240:312|240:312,1,150,2|0
168,296,39530,1,0
96,256,39707,2,0,B|56:264|56:264,2,37.5
88,176,40060,1,2
88,176,40148,1,2
88,176,40236,1,0
88,176,40324,1,0
88,176,40413,6,0,B|160:176|240:120|256:64|256:48|256:48,1,225,0|0
336,48,41118,1,0
392,200,41471,1,2
256,296,41824,5,2
152,192,42001,1,0
256,88,42177,1,0
360,192,42354,1,0
256,296,42530,1,2
112,96,43236,5,2
400,176,43589,1,2
120,280,43942,1,2
288,32,44295,1,0
288,336,44648,1,2
112,96,45001,2,0,B|64:104|64:168|64:168,2,75,2|2|0
400,72,46060,5,2
104,96,46413,1,2
400,72,46765,1,2
152,240,47118,1,0
400,72,47471,1,2
264,344,47824,2,0,B|312:352|360:312|360:312,1,75,0|2
400,280,48177,1,0
112,192,48883,6,0,B|72:184|64:128|64:128,1,75,2|0
96,64,49236,1,0
160,112,49413,1,2
216,56,49589,1,2
280,104,49765,1,0
336,48,49942,2,0,B|392:48|416:88|416:88,1,75,0|0
432,152,50295,5,2
464,232,50471,1,0
432,152,50648,1,0
408,232,50824,1,2
432,152,51001,1,2
360,200,51177,1,0
320,216,51265,1,0
280,232,51354,2,0,B|232:240|192:216|192:216,1,75
128,192,51707,5,2
384,192,52060,1,2
64,192,52413,1,2
448,192,52765,1,0
448,192,52942,6,0,B|448:88|328:96|328:96,1,150
272,96,53471,1,0
240,72,53560,1,0
208,48,53648,1,0
176,72,53736,1,0
144,96,53824,1,0
72,240,54177,5,0
72,240,54354,1,0
128,296,54530,2,0,B|160:328|200:328|200:328,1,75,2|0
280,328,54883,1,0
360,304,55060,1,2
408,144,55413,2,0,B|456:144|472:64|472:64,2,75,0|2|0
328,128,55942,5,2
272,64,56118,1,0
240,96,56207,1,0
208,128,56295,1,0
152,64,56471,1,0
96,128,56648,2,0,B|64:160|80:208|80:208,1,75,2|0
80,280,57001,2,0,B|112:304|160:288|160:288,1,75,2|2
232,296,57354,5,2
312,272,57530,1,0
392,248,57707,1,0
472,224,57883,1,2
312,272,58236,1,0
288,192,58413,1,2
264,112,58589,1,0
344,88,58765,5,2
264,112,58942,1,0
264,112,59030,1,0
264,112,59118,1,0
184,136,59295,1,0
104,160,59471,1,2
64,176,59560,1,0
104,192,59648,1,0
184,224,59824,2,0,B|264:256|304:288|240:336|240:336|248:336,1,150,2|0
256,62,60530,5,2
336,96,60707,1,2
264,128,60883,1,2
336,96,61060,1,0
312,176,61236,1,0
392,192,61413,1,2
472,192,61589,6,0,B|472:256|400:280|400:280,2,112.5,2|2|2
472,112,62295,1,0
392,88,62471,1,0
312,64,62648,1,2
120,224,63177,5,2
152,304,63354,1,2
232,336,63530,1,2
152,304,63707,1,0
240,216,63971,1,2
328,128,64236,2,0,B|384:128|416:168|416:168,1,75,2|4
464,192,64589,5,0
360,224,64765,1,2
464,256,64942,1,4
360,224,65118,1,2
360,224,65295,1,0
256,192,65471,1,4
256,192,65648,1,2
256,192,65824,6,0,B|280:232|256:264|256:264,1,75,6|0
192,312,66177,1,0
128,264,66354,1,2
96,104,66707,1,0
168,64,66883,2,0,B|208:72|232:104|232:104,1,75,2|0
304,64,67236,5,6
376,104,67413,1,0
376,104,67501,1,0
376,104,67589,1,0
448,144,67765,1,0
416,216,67942,1,2
432,256,68030,1,0
448,296,68118,2,0,B|408:336|344:328|344:328,1,75,2|0
296,328,68471,1,0
216,328,68648,6,0,B|136:336|56:304|80:144|136:88|136:88,1,300,6|0
240,72,69618,1,0
368,88,69883,1,2
440,120,70060,5,6
472,192,70236,1,0
440,264,70413,1,0
408,192,70589,1,0
376,264,70765,1,6
304,312,70942,1,0
224,328,71118,1,0
184,336,71207,1,0
144,336,71295,1,0
80,280,71471,5,4
80,112,71824,1,2
128,176,72001,1,2
208,152,72177,1,2
208,72,72354,1,0
128,40,72530,1,0
208,72,72707,1,0
296,40,72883,5,2
416,80,73148,1,2
472,192,73413,1,2
472,192,73589,2,0,B|472:264|424:272|424:272,1,75
368,288,73942,1,2
128,232,74471,6,0,B|80:232|56:192|56:192,2,75,2|2|2
208,232,75001,2,0,B|208:320|256:344|256:344,2,112.5,2|0|0
208,152,75707,5,2
272,48,75971,1,0
336,152,76236,1,0
416,152,76413,1,2
352,264,76677,1,2
296,152,76942,1,0
208,152,77118,5,8
208,152,77295,1,0
208,152,77471,1,0
208,152,77648,1,0
104,280,78001,2,0,B|56:280|56:280,2,37.5
184,280,78354,1,0
264,280,78530,6,0,B|336:312|336:312,1,75,8|0
416,296,78883,2,0,B|456:200|456:200,1,75
416,64,79413,1,0
416,64,79501,1,0
416,64,79589,1,0
336,64,79765,1,0
256,64,79942,5,8
216,136,80118,2,0,B|264:208|264:208,1,75
304,272,80471,1,0
144,304,80824,1,0
112,272,80913,1,0
80,240,81001,1,0
80,160,81177,1,0
80,80,81354,5,8
152,48,81530,1,0
224,80,81707,1,0
304,48,81883,1,0
384,80,82060,1,12
384,80,82236,1,8
424,152,82413,1,4
424,152,82589,1,0
384,224,82765,5,4
240,304,83118,1,0
256,136,83471,1,0
88,120,83824,1,0
144,272,84177,1,0
304,296,84530,1,0
424,184,84883,1,0
256,192,85060,12,0,87001
