osu file format v14

[General]
AudioFilename: 07 - Call my name.mp3
AudioLeadIn: 0
PreviewTime: 47395
Countdown: 0
SampleSet: Soft
StackLeniency: 0.3
Mode: 0
LetterboxInBreaks: 0
WidescreenStoryboard: 1

[Editor]
Bookmarks: 10950,11400,13725,70200,81000,102600,112200,253800
DistanceSpacing: 1
BeatDivisor: 4
GridSize: 4
TimelineZoom: 1.5

[Metadata]
Title:Call my name
TitleUnicode:Call my name
Artist:Yousei Teikoku
ArtistUnicode:妖精帝國
Creator:SatellizerLB
Version:Insane
Source:
Tags:gothic lolita agitator
BeatmapID:673265
BeatmapSetID:300187

[Difficulty]
HPDrainRate:7
CircleSize:4.3
OverallDifficulty:8.5
ApproachRate:9
SliderMultiplier:1
SliderTickRate:2

[Events]
//Background and Video events
0,0,"call-my-name.jpg",0,0
//Break Periods
2,11600,13200
2,76250,82350
//Storyboard Layer 0 (Background)
//Storyboard Layer 1 (Fail)
//Storyboard Layer 2 (Pass)
//Storyboard Layer 3 (Foreground)
//Storyboard Sound Samples

[TimingPoints]
600,300,4,1,2,100,1,0
601,-55.5555555555556,4,1,2,55,0,0
2395,-66.6666666666667,4,1,2,55,0,0
2866,-55.5555555555556,4,1,2,55,0,0
5530,-55.5555555555556,4,1,4,55,0,0
6522,-55.5555555555556,4,1,2,55,0,0
7190,-66.6666666666667,4,1,2,55,0,0
7664,-55.5555555555556,4,1,2,55,0,0
10310,-55.5555555555556,4,1,4,55,0,0
10480,-55.5555555555556,4,1,2,55,0,0
11002,-55.5555555555556,4,1,4,55,0,0
11383,-55.5555555555556,4,1,2,55,0,0
13800,-100,4,2,2,40,0,0
22049,-133.333333333333,4,2,2,45,0,0
23251,-66.6666666666667,4,2,2,50,0,0
42590,-66.6666666666667,4,2,2,55,0,0
51260,-66.6666666666667,4,2,2,5,0,0
51360,-66.6666666666667,4,1,2,40,0,0
51573,-66.6666666666667,4,2,2,60,0,0
51653,-66.6666666666667,4,1,2,55,0,0
51842,-66.6666666666667,4,2,2,60,0,0
51972,-66.6666666666667,4,1,2,55,0,0
52200,-55.5555555555556,4,1,2,70,0,1
52275,-55.5555555555556,4,1,2,55,0,1
53376,-55.5555555555556,4,1,2,70,0,1
53496,-55.5555555555556,4,1,2,55,0,1
54556,-55.5555555555556,4,1,2,70,0,1
54676,-55.5555555555556,4,1,2,55,0,1
55720,-55.5555555555556,4,1,2,65,0,1
55840,-55.5555555555556,4,1,2,5,0,1
55954,-55.5555555555556,4,1,2,65,0,1
56153,-55.5555555555556,4,1,2,5,0,1
56263,-55.5555555555556,4,1,2,65,0,1
56432,-55.5555555555556,4,1,2,25,0,1
56572,-55.5555555555556,4,1,2,55,0,1
56913,-55.5555555555556,4,1,2,30,0,1
56976,-55.5555555555556,4,1,2,70,0,1
57096,-55.5555555555556,4,1,2,55,0,1
58183,-55.5555555555556,4,1,2,70,0,1
58313,-55.5555555555556,4,1,2,55,0,1
59365,-55.5555555555556,4,1,2,70,0,1
59505,-55.5555555555556,4,1,2,55,0,1
60551,-55.5555555555556,4,1,2,65,0,1
60650,-55.5555555555556,4,1,2,5,0,1
60770,-55.5555555555556,4,1,2,65,0,1
60943,-55.5555555555556,4,1,2,5,0,1
61033,-55.5555555555556,4,1,2,65,0,1
61313,-55.5555555555556,4,1,2,55,0,1
61474,-55.5555555555556,4,1,4,50,0,1
61773,-55.5555555555556,4,1,2,55,0,1
64170,-55.5555555555556,4,1,2,65,0,1
64300,-55.5555555555556,4,1,2,55,0,1
66578,-55.5555555555556,4,1,2,65,0,1
66698,-55.5555555555556,4,1,2,55,0,1
68050,-55.5555555555556,4,1,2,60,0,1
68948,-55.5555555555556,4,1,2,70,0,1
69088,-55.5555555555556,4,1,2,60,0,1
70171,-55.5555555555556,4,1,2,70,0,1
70291,-55.5555555555556,4,1,2,60,0,1
70723,-55.5555555555556,4,1,2,60,0,1
71047,-55.5555555555556,4,1,4,55,0,1
71400,-55.5555555555556,4,1,2,65,0,0
76037,-66.6666666666667,4,2,2,5,0,0
76067,-66.6666666666667,4,2,4,40,0,0
83032,-66.6666666666667,4,2,3,40,0,0
92673,-66.6666666666667,4,2,4,40,0,0
92945,-66.6666666666667,4,2,3,40,0,0
93102,-66.6666666666667,4,2,3,5,0,0
93202,-66.6666666666667,4,2,3,40,0,0
121800,-55.5555555555556,4,1,2,50,0,1
141000,-66.6666666666667,4,2,2,50,0,0
169094,-66.6666666666667,4,2,0,70,0,0
218884,-55.5555555555556,4,2,0,70,0,0

[HitObjects]
256,100,600,5,2,0:0:0:0:
256,100,900,1,2,0:0:0:0:
256,100,1200,1,8,0:0:0:0:
160,196,1350,1,8,0:0:0:0:
225,82,1500,1,8,0:0:0:0:
190,213,1650,1,8,0:0:0:0:
190,82,1800,6,0,P|145:93|113:126,1,89.9999972534181,6|0,0:0|0:0,0:0:0:0:
190,213,2100,2,0,P|234:201|266:169,1,89.9999972534181
416,32,2400,2,0,B|444:80|408:144|408:144|408:216|362:232,1,225.000008583069,12|0,0:0|0:0,0:0:0:0:
416,32,3000,6,0,B|376:28|360:64|360:64|340:76,1,89.9999972534181
188,296,3450,1,0,0:0:0:0:
188,296,3600,2,0,P|139:220|97:140,1,179.999994506836,8|8,0:0|0:0,0:0:0:0:
190,43,4050,1,8,0:0:0:0:
307,197,4200,6,0,P|262:197|224:173,1,89.9999972534181,4|0,0:0|0:0,0:0:0:0:
304,64,4500,2,0,P|348:62|387:84,1,89.9999972534181
380,244,4800,2,0,P|337:231|306:199,1,89.9999972534181,8|0,0:0|0:0,0:0:0:0:
411,112,5100,2,0,P|454:122|486:152,1,89.9999972534181,8|4,0:0|0:0,0:0:0:0:
380,244,5400,6,0,P|347:273|304:284,1,89.9999972534181,0|2,0:0|0:0,0:0:0:0:
220,308,5625,1,2,0:0:0:0:
220,308,5700,2,0,P|180:327|136:326,1,89.9999972534181,8|0,0:0|0:0,0:0:0:0:
56,280,6000,1,8,0:0:0:0:
140,235,6150,1,2,0:0:0:0:
127,218,6225,1,2,0:0:0:0:
109,204,6300,1,8,0:0:0:0:
23,119,6450,1,8,0:0:0:0:
196,72,6600,6,0,P|183:29|152:-2,1,89.9999972534181,6|0,0:0|0:0,0:0:0:0:
22,118,6900,2,0,P|35:161|67:192,1,89.9999972534181
220,308,7200,2,0,B|268:336|320:288|320:288|404:300|420:254,1,225.000008583069,12|0,0:0|0:0,0:0:0:0:
220,308,7800,6,0,B|179:301|173:261|173:261|157:245,1,89.9999972534181
424,192,8250,1,0,0:0:0:0:
424,192,8399,2,0,P|393:107|336:40,1,179.999994506836,8|8,0:0|0:0,0:0:0:0:
214,115,8850,1,8,0:0:0:0:
213,296,9000,6,0,P|251:274|273:235,1,89.9999972534181,4|0,0:0|0:0,0:0:0:0:
214,115,9300,2,0,P|175:137|153:176,1,89.9999972534181
200,348,9600,2,0,P|156:339|126:307,1,89.9999972534181,8|0,0:0|0:0,0:0:0:0:
154,176,9900,2,0,P|197:188|228:221,1,89.9999972534181,8|4,0:0|0:0,0:0:0:0:
363,356,10200,6,0,P|402:333|424:294,1,89.9999972534181,0|2,0:0|0:0,0:0:0:0:
444,284,10425,1,2,0:0:0:0:
461,271,10500,1,8,0:0:0:0:
512,100,10650,1,0,0:0:0:0:
336,44,10800,2,0,P|292:54|261:86,1,89.9999972534181,8|0,0:0|0:0,0:0:0:0:
255,100,11025,1,2,0:0:0:0:
247,113,11100,1,10,0:0:0:0:
238,124,11175,1,2,0:0:0:0:
227,135,11250,1,10,0:0:0:0:
214,142,11325,1,2,0:0:0:0:
201,147,11400,1,6,0:0:0:0:
356,324,13800,5,2,0:0:0:0:
330,227,14100,1,0,0:0:0:0:
425,253,14400,2,0,P|480:186|473:101,1,175,2|0,0:0|0:0,0:0:0:0:
461,81,15000,1,0,0:0:0:0:
388,156,15300,1,2,0:0:0:0:
356,324,15600,2,0,B|328:284|272:284|272:284|244:296|216:286,1,150,2|0,0:0|0:0,0:0:0:0:
288,356,16200,5,2,0:0:0:0:
154,257,16500,2,0,P|152:307|180:348,1,100,0|2,0:0|0:0,0:0:0:0:
124,188,17100,1,2,0:0:0:0:
124,188,17250,2,0,P|174:184|216:212,1,100,2|2,0:0|0:0,0:0:0:0:
85,323,17700,2,0,P|129:301|151:257,2,100,2|2|2,0:0|0:0|0:0,0:0:0:0:
228,155,18600,5,2,0:0:0:0:
299,84,18900,1,0,0:0:0:0:
204,60,19200,2,0,P|118:45|48:94,1,175,2|0,0:0|0:0,0:0:0:0:
37,114,19800,1,0,0:0:0:0:
138,140,20100,1,2,0:0:0:0:
308,164,20400,2,0,B|320:184|352:188|352:188|388:232|380:289,1,150,2|0,0:0|0:0,0:0:0:0:
308,256,21000,5,2,0:0:0:0:
424,340,21300,2,0,P|374:349|329:329,2,100,0|2|2,0:0|0:0|0:0,0:0:0:0:
381,279,22050,2,0,B|489:236|469:103|469:103|461:55|493:26,1,300.000011444092,2|8,0:0|0:0,0:0:0:0:
492,26,23400,5,4,0:0:0:0:
380,164,23700,1,0,0:0:0:0:
216,224,24000,2,0,B|187:103|224:80|224:80|232:76|232:76|236:68|236:68|244:68|244:68|244:60|244:60|252:64|252:64|252:52|252:52|260:56|260:56|264:44|264:44|272:48|272:48|276:40|276:40|284:36|284:36|286:28,1,262.500010013581,8|0,0:0|0:0,0:0:0:0:
315,52,24600,1,2,0:0:0:0:
116,68,24900,1,0,0:0:0:0:
116,68,25200,2,0,P|105:178|183:252,1,225.000008583069,8|0,0:0|0:0,0:0:0:0:
228,132,25800,5,2,0:0:0:0:
368,292,26100,2,0,P|310:338|236:339,2,150.000005722046,0|8|2,0:0|0:0|0:0,0:0:0:0:
156,152,26850,2,0,B|173:154|257:115|257:115|279:115|295:101,1,150.000005722046,8|2,0:0|0:0,0:0:0:0:
424,36,27300,1,0,0:0:0:0:
426,206,27600,1,8,0:0:0:0:
276,288,27900,1,0,0:0:0:0:
228,128,28200,5,2,0:0:0:0:
381,108,28500,1,0,0:0:0:0:
276,287,28800,2,0,P|386:232|381:108,1,262.500010013581,8|0,0:0|0:0,0:0:0:0:
349,90,29400,1,2,0:0:0:0:
128,300,29700,1,0,0:0:0:0:
128,300,30000,2,0,B|55:263|53:186|53:186|56:172|56:172|44:163|44:163|45:149|45:149|32:142|32:142|33:128|33:128|26:123,1,225.000008583069,8|0,0:0|0:0,0:0:0:0:
117,61,30600,6,0,P|163:118|164:192,1,150.000005722046,2|0,0:0|0:0,0:0:0:0:
128,360,31200,2,0,P|201:358|259:312,1,150.000005722046,8|2,0:0|0:0,0:0:0:0:
280,106,31650,1,8,0:0:0:0:
264,192,31800,2,0,P|289:218|325:226,1,75.0000028610231
340,144,32100,2,0,P|315:116|280:105,1,75.0000028610231
160,88,32400,2,0,P|124:98|100:126,1,75.0000028610231,8|0,0:0|0:0,0:0:0:0:
160,326,32700,2,0,P|194:315|219:287,1,75.0000028610231,8|8,0:0|0:0,0:0:0:0:
487,50,33000,5,6,0:0:0:0:
285,275,33300,1,0,0:0:0:0:
160,326,33600,2,0,B|144:304|139:248|139:248|31:277|1:165,1,262.500010013581,8|0,0:0|0:0,0:0:0:0:
32,148,34200,1,2,0:0:0:0:
287,51,34500,1,0,0:0:0:0:
285,275,34800,2,0,L|323:340,1,75.0000028610231,8|0,0:0|0:0,0:0:0:0:
477,169,35100,2,0,L|439:103,1,75.0000028610231,0|8,0:0|0:0,0:0:0:0:
286,50,35400,5,2,0:0:0:0:
286,50,35700,2,0,P|272:122|217:171,1,150.000005722046,0|8,0:0|0:0,0:0:0:0:
120,196,36150,2,0,P|134:123|190:75,1,150.000005722046
148,292,36600,2,0,P|203:244|218:172,2,150.000005722046,2|0|8,0:0|0:0|0:0,0:0:0:0:
160,128,37350,1,0,0:0:0:0:
272,268,37500,1,8,0:0:0:0:
120,196,37650,1,8,0:0:0:0:
292,168,37800,5,6,0:0:0:0:
314,87,38100,1,0,0:0:0:0:
373,146,38400,2,0,B|331:171|297:221|297:221|348:237|345:322|273:327,1,262.500010013581,8|0,0:0|0:0,0:0:0:0:
232,365,39000,1,2,0:0:0:0:
214,268,39300,1,0,0:0:0:0:
356,137,39600,1,8,0:0:0:0:
275,116,39750,1,0,0:0:0:0:
214,268,39900,1,0,0:0:0:0:
308,287,40050,1,8,0:0:0:0:
232,365,40200,6,0,B|247:376|366:339|380:349,1,150.000005722046,2|0,0:0|0:0,0:0:0:0:
408,125,40800,1,8,0:0:0:0:
287,56,40950,2,0,P|359:69|408:125,1,150.000005722046
276,200,41400,2,0,P|203:185|155:130,2,150.000005722046,2|0|8,0:0|0:0|0:0,0:0:0:0:
244,116,42150,1,0,0:0:0:0:
152,240,42300,1,8,0:0:0:0:
324,172,42450,1,8,0:0:0:0:
280,320,42600,6,0,P|305:346|342:356,1,75.0000028610231,6|0,0:0|0:0,0:0:0:0:
416,152,42900,2,0,P|390:125|353:116,1,75.0000028610231,2|0,0:0|0:0,0:0:0:0:
144,60,43200,2,0,P|181:59|212:78,1,75.0000028610231,10|0,0:0|0:0,0:0:0:0:
193,295,43500,2,0,P|155:295|124:276,1,75.0000028610231,2|0,0:0|0:0,0:0:0:0:
144,60,43800,2,0,P|214:73|265:130,1,150.000005722046,2|2,0:0|0:0,0:0:0:0:
193,295,44250,1,2,0:0:0:0:
193,295,44400,2,0,P|123:282|72:225,1,150.000005722046,10|2,0:0|0:0,0:0:0:0:
144,60,44850,1,8,0:0:0:0:
212,180,45000,6,0,B|218:174|277:163|286:166,1,75.0000028610231,6|0,0:0|0:0,0:0:0:0:
364,288,45300,2,0,B|372:287|424:257|429:250,1,75.0000028610231,2|0,0:0|0:0,0:0:0:0:
307,323,45600,2,0,B|299:327|239:327|232:324,1,75.0000028610231,10|0,0:0|0:0,0:0:0:0:
155,188,45900,2,0,B|151:179|109:137|101:135,1,75.0000028610231,2|0,0:0|0:0,0:0:0:0:
232,324,46200,2,0,B|214:327|98:296|85:284,1,150.000005722046,2|2,0:0|0:0,0:0:0:0:
103,136,46650,1,2,0:0:0:0:
103,136,46800,2,0,B|121:133|237:164|250:176,1,150.000005722046,10|2,0:0|0:0,0:0:0:0:
232,324,47250,1,8,0:0:0:0:
364,66,47400,6,0,L|437:85,1,75.0000028610231,6|0,0:0|0:0,0:0:0:0:
284,236,47700,2,0,B|289:229|297:169|302:163,1,75.0000028610231,2|0,0:0|0:0,0:0:0:0:
417,157,48000,2,0,B|422:150|430:90|436:85,1,75.0000028610231,10|0,0:0|0:0,0:0:0:0:
231,145,48300,2,0,L|304:164,1,75.0000028610231,2|8,0:0|0:0,0:0:0:0:
136,276,48600,2,0,L|69:313,1,75.0000028610231,2|0,0:0|0:0,0:0:0:0:
284,236,48900,2,0,B|304:236|318:247|318:247|334:245|355:236,1,75.0000028610231,2|0,0:0|0:0,0:0:0:0:
199,71,49200,2,0,B|204:54|223:43|223:43|243:45|261:35,1,75.0000028610231,10|0,0:0|0:0,0:0:0:0:
216,160,49500,2,0,B|232:164|240:187|240:187|254:202|278:196,1,75.0000028610231,2|8,0:0|0:0,0:0:0:0:
124,192,49800,6,0,P|154:108|232:60,1,150.000005722046,2|2,0:0|0:0,0:0:0:0:
200,60,50250,1,2,0:0:0:0:
252,182,50400,2,0,P|200:252|113:278,1,150.000005722046,2|2,0:0|0:0,0:0:0:0:
144,288,50850,1,2,0:0:0:0:
199,71,51000,2,0,P|272:66|338:100,1,150.000005722046,2|2,0:0|0:0,0:0:0:0:
356,116,51450,1,8,0:0:0:0:
144,276,51600,6,0,L|76:307,1,75.0000028610231,6|0,0:0|0:0,0:0:0:0:
344,104,51900,6,0,L|417:123,1,75.0000028610231,6|0,0:0|0:0,0:0:0:0:
236,292,52200,6,0,P|325:300|411:276,1,179.999994506836,6|0,0:0|0:0,0:0:0:0:
488,165,52650,2,0,P|449:143|404:143,1,89.9999972534181,0|8,0:0|0:0,0:0:0:0:
408,277,52950,1,0,0:0:0:0:
244,240,53100,2,0,P|205:218|205:173,1,89.9999972534181,0|8,0:0|0:0,0:0:0:0:
488,165,53400,2,0,P|446:240|360:243,1,179.999994506836,6|0,0:0|0:0,0:0:0:0:
244,95,53850,2,0,P|243:140|267:177,1,89.9999972534181,0|8,0:0|0:0,0:0:0:0:
384,104,54150,1,0,0:0:0:0:
267,177,54300,2,0,P|311:188|343:221,1,89.9999972534181,0|8,0:0|0:0,0:0:0:0:
189,305,54600,6,0,P|264:263|267:177,1,179.999994506836,6|0,0:0|0:0,0:0:0:0:
192,57,55050,1,0,0:0:0:0:
327,110,55200,1,8,0:0:0:0:
187,147,55350,1,0,0:0:0:0:
278,34,55500,2,0,P|322:37|368:49,1,89.9999972534181,0|8,0:0|0:0,0:0:0:0:
448,79,55800,2,0,L|484:53,1,44.999998626709,6|4,0:0|0:0,0:0:0:0:
152,284,56100,2,0,L|116:310,1,44.999998626709
448,79,56400,1,12,0:0:0:0:
452,84,56475,2,0,P|393:175|285:177,1,224.999993133545,4|14,0:0|0:0,0:0:0:0:
285,177,56925,1,0,0:0:0:0:
292,184,57000,6,0,B|248:240|212:225|212:225|184:208|136:274,1,179.999994506836,6|0,0:0|0:0,0:0:0:0:
40,32,57450,2,0,P|84:32|124:54,1,89.9999972534181,0|8,0:0|0:0,0:0:0:0:
272,128,57750,1,0,0:0:0:0:
364,264,57900,2,0,P|402:241|402:197,1,89.9999972534181,0|8,0:0|0:0,0:0:0:0:
124,254,58200,2,0,P|183:316|267:296,1,179.999994506836,6|0,0:0|0:0,0:0:0:0:
412,80,58650,2,0,P|374:102|330:100,1,89.9999972534181,0|8,0:0|0:0,0:0:0:0:
216,176,58950,1,0,0:0:0:0:
108,260,59100,2,0,P|97:304|64:336,1,89.9999972534181,0|8,0:0|0:0,0:0:0:0:
239,332,59400,6,0,P|153:333|108:260,1,179.999994506836,6|0,0:0|0:0,0:0:0:0:
138,116,59850,1,0,0:0:0:0:
196,249,60000,1,8,0:0:0:0:
71,176,60150,1,0,0:0:0:0:
216,161,60300,2,0,P|257:176|304:184,1,89.9999972534181,6|8,0:0|0:0,0:0:0:0:
408,216,60600,2,0,L|450:201,1,44.999998626709,6|4,0:0|0:0,0:0:0:0:
64,328,60900,2,0,L|22:343,1,44.999998626709
408,216,61200,6,0,P|363:227|331:260,1,89.9999972534181,12|0,0:0|0:0,0:0:0:0:
317,273,61425,1,0,0:0:0:0:
301,289,61500,1,10,0:0:0:0:
283,301,61575,1,2,0:0:0:0:
262,311,61650,1,10,0:0:0:0:
241,320,61725,1,2,0:0:0:0:
221,324,61800,6,0,B|180:348|128:324|128:324|76:328|45:308,1,179.999994506836,6|0,0:0|0:0,0:0:0:0:
48,64,62250,2,0,P|70:102|110:126,1,89.9999972534181,0|8,0:3|0:0,0:0:0:0:
240,68,62550,1,0,0:0:0:0:
260,200,62700,2,0,P|292:231|303:276,1,89.9999972534181,0|8,0:0|0:0,0:0:0:0:
128,271,63000,6,0,P|213:272|259:199,1,179.999994506836,2|0,0:0|0:0,0:0:0:0:
240,68,63450,1,0,0:0:0:0:
372,100,63600,2,0,P|445:150|496:224,1,179.999994506836,8|6,0:0|0:0,0:0:0:0:
356,236,64050,1,8,0:0:0:0:
228,284,64200,6,0,P|154:233|103:159,1,179.999994506836,6|0,0:0|0:0,0:0:0:0:
236,148,64650,1,0,0:0:0:0:
372,160,64800,2,0,P|372:72|296:28,1,179.999994506836,8|0,0:0|0:0,0:0:0:0:
436,32,65250,6,0,P|470:56|461:98,1,89.9999972534181,0|2,0:0|0:0,0:0:0:0:
372,160,65550,1,0,0:0:0:0:
228,248,65700,2,0,P|139:248|96:173,2,179.999994506836,8|8|0,0:0|0:0|0:0,0:0:0:0:
372,160,66450,1,8,0:0:0:0:
373,336,66600,6,0,P|389:247|372:159,1,179.999994506836,6|0,0:0|0:0,0:0:0:0:
338,29,67050,1,0,0:0:0:0:
242,125,67200,1,8,0:0:0:0:
373,160,67350,1,0,0:0:0:0:
236,288,67500,2,0,P|268:256|279:212,1,89.9999972534181,6|8,0:0|0:0,0:0:0:0:
156,177,67800,5,6,0:0:0:0:
153,311,67950,2,0,P|197:311|236:289,1,89.9999972534181
156,177,68250,1,0,0:0:0:0:
132,53,68400,2,0,P|87:64|55:97,1,89.9999972534181,14|0,0:0|0:0,0:0:0:0:
235,289,68700,2,0,P|279:279|311:249,1,89.9999972534181,10|8,0:0|0:0,0:0:0:0:
360,172,68925,1,0,0:0:0:0:
360,172,69000,6,0,P|370:128|400:96,1,89.9999972534181,6|0,0:0|0:0,0:0:0:0:
396,256,69300,1,0,0:0:0:0:
256,200,69450,1,0,0:0:0:0:
328,76,69600,2,0,P|296:43|254:31,1,89.9999972534181,12|0,0:0|0:0,0:0:0:0:
168,170,69900,2,0,P|211:158|244:128,1,89.9999972534181,6|0,0:0|0:0,0:0:0:0:
279,276,70200,6,0,P|246:306|203:318,1,89.9999972534181,6|0,0:0|0:0,0:0:0:0:
84,216,70500,1,8,0:0:0:0:
176,96,70650,1,8,0:0:0:0:
336,84,70800,1,12,0:0:0:0:
366,98,70875,1,8,0:0:0:0:
386,125,70950,1,0,0:0:0:0:
392,158,71025,1,0,0:0:0:0:
383,190,71100,1,2,0:0:0:0:
360,214,71175,1,2,0:0:0:0:
329,226,71250,1,2,0:0:0:0:
295,222,71325,1,2,0:0:0:0:
256,192,71400,1,6,0:0:0:0:
256,192,71475,12,0,76050,0:0:0:0:
128,56,82950,5,2,0:0:0:0:
138,78,83100,1,8,0:0:0:0:
138,78,83400,5,6,0:0:0:0:
12,168,83700,1,8,0:0:0:0:
138,78,83850,1,0,0:0:0:0:
81,240,84000,2,0,P|117:235|145:210,1,75.0000028610231,0|2,0:0|0:0,0:0:0:0:
248,64,84300,2,0,P|284:68|313:94,1,75.0000028610231,8|0,0:0|0:0,0:0:0:0:
348,204,84600,1,2,0:0:0:0:
256,136,84750,1,0,0:0:0:0:
194,232,84900,1,8,0:0:0:0:
284,324,85050,1,0,0:0:0:0:
348,204,85200,2,0,P|375:179|384:141,2,75.0000028610231,0|2|8,0:0|0:0|0:0,0:0:0:0:
194,232,85650,1,0,0:0:0:0:
204,88,85800,6,0,P|239:82|274:100,1,75.0000028610231,2|0,0:0|0:0,0:0:0:0:
404,155,86100,2,0,B|400:163|354:201|345:203,1,75.0000028610231,8|0,0:0|0:0,0:0:0:0:
360,302,86400,2,0,B|368:299|414:261|418:253,1,75.0000028610231
404,155,86700,1,10,0:0:0:0:
276,64,86850,2,0,B|271:80|152:121|147:137,1,150.000005722046,2|0,0:0|0:0,0:0:0:0:
148,228,87300,2,0,P|183:224|212:198,1,75.0000028610231,10|0,0:0|0:0,0:0:0:0:
372,84,87600,2,0,P|336:87|307:113,1,75.0000028610231,2|0,0:0|0:0,0:0:0:0:
360,302,87900,2,0,P|332:324|293:326,1,75.0000028610231,10|8,0:0|0:0,0:0:0:0:
312,148,88200,6,0,P|342:168|357:202,1,75.0000028610231,6|0,0:0|0:0,0:0:0:0:
256,260,88500,1,8,0:0:0:0:
148,228,88650,1,0,0:0:0:0:
76,72,88800,2,0,P|105:94|142:96,1,75.0000028610231,0|2,0:0|0:0,0:0:0:0:
335,81,89100,2,0,P|334:118|312:148,1,75.0000028610231,8|0,0:0|0:0,0:0:0:0:
248,52,89400,1,2,0:0:0:0:
142,95,89550,1,0,0:0:0:0:
192,200,89700,1,8,0:0:0:0:
311,148,89850,1,0,0:0:0:0:
248,52,90000,2,0,P|211:53|181:75,2,75.0000028610231,0|2|8,0:0|0:0|0:0,0:0:0:0:
404,40,90450,1,0,0:0:0:0:
311,148,90600,6,0,P|300:183|271:206,1,75.0000028610231,2|0,0:0|0:0,0:0:0:0:
116,236,90900,2,0,B|124:233|170:195|174:187,1,75.0000028610231,8|0,0:0|0:0,0:0:0:0:
160,292,91200,2,0,B|168:289|214:251|218:243,1,75.0000028610231
404,40,91500,1,10,0:0:0:0:
404,40,91650,2,0,P|368:50|345:79,1,75.0000028610231,2|0,0:0|0:0,0:0:0:0:
444,161,91950,2,0,P|479:150|502:121,1,75.0000028610231,0|10,0:0|0:0,0:0:0:0:
345,79,92250,2,0,P|308:80|278:102,1,75.0000028610231,0|2,0:0|0:0,0:0:0:0:
356,220,92550,2,0,P|355:257|333:287,1,75.0000028610231,0|10,0:0|0:0,0:0:0:0:
325,303,92775,1,0,0:0:0:0:
313,317,92850,1,0,0:0:0:0:
297,327,92925,1,0,0:0:0:0:
279,332,93000,6,0,P|244:345|208:336,1,75.0000028610231,6|0,0:0|0:0,0:0:0:0:
240,252,93300,1,8,0:0:0:0:
338,132,93450,1,0,0:0:0:0:
325,303,93600,2,0,P|358:288|379:257,1,75.0000028610231,0|2,0:0|0:0,0:0:0:0:
420,88,93900,2,0,P|399:57|365:43,1,75.0000028610231,8|0,0:0|0:0,0:0:0:0:
272,152,94200,1,2,0:0:0:0:
118,180,94350,1,8,0:0:0:0:
180,84,94500,1,0,0:0:0:0:
240,252,94650,1,0,0:0:0:0:
338,132,94800,2,0,P|373:123|400:95,2,75.0000028610231,0|2|8,0:0|0:0|0:0,0:0:0:0:
118,180,95250,1,0,0:0:0:0:
