osu file format v9

[General]
AudioFilename: Yousei Teikoku - Asgard (Short Ver.).mp3
AudioLeadIn: 1500
PreviewTime: 55381
Countdown: 0
SampleSet: Soft
StackLeniency: 0.4
Mode: 0
LetterboxInBreaks: 0

[Editor]
DistanceSpacing: 1
BeatDivisor: 4
GridSize: 8

[Metadata]
Title:Asgard (Short Ver.)
Artist:Yousei Teikoku
Creator:osuplayer111
Version:Insane
Source:fortissimo//Akkord:Bsusvier
Tags:Louis Cyphre Lucifer Kite kanpakyin Visual Novel

[Difficulty]
HPDrainRate:7
CircleSize:5
OverallDifficulty:7
ApproachRate:8
SliderMultiplier:1.8
SliderTickRate:1

[Events]
//Background and Video events
0,0,"Moe.jpg"
Video,0,"Thanks Louis.flv"
//Break Periods
//Storyboard Layer 0 (Background)
//Storyboard Layer 1 (Fail)
//Storyboard Layer 2 (Pass)
//Storyboard Layer 3 (Foreground)
//Storyboard Sound Samples
//Background Colour Transformations
3,100,163,162,255

[TimingPoints]
920,461.538461538462,4,2,1,80,1,0
7381,-100,4,1,1,100,0,0
23073,-100,4,2,1,80,0,0
24458,-100,4,1,1,100,0,0
32535,-100,4,2,1,50,0,0
33689,-100,4,1,1,100,0,0
55381,461.538461538462,4,1,1,100,1,1
77535,-100,4,1,1,100,0,0
91843,-133.333333333333,4,1,1,100,0,0
92304,-100,4,2,1,80,0,0
93689,-100,4,2,1,0,0,0

[Colours]
Combo1 : 238,139,40
Combo2 : 198,0,0
Combo3 : 71,186,224
Combo4 : 229,229,229

[HitObjects]
56,64,919,2,0,B|97:32|141:63,1,90
176,144,1381,1,2
256,96,1612,2,0,B|297:128|345:90,1,90
416,48,2073,1,0
416,136,2304,2,0,B|488:136|488:264|408:264,1,180,2|0
256,320,2996,6,0,B|184:264,1,90,0|2
112,208,3458,1,0
112,120,3689,1,0
192,160,3920,2,0,B|232:72|344:48,1,180
440,192,4612,6,0,B|400:280|288:304,1,180,0|2
256,224,5304,1,0
208,301,5535,2,0,B|160:301|120:253,1,90
56,208,5996,2,0,B|56:112|176:48,1,180,2|0
440,112,6689,6,0,B|336:112,1,90,0|2
256,112,7150,1,0
192,176,7381,1,8
208,192,7496,1,8
224,208,7612,1,8
240,224,7727,1,8
256,240,7843,1,8
272,256,7958,1,8
288,272,8073,1,8
304,288,8189,1,8
320,304,8304,6,0,B|416:304,1,90,8|8
410,304,8650,1,0
410,304,8766,1,0
480,192,8996,2,0,B|384:192,1,90,8|0
390,192,9343,1,0
390,192,9458,1,8
296,192,9689,2,0,B|224:192|224:72|304:72,1,180
176,56,10381,5,8
160,64,10496,1,0
144,72,10612,2,0,B|128:120|72:120,1,90,0|8
32,192,11073,1,0
32,192,11189,1,0
32,192,11304,2,0,B|32:240|80:264,1,90,8|0
136,192,11766,1,8
328,328,11996,6,0,B|416:272,1,90,0|8
403,279,12343,1,0
403,279,12458,1,0
456,136,12689,2,0,B|376:192,1,90,8|0
382,187,13035,1,0
382,187,13150,1,8
312,240,13381,2,0,B|208:240|168:136,1,180
368,48,14073,5,8
368,48,14189,1,0
368,48,14304,2,0,B|344:96|288:96,1,90,0|8
216,56,14766,1,0
200,48,14881,1,0
184,40,14996,1,8
128,104,15227,2,8,B|104:128,8,22.5
104,240,15919,5,8
104,240,16035,1,0
104,240,16150,2,0,B|128:280|184:280,1,90,0|8
240,208,16612,1,0
240,208,16727,1,0
240,208,16843,2,0,B|292:207|316:247,1,90,8|0
280,328,17304,1,8
432,224,17535,6,0,B|472:136,1,90,0|8
469,142,17881,1,0
469,142,17996,1,0
432,64,18227,1,8
352,104,18458,1,0
352,104,18573,1,0
352,104,18689,2,0,B|296:104|280:56,1,90,8|0
192,40,19150,1,8
72,160,19381,5,0
104,240,19612,1,8
112,256,19727,1,0
120,272,19843,2,0,B|208:272,1,90,0|8
408,240,20304,1,0
400,256,20420,1,0
392,272,20535,2,0,B|304:272,1,90,8|0
256,352,20996,1,8
256,192,21227,6,0,B|256:104,1,90,0|8
256,102,21573,1,0
256,102,21689,1,0
336,64,21920,1,8
256,16,22150,1,0
256,16,22266,1,0
256,16,22381,1,8
176,64,22612,1,0
152,152,22843,1,8
152,152,22958,1,0
152,152,23073,5,2
80,272,23304,1,0
184,376,23535,1,2
328,376,23766,1,0
432,272,23996,1,2
360,152,24227,1,0
256,224,24458,5,8
256,208,24573,1,8
256,192,24689,1,8
256,176,24804,1,8
256,160,24920,1,8
211,48,25150,6,0,B|307:48,1,90,8|0
392,48,25612,1,8
392,48,25727,2,0,B|448:48|448:48|504:120,1,135,0|8
456,192,26304,2,0,B|416:224|368:192,1,90,0|8
320,272,26766,1,0
256,336,26996,1,8
192,272,27227,1,0
256,208,27458,6,0,B|256:144,1,45,8|0
224,88,27804,1,0
240,72,27920,1,8
264,72,28035,1,0
288,88,28150,1,0
256,208,28381,1,8
72,256,28612,6,0,B|128:328,1,90,0|8
216,344,29073,1,0
296,344,29304,1,8
304,328,29420,1,0
384,288,29650,1,0
392,272,29766,1,8
424,192,29996,2,0,B|336:192,1,90,0|8
160,112,30458,6,0,B|256:112,1,90,0|8
250,112,30804,1,0
250,112,30920,1,0
250,200,31150,1,8
322,152,31381,1,0
322,72,31612,1,8
250,24,31843,1,0
160,24,32073,2,8,B|112:24,2,45
160,200,32535,6,0,B|128:240|168:288,1,90,0|2
240,240,32996,1,0
256,224,33112,1,0
344,216,33343,1,0
360,232,33458,1,0
424,296,33689,2,8,B|448:320,4,22.5
456,216,34150,1,0
352,72,34381,5,8
336,88,34496,1,0
320,104,34612,1,0
256,168,34843,1,8
240,152,34958,1,0
176,88,35189,1,0
160,80,35304,1,8
144,80,35420,1,0
128,88,35535,1,0
88,168,35766,1,8
152,320,35996,6,0,B|256:320,1,90,0|8
320,272,36458,1,0
392,216,36689,1,8
392,216,36804,2,0,B|448:176|448:176|448:104,1,135,0|8
376,56,37381,2,0,B|288:56,1,90,0|8
120,72,37843,6,0,B|192:136,1,90,0|8
256,192,38304,1,0
256,192,38420,1,0
256,192,38535,1,8
392,312,38766,2,0,B|320:248,1,90,0|8
224,224,39227,1,8
240,208,39343,1,8
256,192,39458,1,8
272,176,39573,1,8
288,160,39689,1,8
72,64,39920,6,0,B|112:40|160:64,1,90,0|8
440,64,40381,2,0,B|400:40|352:64,1,90,0|0
256,128,40843,1,0
256,112,40958,1,0
256,96,41073,1,8
216,200,41304,1,0
232,216,41420,1,0
256,232,41535,1,0
280,216,41650,1,0
296,200,41766,1,0
440,248,41996,6,0,B|424:288|424:288|376:320,1,90,8|0
72,248,42458,2,0,B|88:288|88:288|136:320,1,90,0|0
256,344,42920,1,8
216,200,43150,1,0
232,176,43266,1,0
256,160,43381,1,0
280,176,43496,1,0
296,200,43612,1,0
136,160,43843,6,0,B|96:128|96:64,1,90,8|0
376,160,44304,2,0,B|416:128|416:64,1,90,0|0
192,40,44766,1,8
320,40,44996,1,0
288,56,45112,1,0
256,80,45227,1,0
224,56,45343,1,0
192,40,45458,1,0
168,256,45689,5,8
256,336,45920,1,0
256,320,46035,1,0
256,304,46150,1,0
344,256,46381,1,0
256,192,46612,1,8
120,96,47073,6,0,B|224:96,1,90,8|8
210,96,47420,1,0
210,96,47535,1,0
440,192,47766,2,0,B|344:192,1,90,8|0
256,192,48227,1,8
256,192,48343,2,0,B|192:192|192:272|264:272,1,135,0|8
440,192,48920,6,0,B|440:96,1,90,0|8
440,102,49266,1,0
440,102,49381,1,0
368,48,49612,2,0,B|328:80|280:72,1,90,8|0
200,96,50073,1,8
184,80,50189,1,0
96,48,50420,1,0
112,64,50535,1,8
80,176,50766,6,0,B|160:232,1,90,0|8
153,227,51112,1,0
153,227,51227,1,0
232,280,51458,1,8
320,280,51689,1,0
392,224,51920,1,8
392,224,52035,2,0,B|392:152|304:112,1,135,0|8
152,40,52612,5,0
208,112,52843,2,0,B|176:144,2,45,8|0|0
256,40,53304,2,0,B|352:40,1,90,8|0
440,40,53766,1,8
456,56,53881,1,0
440,144,54112,1,0
424,160,54227,1,8
408,248,54458,5,8
392,264,54573,1,8
368,272,54689,1,8
352,288,54804,1,8
328,296,54920,1,8
312,312,55035,1,8
288,320,55150,1,8
272,336,55266,1,8
248,344,55381,6,0,B|208:328|200:368|144:344,1,90,0|8
88,296,55843,1,0
160,240,56073,1,8
160,240,56189,2,0,B|160:168|80:128,1,135,0|8
152,72,56766,2,0,B|224:16,1,90,0|8
432,48,57227,6,0,B|360:112,1,90,0|8
364,107,57573,1,0
364,107,57689,1,0
384,192,57920,2,0,B|424:224,1,45,8|0
464,296,58266,1,0
448,312,58381,1,8
424,320,58496,1,0
400,312,58612,1,0
320,272,58843,1,8
144,328,59073,6,0,B|96:248,1,90,0|8
97,250,59420,1,0
8,248,59650,1,0
48,168,59881,1,0
136,168,60112,1,0
144,144,60227,1,8
152,120,60343,1,0
160,96,60458,2,0,B|264:96,1,90,0|8
360,200,60920,6,0,B|264:200,1,90,0|8
270,200,61266,1,0
270,200,61381,1,0
248,288,61612,1,8
328,328,61843,2,0,B|440:328,1,90,0|8
418,328,62189,1,0
418,328,62304,1,0
464,248,62535,1,8
384,200,62766,1,0
216,72,62996,6,0,B|160:64|136:120,1,90,8|0
216,152,63458,1,8
216,152,63573,1,0
136,192,63804,1,0
112,192,63920,1,8
88,184,64035,1,0
72,168,64150,1,0
56,80,64381,1,8
48,320,64612,6,0,B|88:352|136:320,1,90,0|8
192,256,65073,1,0
256,320,65304,1,8
272,336,65420,1,0
344,288,65650,1,0
360,272,65766,1,8
376,256,65881,1,0
392,240,65996,2,0,B|392:144,1,90,0|8
200,80,66458,6,0,B|200:176,1,90,0|8
200,170,66804,1,0
240,240,67035,2,0,B|200:272|152:240,1,90
88,184,67496,1,0
72,168,67612,1,8
56,152,67727,1,0
40,136,67843,1,0
112,80,68073,1,8
288,80,68304,5,0
360,136,68535,1,8
360,136,68650,1,0
360,136,68766,2,0,B|440:200,1,90,0|8
504,248,69227,1,0
488,264,69343,1,0
472,280,69458,1,8
456,296,69573,1,0
440,312,69689,1,0
256,336,69920,5,8
256,336,70035,1,0
256,336,70150,2,0,B|176:280,1,90,0|8
256,240,70612,2,0,B|176:184,1,90,0|8
256,144,71073,2,0,B|176:88,1,90,0|8
40,96,71535,2,0,B|120:152,1,90,0|8
40,192,71996,2,0,B|120:248,1,90,0|8
32,288,72458,2,0,B|112:344,1,90,0|8
328,336,72920,6,0,B|424:336,1,90,0|8
472,264,73381,1,0
416,192,73612,1,8
416,192,73727,1,0
416,192,73843,1,0
472,120,74073,1,8
472,120,74189,1,0
472,120,74304,2,0,B|400:48,1,90,0|8
320,56,74766,5,0
304,72,74881,1,0
288,88,74996,1,8
272,104,75112,1,0
256,120,75227,1,0
192,184,75458,1,8
192,328,75689,5,0
192,328,75804,1,0
192,328,75920,2,0,B|136:328,2,45,8|0|8
320,328,76381,1,8
320,328,76496,1,0
320,328,76612,2,0,B|376:328,2,45,0|0|8
256,272,77073,1,0
256,184,77304,5,8
256,184,77420,1,0
256,184,77535,2,0,B|256:96,1,90,0|8
256,94,77881,1,0
256,94,77996,1,0
336,56,78227,2,0,B|432:56,1,90,8|0
426,56,78573,1,0
426,56,78689,1,8
176,56,78920,2,0,B|80:56,1,90,0|8
128,192,79381,6,0,B|128:248|184:272,1,90,0|8
171,265,79727,1,0
171,265,79843,1,0
240,208,80073,1,8
304,272,80304,1,0
320,288,80419,1,0
336,304,80535,2,8,B|416:304|416:304|480:216,1,180,8|8
352,112,81227,6,0,B|288:40,1,90,0|8
292,44,81573,1,0
292,44,81689,1,0
160,24,81919,2,0,B|224:96,1,90,8|0
219,91,82266,1,0
219,91,82381,1,8
219,91,82612,1,0
280,160,82843,1,8
192,312,83073,6,0,B|96:312,1,90,0|8
102,312,83419,1,0
102,312,83535,1,0
72,232,83766,1,8
144,176,83996,1,0
144,176,84112,1,0
144,176,84227,1,8
216,232,84458,2,8,B|248:232,8,22.5
352,296,85150,5,8
352,296,85266,1,0
352,296,85381,2,0,B|408:296|432:240,1,90,0|8
424,160,85843,1,0
424,160,85958,1,0
424,160,86073,2,0,B|406:116|350:116,1,90,8|0
346,205,86535,1,8
205,110,86766,6,0,B|280:48,1,90,0|8
274,52,87112,1,0
274,52,87227,1,0
112,96,87458,2,0,B|42:153,1,90,8|0
42,152,87804,1,0
42,152,87919,1,8
120,200,88150,1,0
88,280,88381,1,8
256,344,88612,6,0,B|336:288,1,90,0|8
329,292,88958,1,0
329,292,89073,1,0
418,133,89304,2,0,B|344:184,1,90,8|0
344,184,89650,1,0
344,184,89766,1,8
266,237,89996,1,0
192,288,90227,1,8
192,104,90458,5,0
256,40,90689,1,8
256,40,90804,1,0
256,40,90919,2,0,B|344:80,1,90,0|8
424,40,91381,1,0
424,40,91496,1,0
424,40,91612,1,8
496,96,91843,6,0,B|528:160|464:224,1,134.999995976687,0|2
384,240,92535,1,0
368,256,92650,1,0
344,264,92766,1,0
256,232,92996,1,2
200,304,93227,1,0
176,296,93343,1,0
160,280,93458,2,0,B|120:256|136:200,1,90
