osu file format v5

[General]
AudioFilename: Younha - Houkiboshi.mp3
AudioLeadIn: 0
PreviewTime: -1
Countdown: 1
SampleSet: Normal
EditorBookmarks: 13571,25986,39953,52368,66335,78750,92717,105132,129962,143929

[Metadata]
Title:Houkiboshi
Artist:Younha
Creator:MaxwellDemon
Version:Easy

[Difficulty]
HPDrainRate:2
CircleSize:5
OverallDifficulty:2
SliderMultiplier:1.4
SliderTickRate:2

[Events]
//Background and Video events
0,0,"[Ningen]wallpapers-BLEACH-2-1280x1024.jpg"
//Break Periods
2,117771,128785
//Storyboard Layer 0 (Background)
//Storyboard Layer 1 (Failing)
//Storyboard Layer 2 (Passing)
//Storyboard Layer 3 (Foreground)
//Storyboard Sound Samples
//Background Colour Transformations
3,100,163,162,255

[TimingPoints]
1200,387.947756368809,4,1,0,100

[HitObjects]
96,112,13614,5,0
168,112,14002,1,0
240,112,14390,1,0
312,112,14778,2,0,B|400:112,1,70
432,160,15360,5,0
368,200,15748,1,0
296,200,16135,1,0
224,200,16523,1,2
112,280,17105,5,0
184,280,17493,1,0
256,280,17881,2,0,B|336:280,1,70
400,272,18463,5,0
408,200,18851,1,0
408,128,19239,1,0
408,56,19627,1,2
248,48,20209,5,0
176,48,20597,1,0
104,48,20985,2,0,B|104:144,1,70
72,192,21567,5,0
104,256,21955,1,0
176,256,22343,1,0
248,256,22731,1,2
352,208,23313,5,0
424,208,23700,1,0
424,280,24088,1,0
352,280,24476,1,0
248,280,25252,5,4
400,88,26028,5,0
328,88,26416,1,0
256,88,26804,1,0
256,160,27192,2,0,B|336:200,1,70
256,296,27774,5,0
256,224,28162,1,0
256,152,28550,1,0
328,152,28938,1,2
448,120,29520,5,0
376,120,29908,1,0
304,120,30296,2,0,B|304:216,1,70
232,192,30878,5,0
160,192,31265,1,0
88,192,31653,1,0
88,120,32041,1,2
160,192,32623,5,0
232,192,33011,1,0
304,192,33399,2,0,B|384:192,1,70
376,120,33981,5,0
296,120,34369,1,0
224,120,34757,1,0
152,120,35145,1,2
184,216,35727,5,0
256,216,36115,1,0
328,216,36503,1,0
400,216,36891,1,0
360,352,37667,5,0
288,352,38055,1,0
216,352,38442,1,0
160,160,39218,1,4
416,56,39994,6,0,B|440:72|484:96|464:184|448:248|432:280|408:312,1,280
352,272,41158,2,0,B|320:304|232:312|96:320|80:288|40:256|32:224|88:152,1,420
136,104,42710,2,0,B|184:64|232:40|304:24|376:24|408:48,1,280
456,72,43874,5,0
456,144,44262,1,0
440,208,44650,1,6
392,256,45038,1,6
328,280,45426,1,6
256,296,45813,1,0
184,288,46201,6,0,B|136:232|100:143|176:24,1,280
232,64,47365,1,0
296,32,47753,1,0
384,144,48529,1,0
240,136,49305,1,0
112,200,50081,1,0
248,200,50857,1,0
384,200,51633,1,0
488,288,52409,6,0,B|408:360|304:376|224:344,1,280
160,320,53572,2,0,B|112:304|104:224|96:168|104:88|120:32|151:11|272:24,1,420
320,48,55124,6,0,B|352:136|360:224|320:344,1,280
280,264,56288,5,0
264,192,56676,1,0
280,120,57064,1,0
208,240,57840,5,0
104,336,58616,1,0
40,208,59392,5,0
96,248,59780,1,0
160,272,60168,1,0
224,152,60943,5,0
296,152,61331,1,0
368,152,61719,1,0
224,152,62495,1,0
280,288,63271,5,0
248,152,64047,1,0
296,40,64823,1,0
256,304,66375,5,0
256,232,66763,1,0
256,160,67151,1,0
256,88,67539,2,0,B|352:120,1,70
392,88,68120,5,0
456,120,68508,1,0
456,192,68896,1,0
456,264,69284,1,2
328,248,69866,5,0
256,248,70254,1,0
184,248,70642,2,0,B|184:152,1,70
184,104,71224,5,0
256,104,71612,1,0
328,104,72000,1,0
328,176,72388,1,2
256,344,72970,5,0
256,272,73358,1,0
184,272,73746,2,0,B|88:272,1,70
72,216,74328,5,0
120,160,74716,1,0
184,136,75104,1,0
256,128,75491,1,2
296,224,76073,5,0
296,296,76461,1,0
224,296,76849,1,0
152,296,77237,1,0
136,160,78013,5,4
272,120,78789,5,0
200,120,79177,1,0
152,64,79565,1,0
224,64,79953,2,0,B|312:96,1,70
360,64,80535,5,0
432,64,80923,1,0
432,136,81311,1,0
432,208,81699,1,2
408,312,82281,5,0
336,312,82669,1,0
264,312,83056,2,0,B|176:312,1,70
144,256,83638,5,0
80,296,84026,1,0
80,224,84414,1,0
80,152,84802,1,2
144,64,85384,5,0
72,64,85772,1,0
72,136,86160,2,0,B|72:232,1,70
144,208,86742,5,0
216,208,87130,1,0
288,208,87518,1,0
240,264,87906,1,2
312,344,88488,5,0
384,344,88876,1,0
456,224,89652,1,0
456,80,90427,1,0
344,168,91203,1,0
208,136,91979,1,0
64,136,92755,6,0,B|112:104|216:80|320:88|352:120,1,280
376,168,93919,2,0,B|362:245|320:344|247:343|183:345|146:339|105:320|90:297|33:267|32:256,1,420
56,192,95471,2,0,B|128:192,2,70
104,136,96247,5,0
152,184,96635,1,0
200,136,97023,1,0
256,184,97411,1,6
304,136,97798,1,6
352,184,98186,1,0
400,136,98574,1,0
464,160,98962,6,0,B|336:128|192:32,1,280
160,88,100126,1,0
88,72,100514,1,0
120,208,101290,5,0
192,208,101678,1,0
192,280,102066,1,0
328,248,102842,1,0
440,336,103618,1,0
496,224,104394,1,0
448,96,105169,6,0,B|424:40|336:8|168:48,1,280
136,88,106333,2,0,B|200:248|278:217|376:264|424:216|456:168|480:120,1,420
400,112,107885,2,0,B|328:72|176:80|104:112,1,280
64,128,109049,1,0
24,336,109825,5,0
96,336,110213,1,0
168,336,110601,1,0
240,336,110989,1,0
312,336,111377,6,0,B|376:224|376:152|328:40,1,280
272,64,112541,1,0
200,64,112928,1,0
128,64,113316,1,0
128,136,113704,1,0
128,248,114480,5,0
272,248,115256,1,0
416,248,116032,1,0
416,112,116808,1,0
280,112,117584,1,6
112,88,129998,5,0
184,88,130386,1,0
256,88,130774,1,0
328,88,131162,2,0,B|392:136,1,70
344,192,131744,5,0
272,176,132132,1,0
200,176,132520,1,0
128,176,132908,1,2
152,280,133490,5,0
224,280,133878,1,0
296,280,134266,2,0,B|376:336,1,70
352,248,134848,5,0
400,200,135235,1,0
344,152,135623,1,0
296,200,136011,1,2
192,136,136593,5,0
120,136,136981,1,0
48,136,137369,2,0,B|80:224,1,70
48,272,137951,5,0
120,272,138339,1,0
192,272,138727,1,0
264,272,139115,1,2
320,176,139697,5,0
320,104,140085,1,0
320,32,140473,1,0
248,32,140861,1,0
144,48,141637,5,6
128,120,142025,1,6
128,192,142412,1,4
128,328,143188,1,4
304,320,143964,6,0,B|151:167|248:80|296:80,1,280
232,24,145128,2,0,B|380:61|399:213|342:321|300:346|266:338|248:368,1,420
192,352,146680,2,0,B|40:352,2,140
192,352,147844,1,0
200,176,148620,5,0
240,112,149008,1,0
312,104,149396,1,0
344,240,150074,6,0,B|257:278|24:280,1,315
32,208,151335,1,0
72,152,151723,1,0
40,88,152111,1,0
104,64,152499,1,0
176,64,152887,1,0
240,88,153275,1,0
360,152,154051,1,0
256,56,154827,5,0
352,152,155603,1,0
336,288,156379,6,0,B|296:176|160:95|112:184,1,280
80,216,157542,2,0,B|112:272|184:304|280:336|392:328|480:264,1,420
496,216,159094,2,0,B|439:106|368:80|280:56|256:56,1,280
208,88,160258,5,0
160,144,160646,1,0
88,160,161034,1,0
56,224,161422,1,0
120,256,161810,1,0
256,256,162586,6,0,B|304:320|352:360|440:384|528:360,1,280
480,296,163750,1,0
464,224,164138,1,0
416,168,164526,1,0
352,128,164913,1,0
216,152,165689,5,0
144,152,166077,1,0
72,152,166465,1,0
192,224,167241,1,0
328,264,168017,1,0
376,128,168793,6,0,B|280:80|216:64|96:120,1,280
80,176,169957,2,0,B|120:224|248:232|376:208|432:184|472:120,1,420
408,96,171509,2,0,B|351:48|256:15|160:21|128:40,1,280
144,104,172672,5,0
144,176,173060,1,0
216,176,173448,1,0
104,264,174224,1,0
96,120,175000,6,0,B|160:77|280:56|376:56,1,280
368,128,176164,1,0
368,200,176552,1,0
272,304,177328,5,0
200,304,177716,1,0
128,304,178104,1,0
128,160,178880,5,0
264,192,179655,1,0
400,208,180431,1,0
256,200,181207,1,0
