osu file format v12

[General]
AudioFilename: 201310 IN6 - TV-Size.mp3
AudioLeadIn: 0
PreviewTime: 74779
Countdown: 0
SampleSet: Soft
StackLeniency: 0.7
Mode: 0
LetterboxInBreaks: 1
WidescreenStoryboard: 1

[Editor]
DistanceSpacing: 1
BeatDivisor: 4
GridSize: 8
TimelineZoom: 1

[Metadata]
Title:Yakusoku no Kizuna (TV Size)
TitleUnicode:约束の绊 (TV Size)
Artist:Youmutoubatsutai
ArtistUnicode:妖夢討伐隊
Creator:Silver Crow
Version:Easy
Source:Kyoukai no Kanata
Tags:Taneda Risa Chihara Minori Yamaoka Yuri 境界の彼方 Shub-Niggurath Saya-Honmei
BeatmapID:330245
BeatmapSetID:129687

[Difficulty]
HPDrainRate:2
CircleSize:2
OverallDifficulty:2
ApproachRate:3
SliderMultiplier:1.4
SliderTickRate:1

[Events]
//Background and Video events
Video,-753,"[DHR&Hakugetsu&DMG][Kyoukai no Kanata][06][BIG5][480P][AVC_AAC] 00_18_41-00_21_31.avi"
0,0,"Yakuzoku.jpg",0,0
//Break Periods
//Storyboard Layer 0 (Background)
//Storyboard Layer 1 (Fail)
//Storyboard Layer 2 (Pass)
//Storyboard Layer 3 (Foreground)
//Storyboard Sound Samples
//Background Colour Transformations
3,100,0,0,0

[TimingPoints]
-1049,500.625782227785,4,2,1,60,1,0
75046,-100,4,2,1,60,0,1
115096,-100,4,2,1,40,0,0
143131,-100,4,2,1,60,0,1
160402,-100,4,2,1,60,0,0

[Colours]
Combo1 : 255,255,0
Combo2 : 255,128,255
Combo3 : 0,128,255

[HitObjects]
96,96,953,6,0,P|132:152|204:164,1,140,2|0,0:0|0:0,0:0:0:0:
312,80,1954,2,0,P|344:144|332:216,1,140,2|0,0:0|0:0,0:0:0:0:
208,272,2956,2,0,P|228:324|280:348,2,105,2|2|2,0:0|0:0|0:0,0:0:0:0:
308,172,4207,2,0,L|204:172,1,105,2|2,0:0|0:0,0:0:0:0:
256,192,4958,12,0,8713,0:0:0:0:
256,192,8963,12,0,12467,0:0:0:0:
100,132,12968,6,0,P|168:148|236:124,1,140,2|0,0:0|0:0,0:0:0:0:
352,192,13969,2,0,L|352:272,2,70,2|0|0,0:0|0:0|0:0,0:0:0:0:
328,56,14971,2,0,P|408:56|448:96,1,140,2|0,0:0|0:0,0:0:0:0:
400,232,15972,2,0,P|331:236|280:192,1,140,2|0,0:0|0:0,0:0:0:0:
184,96,16973,5,2,0:0:0:0:
64,24,17474,1,0,0:0:0:0:
56,160,17974,2,0,B|56:264|56:264|80:296,1,140,2|0,0:0|0:0,0:0:0:0:
192,216,18976,2,0,P|256:248|320:208,2,140,2|0|2,0:0|0:0|0:0,0:0:0:0:
112,104,20477,1,0,0:0:0:0:
232,32,20978,6,0,P|272:88|248:160,1,140,2|0,0:0|0:0,0:0:0:0:
176,264,21979,2,0,P|144:200|168:136,2,140,2|0|2,0:0|0:0|0:0,0:0:0:0:
288,184,23481,2,0,B|320:144|392:168|416:128,1,140,0|2,0:0|0:0,0:0:0:0:
360,264,24482,1,0,0:0:0:0:
360,264,24983,6,0,P|288:296|232:272,1,140,6|0,0:0|0:0,0:0:0:0:
96,272,25984,2,0,P|96:200|152:160,1,140,6|0,0:0|0:0,0:0:0:0:
240,56,26986,2,0,P|288:96|288:176,2,140,6|0|6,0:0|0:0|0:0,0:0:0:0:
144,160,28487,1,2,0:0:0:0:
256,192,28988,12,0,32492,0:0:0:0:
448,120,32993,6,0,P|384:152|376:216,1,140,2|2,0:0|0:0,0:0:0:0:
256,296,33994,2,0,L|344:296,2,70,2|0|2,0:0|0:0|0:0,0:0:0:0:
120,328,34996,2,0,P|120:256|168:200,1,140,2|2,0:0|0:0,0:0:0:0:
256,104,35997,2,0,P|304:152|288:224,2,140,2|2|2,0:0|0:0|0:0,0:0:0:0:
120,72,37499,1,2,0:0:0:0:
168,200,37999,2,0,P|208:256|272:240,1,140,2|2,0:0|0:0,0:0:0:0:
256,192,39001,12,0,40502,0:0:0:0:
376,96,41003,6,0,B|352:112|352:112|376:176|336:224,1,140,8|0,0:0|0:0,0:0:0:0:
216,160,42004,2,0,P|200:240|232:296,1,140,8|0,0:0|0:0,0:0:0:0:
88,264,43006,2,0,L|16:264,2,70,8|0|0,0:0|0:0|0:0,0:0:0:0:
104,128,44007,2,0,P|152:64|216:48,1,140,8|0,0:0|0:0,0:0:0:0:
256,104,44758,1,0,0:0:0:0:
312,64,45008,2,0,B|352:96|352:96|352:192,1,140,8|0,0:0|0:0,0:0:0:0:
224,232,46009,2,0,P|264:296|328:320,2,140,8|0|8,0:0|0:0|0:0,0:0:0:0:
88,200,47511,1,0,0:0:0:0:
184,96,48012,2,0,L|256:96,1,70,8|0,0:0|0:0,0:0:0:0:
320,96,48512,1,0,0:0:0:0:
424,184,49013,6,0,P|464:120|456:56,2,140,8|2|8,0:0|0:0|0:0,0:0:0:0:
368,232,50265,1,0,0:0:0:0:
296,240,50515,2,0,L|216:240,1,70,2|0,0:0|0:0,0:0:0:0:
160,232,51016,2,0,P|128:176|144:104,2,140,8|2|8,0:0|0:0|0:0,0:0:0:0:
240,120,52517,2,0,P|224:40|176:8,2,140,8|2|8,0:0|0:0|0:0,0:0:0:0:
360,192,54019,6,0,L|432:192,1,70,2|0,0:0|0:0,0:0:0:0:
456,256,54520,2,0,P|400:312|336:304,1,140,8|2,0:0|0:0,0:0:0:0:
232,232,55521,1,8,0:0:0:0:
128,136,56022,2,0,P|80:192|88:256,1,140,2|8,0:0|0:0,0:0:0:0:
120,320,56773,1,0,0:0:0:0:
184,352,57023,6,0,P|248:368|320:328,1,140,2|8,0:0|0:0,0:0:0:0:
376,216,58024,2,0,P|309:200|247:230,2,140,2|8|2,0:0|0:0|0:0,0:0:0:0:
432,168,59276,1,0,0:0:0:0:
432,96,59526,2,0,P|368:112|288:80,1,140,2|2,0:0|0:0,0:0:0:0:
240,128,60277,2,0,P|176:104|104:112,1,140,2|2,0:0|0:0,0:0:0:0:
48,152,61028,6,0,P|88:216|152:224,1,140,2|8,0:0|0:0,0:0:0:0:
216,344,62029,2,0,P|256:288|328:272,1,140,2|8,0:0|0:0,0:0:0:0:
440,200,63031,2,0,P|464:264|440:336,2,140,2|8|2,0:0|0:0|0:0,0:0:0:0:
344,104,64532,1,8,0:0:0:0:
208,136,65033,6,0,P|152:176|80:152,1,140,2|8,0:0|0:0,0:0:0:0:
168,40,66034,2,0,P|248:40|296:80,1,140,2|8,0:0|0:0,0:0:0:0:
328,208,67036,1,2,0:0:0:0:
264,240,67286,1,0,0:0:0:0:
200,264,67536,2,0,B|136:288|136:288|64:272,2,140,8|2|8,0:0|0:0|0:0,0:0:0:0:
152,128,69038,2,0,L|224:128,1,70,2|0,0:0|0:0,0:0:0:0:
296,128,69539,2,0,P|328:192|296:256,2,140,8|2|8,0:0|0:0|0:0,0:0:0:0:
256,192,71041,12,0,72542,0:0:0:0:
256,192,73043,6,0,P|328:168|384:192,1,140,2|2,0:0|0:0,0:0:0:0:
480,288,74044,2,0,P|408:320|352:296,1,140,2|2,0:0|0:0,0:0:0:0:
304,248,74795,1,0,0:0:0:0:
256,192,75046,6,0,P|208:152|128:160,1,140,8|2,0:0|0:0,0:0:0:0:
144,296,76047,2,0,L|176:232,2,70,8|0|2,0:0|0:0|0:0,0:0:0:0:
280,312,77048,2,0,B|312:312|312:312|384:296|384:296|424:296,1,140,8|2,0:0|0:0,0:0:0:0:
328,192,78049,1,8,0:0:0:0:
392,160,78300,1,0,0:0:0:0:
464,168,78550,1,2,0:0:0:0:
456,32,79051,6,0,P|392:8|328:40,1,140,8|2,0:0|0:0,0:0:0:0:
224,128,80052,2,0,L|296:128,2,70,8|0|2,0:0|0:0|0:0,0:0:0:0:
96,64,81053,2,0,L|96:144,1,70,8|0,0:0|0:0,0:0:0:0:
152,184,81554,2,0,L|152:256,1,70,2|0,0:0|0:0,0:0:0:0:
208,288,82054,2,0,P|264:328|336:320,1,140,8|2,0:0|0:0,0:0:0:0:
312,184,83056,5,8,0:0:0:0:
312,184,83556,2,0,P|384:176|440:224,2,140,2|2|2,0:0|0:0|0:0,0:0:0:0:
256,56,85058,2,0,L|256:128,1,70,2|0,0:0|0:0,0:0:0:0:
208,176,85559,2,0,B|176:208|176:208|176:312,1,140,2|2,0:0|0:0,0:0:0:0:
304,240,86560,2,0,L|376:240,1,70,2|0,0:0|0:0,0:0:0:0:
448,240,87061,2,0,P|464:168|432:104,1,140,2|2,0:0|0:0,0:0:0:0:
336,16,88062,2,0,P|320:88|352:152,1,140,2|2,0:0|0:0,0:0:0:0:
232,232,89063,6,0,B|168:240|168:240|88:224,2,140,2|2|2,0:0|0:0|0:0,0:0:0:0:
352,312,90565,5,2,0:0:0:0:
352,312,91066,2,0,L|496:312,2,140,8|0|2,0:0|0:0|0:0,0:0:0:0:
328,176,92568,1,0,0:0:0:0:
416,64,93068,2,0,P|472:112|472:184,2,140,8|2|8,0:0|0:0|0:0,0:0:0:0:
352,40,94320,1,0,0:0:0:0:
280,48,94570,2,0,B|248:48|248:48|176:72|176:72|136:72,1,140,2|8,0:0|0:0,0:0:0:0:
248,168,95571,6,0,P|320:176|376:128,2,140,2|8|2,0:0|0:0|0:0,0:0:0:0:
112,128,97073,2,0,L|112:208,1,70,8|0,0:0|0:0,0:0:0:0:
176,232,97574,2,0,L|176:312,1,70,2|0,0:0|0:0,0:0:0:0:
240,328,98074,2,0,P|304:352|376:328,1,140,8|2,0:0|0:0,0:0:0:0:
328,200,99076,5,8,0:0:0:0:
432,104,99576,2,0,P|376:56|304:64,1,140,2|8,0:0|0:0,0:0:0:0:
192,136,100578,2,0,L|264:136,1,70,2|0,0:0|0:0,0:0:0:0:
320,176,101078,2,0,P|328:240|288:304,1,140,8|2,0:0|0:0,0:0:0:0:
224,176,102079,2,0,P|187:118|194:49,2,140,8|2|8,0:0|0:0|0:0,0:0:0:0:
360,144,103581,1,2,0:0:0:0:
272,256,104082,2,0,P|308:313|301:382,1,140,8|2,0:0|0:0,0:0:0:0:
232,368,104833,1,0,0:0:0:0:
168,336,105083,6,0,L|144:264,1,70,8|0,0:0|0:0,0:0:0:0:
80,256,105584,2,0,L|56:184,1,70,2|0,0:0|0:0,0:0:0:0:
8,136,106084,2,0,P|56:88|128:88,2,140,8|2|8,0:0|0:0|0:0,0:0:0:0:
256,192,107336,12,0,109589,0:0:0:0:
256,192,110089,6,0,L|256:272,1,70,2|0,0:0|0:0,0:0:0:0:
256,336,110590,1,2,0:0:0:0:
368,256,111091,2,0,B|368:144|368:144|344:112,1,140,2|2,0:0|0:0,0:0:0:0:
216,104,112092,2,0,P|240:32|296:8,2,140,2|2|2,0:0|0:0|0:0,0:0:0:0:
112,192,113594,1,2,0:0:0:0:
240,240,114094,1,2,0:0:0:0:
216,104,114595,2,0,P|280:128|352:104,1,140,2|2,0:0|0:0,0:0:0:0:
392,240,115596,6,0,P|327:215|261:235,2,140,2|8|2,0:0|0:0|0:0,0:0:0:0:
288,336,117098,2,0,B|208:344|176:296|176:296|88:296,1,210,8|0,0:0|0:0,0:0:0:0:
56,232,118099,2,0,P|88:168|160:144,1,140,8|2,0:0|0:0,0:0:0:0:
280,88,119101,2,0,P|312:152|280:208,2,140,8|2|8,0:0|0:0|0:0,0:0:0:0:
336,48,120352,5,0,0:0:0:0:
408,64,120603,1,2,0:0:0:0:
456,120,120853,1,0,0:0:0:0:
448,192,121103,2,0,P|416:256|448:312,1,140,8|2,0:0|0:0,0:0:0:0:
312,336,122104,6,0,L|232:336,1,70,8|0,0:0|0:0,0:0:0:0:
176,304,122605,2,0,L|96:304,1,70,2|0,0:0|0:0,0:0:0:0:
48,264,123106,2,0,P|32:216|56:160,4,105,8|0|2|0|8,0:0|0:0|0:0|0:0|0:0,0:0:0:0:
184,216,125108,2,0,B|232:176|352:256|392:216,1,210,0|0,0:0|0:0,0:0:0:0:
424,160,126109,1,2,0:0:0:0:
392,96,126360,2,0,P|312:104|280:160,1,140,2|0,0:0|0:0,0:0:0:0:
256,216,127111,6,0,P|208:280|152:288,2,140,2|0|2,0:0|0:0|0:0,0:0:0:0:
128,168,128613,2,0,P|160:96|224:72,1,140,2|2,0:0|0:0,0:0:0:0:
280,96,129364,2,0,L|360:96,1,70,0|2,0:0|0:0,0:0:0:0:
424,216,130114,2,0,P|376:280|304:288,2,140,2|2|2,0:0|0:0|0:0,0:0:0:0:
432,144,131366,1,0,0:0:0:0:
400,80,131616,1,2,0:0:0:0:
288,160,132117,6,0,P|248:104|272:32,1,140,2|2,0:0|0:0,0:0:0:0:
200,16,132868,1,0,0:0:0:0:
136,40,133118,2,0,L|64:72,1,70,2|0,0:0|0:0,0:0:0:0:
8,96,133619,2,0,L|56:152,1,70,2|0,0:0|0:0,0:0:0:0:
104,192,134119,2,0,B|128:216|128:216|144:288|216:280,1,140,2|2,0:0|0:0,0:0:0:0:
312,200,135121,6,0,L|248:160,2,70,2|0|2,0:0|0:0|0:0,0:0:0:0:
376,80,136122,2,0,L|440:120,2,70,2|0|2,0:0|0:0|0:0,0:0:0:0:
312,48,136873,1,0,0:0:0:0:
248,16,137123,2,0,P|184:24|152:88,1,140,2|2,0:0|0:0,0:0:0:0:
136,224,138124,2,0,P|208:224|256:168,2,140,2|2|8,0:0|0:0|0:0,0:0:0:0:
24,304,139626,5,0,0:0:0:0:
160,336,140127,2,0,L|232:336,1,70,8|0,0:0|0:0,0:0:0:0:
304,336,140628,2,0,L|384:336,1,70
440,328,141128,2,0,P|496:280|496:216,2,140,8|8|8,0:0|0:0|0:0,0:0:0:0:
360,216,142630,5,2,0:0:0:0:
448,104,143131,2,0,L|368:104,1,70,8|0,0:0|0:0,0:0:0:0:
312,104,143631,1,2,0:0:0:0:
184,56,144132,1,8,0:0:0:0:
120,80,144382,1,0,0:0:0:0:
96,144,144633,1,2,0:0:0:0:
232,184,145133,6,0,P|200:256|136:280,2,140,8|2|8,0:0|0:0|0:0,0:0:0:0:
312,72,146635,1,2,0:0:0:0:
384,192,147136,2,0,L|424:256,2,70,8|0|2,0:0|0:0|0:0,0:0:0:0:
312,72,148137,2,0,P|248:56|184:96,1,140,8|2,0:0|0:0,0:0:0:0:
48,104,149138,2,0,P|48:176|104:208,1,140,8|2,0:0|0:0,0:0:0:0:
240,208,150139,6,0,L|168:208,2,70,8|0|2,0:0|0:0|0:0,0:0:0:0:
288,152,150890,1,0,0:0:0:0:
360,144,151141,2,0,P|416:176|448:248,1,140,12|2,0:0|0:0,0:0:0:0:
328,320,152142,2,0,L|416:320,2,70,8|0|2,0:0|0:0|0:0,0:0:0:0:
200,256,153143,6,0,P|176:192|208:128,1,140,8|2,0:0|0:0,0:0:0:0:
304,32,154144,2,0,P|320:104|288:160,1,140,8|2,0:0|0:0,0:0:0:0:
208,40,155146,2,0,L|136:40,2,70,8|0|2,0:0|0:0|0:0,0:0:0:0:
344,80,156147,2,0,P|328:152|256:168,1,140,8|2,0:0|0:0,0:0:0:0:
152,248,157148,6,0,L|80:248,3,70,8|8|8|8,0:0|0:0|0:0|0:0,0:0:0:0:
40,192,158149,2,0,P|88:136|160:128,1,140,8|2,0:0|0:0,0:0:0:0:
216,248,159151,2,0,P|168:304|96:312,2,140,8|2|8,0:0|0:0|0:0,0:0:0:0:
256,192,160402,1,0,0:0:0:0:
296,136,160653,2,0,P|344:80|416:72,1,140,2|8,0:0|0:0,0:0:0:0:
432,208,161654,6,0,P|392:272|320:288,1,140,0|8,0:0|0:0,0:0:0:0:
264,296,162405,2,0,L|184:296,1,70,0|2,0:0|0:0,0:0:0:0:
72,224,163156,1,8,0:0:0:0:
112,88,163656,1,2,0:0:0:0:
248,80,164157,1,8,0:0:0:0:
304,208,164658,1,2,0:0:0:0:
192,296,165158,2,0,P|152:232|176:160,2,140,8|2|8,0:0|0:0|0:0,0:0:0:0:
256,192,166910,12,0,168663,0:0:0:0:
