osu file format v5

[General]
AudioFilename: 022 Petal Meadows.mp3
AudioLeadIn: 2007
PreviewTime: -1
Countdown: 1
SampleSet: Soft
StackLeniency: 0.7
Mode: 0
LetterboxInBreaks: 1
EditorBookmarks: 15234,30000,45000
EditorDistanceSpacing: 1.20000004768372

[Metadata]
Title:Petal Meadows
Artist:Yoshito Hirano, Yuka Tsujiyoko
Creator:0_o
Version:Normal
Source:Paper Mario: The Thousand Year Door
Tags:gamecube nintendo

[Difficulty]
HPDrainRate:5
CircleSize:4
OverallDifficulty:5
SliderMultiplier:1.7
SliderTickRate:1

[Events]
//Background and Video events
0,0,"Petal_meadows.JPG"
//Break Periods
//Storyboard Layer 0 (Background)
//Storyboard Layer 1 (Failing)
//Storyboard Layer 2 (Passing)
//Storyboard Layer 3 (Foreground)
//Storyboard Sound Samples
//Background Colour Transformations
3,100,163,162,255

[TimingPoints]
100,468.75,4,2,0,70,1,0
29982,-100,4,2,0,60,0,0
37482,-100,4,2,0,70,0,0
43459,-100,4,2,0,73,0,0
43810,-100,4,2,0,75,0,0
44162,-100,4,2,0,80,0,0
44514,-100,4,2,0,100,0,0

[HitObjects]
88,296,100,1,2
144,208,334,1,0
200,296,568,2,2,B|287:335|351:278,2,127.5,2|2|0
256,208,1506,1,2
216,112,1740,6,0,B|337:112,1,85,0|2
375,182,2209,1,0
393,81,2443,2,2,B|482:89|486:196,1,127.5
467,260,3029,2,0,B|331:260,1,127.5,0|10
72,312,3849,5,0
120,216,4084,1,0
72,120,4318,2,2,B|131:68|187:124,1,127.5
208,216,4904,2,0,B|200:296|272:328,1,127.5,0|2
360,320,5490,1,0
312,224,5724,5,2
360,136,5959,1,0
440,200,6193,2,2,B|488:128|456:64,1,127.5
360,48,6779,2,0,B|320:80|304:8|232:72,1,127.5,0|8
72,304,7599,6,0,B|72:216,1,85,8|2
128,128,8068,2,2,B|200:168|208:248,1,127.5
304,227,8654,2,2,B|309:170|381:130,1,127.5,0|8
432,216,9240,2,0,B|432:328,1,85,2|8
336,344,9709,1,0
256,272,9943,2,0,B|256:120,1,127.5,10|10
226,46,10529,6,8,B|200:88|256:112|312:88|272:32,1,127.5,2|10
128,304,11349,5,2
64,224,11584,1,0
96,128,11818,1,2
184,80,12052,2,0,B|184:56|184:32,1,42.5,2|2
280,56,12404,2,0,B|344:24|424:88,1,127.5,2|4
480,128,12990,1,4
488,288,13224,6,4,B|423:252,1,42.5,4|0
390,185,13576,1,4
288,183,13810,2,2,B|226:150,1,42.5,0|4
179,89,14162,1,4
35,35,14513,2,0,B|35:259,1,212.5,0|2
232,232,15568,5,2
232,336,15802,1,0
320,284,16037,2,2,B|384:316|416:380,2,127.5
232,232,16974,2,0,B|168:200|136:136,2,127.5,0|2|2
320,176,17912,1,0
464,224,18263,1,0
464,72,18615,1,0
360,72,18849,5,2
176,152,19318,1,0
72,152,19552,1,0
136,232,19787,2,2,B|192:304|288:288,2,127.5,2|2|0
72,152,20724,2,2,B|88:72|192:48,1,127.5
272,152,21427,1,4
272,48,21662,2,4,B|360:48|416:120,1,127.5
448,296,22365,5,0
344,296,22599,1,2
136,296,23068,1,8
32,296,23302,1,0
80,208,23537,2,2,B|144:168|232:232,1,127.5,2|2
256,352,24240,1,2
360,336,24474,2,2,B|408:272|344:216,1,127.5,2|2
248,104,25177,1,2
168,32,25412,2,2,B|104:88|184:176,1,127.5,0|2
288,224,26115,1,0
392,224,26349,5,10
272,56,26818,1,2
168,56,27052,1,0
80,104,27287,2,8,B|8:152|48:240,1,127.5
88,360,27990,1,0
144,272,28224,2,10,B|208:232|296:280,1,127.5
416,296,28927,1,6
360,208,29162,2,4,B|312:248|352:352,2,127.5
408,80,30099,5,0
360,56,30217,1,0
256,40,30451,1,0
104,48,30802,2,0,B|56:64|24:136,1,85
96,344,31740,5,0
48,248,31974,2,0,B|136:208|200:216,1,127.5
264,336,32677,2,0,B|312:304|320:240,1,85
376,128,33263,1,0
88,80,33849,5,0
136,64,33967,1,0
200,144,34201,1,0
344,192,34552,2,0,B|312:264|256:272,1,85
16,248,35373,6,0,B|64:328|152:336,1,127.5
263,350,36076,1,0
373,243,36427,1,0
467,205,36662,2,2,B|443:125|379:101,2,127.5
448,328,37599,6,0,B|376:328,1,42.5,8|0
312,280,37951,1,0
168,232,38302,1,0
80,176,38537,2,0,B|32:128|16:56,2,127.5,0|0|0
168,232,39474,5,8
224,88,39826,1,0
360,152,40177,1,0
416,232,40412,2,0,B|472:168|472:112,2,127.5,0|0|0
344,320,41349,6,0,B|272:320,1,42.5,8|0
256,224,41701,1,0
112,272,42052,2,0,B|56:208|72:160,1,85
66,45,42638,1,0
219,52,42990,1,0
304,112,43224,5,4
322,159,43342,1,0
359,253,43576,1,4
352,303,43693,1,0
252,323,43927,2,4,B|188:299,1,42.5,4|4
117,268,44279,2,0,B|117:188,1,42.5,4|4
150,125,44631,5,0
256,152,44865,1,0
363,179,45099,1,2
400,320,45568,5,8
456,232,45802,2,2,B|456:136,1,85
456,40,46271,1,2
360,96,46506,5,8
264,56,46740,2,0,B|264:152,1,85,2|0
176,192,47209,2,0,B|176:104,1,85,2|8
88,160,47677,2,0,B|88:256,1,85,2|0
88,344,48146,1,8
184,304,48381,2,0,B|232:280|312:312,1,85,0|8
360,344,48849,1,8
472,72,49318,5,8
384,120,49552,1,0
456,192,49787,2,2,B|400:264|344:240,1,85
288,240,50256,1,8
296,136,50490,2,2,B|208:144|200:224,1,85
184,264,50959,2,2,B|104:208|144:160,1,85,2|10
152,96,51427,2,2,B|96:96|40:184,1,85
32,224,51896,1,8
64,320,52131,2,8,B|104:352|192:328,2,85,8|10|10
264,288,53068,6,0,B|344:336|408:328,1,85,8|0
432,272,53537,1,2
480,176,53771,1,2
392,128,54006,1,8
304,176,54240,1,2
261,83,54474,1,0
223,177,54709,1,2
179,268,54943,1,8
141,175,55177,1,2
100,81,55412,1,0
60,174,55646,1,2
97,269,55881,2,8,B|7:269,2,85
417,298,56818,5,8
360,213,57052,1,2
416,127,57287,1,4
356,45,57521,1,4
255,31,57756,1,8
154,43,57990,6,0,B|154:155,1,85,0|0
51,128,58459,2,0,B|51:228,1,85,8|0
68,313,58927,2,0,B|204:313,1,85,8|0
255,314,59396,1,4
255,211,59631,2,4,B|255:107,1,85,4|6
256,24,60099,1,2
