osu file format v5

[General]
AudioFilename: 02_-_dopo_il_sogno_~yume_no_ato_ni~.mp3
AudioLeadIn: 0
PreviewTime: -1
Countdown: 2
SampleSet: Soft
StackLeniency: 0.7
Mode: 0
LetterboxInBreaks: 1
EditorDistanceSpacing: 0.800000011920929

[Metadata]
Title:dopo il sogno
Artist:Yoshitaka Kitanami
Creator:marcusg
Version:Easy
Source:Gunslinger Girls
Tags:anime, opera,

[Difficulty]
HPDrainRate:3
CircleSize:5
OverallDifficulty:2
SliderMultiplier:1.6
SliderTickRate:2

[Events]
//Background and Video events
0,0,"gunslinger_girl_01-1024.jpg"
//Break Periods
2,44911,59874
2,105690,116076
//Storyboard Layer 0 (Background)
//Storyboard Layer 1 (Failing)
//Storyboard Layer 2 (Passing)
//Storyboard Layer 3 (Foreground)
//Storyboard Sound Samples
//Background Colour Transformations
3,100,128,0,64

[TimingPoints]
-532.51842317301,779.220779220779,4,2,0,100,1,0

[HitObjects]
56,264,9646,1,0
56,184,10425,1,0
56,96,11204,1,0
128,96,11935,6,14,B|336:96|336:96|480:96,1,320
448,160,14272,5,0
448,240,15051,6,14,B|112:240,1,320
64,240,17438,6,4,B|64:72,1,160
144,80,18607,1,0
144,143,18997,2,8,B|144:144|144:232|144:232|216:232,1,160
288,232,20555,5,0
288,168,20945,2,0,B|288:88,1,80
40,224,22113,5,0
40,136,22503,1,0
136,224,22893,1,0
136,136,23282,1,0
208,184,23672,2,8,B|376:184,2,160
40,40,26010,5,2
112,112,26789,1,2
176,32,27373,1,2
240,104,27568,1,2
312,40,28152,1,2
384,112,28347,1,2
112,232,29467,6,12,B|168:152|168:152|256:152|320:152,1,240
400,160,32243,1,0
400,272,33022,1,0
352,248,34971,1,0
456,248,35360,1,0
408,320,36139,1,0
280,112,37698,5,6
184,40,38818,2,8,B|104:72|64:168|224:240,1,240
208,72,41594,5,8
256,192,43152,12,4,44711
40,168,61074,5,2
144,120,61854,1,2
256,168,62633,1,2
335,167,63412,2,4,B|448:281,1,160
456,336,64581,2,0,B|416:336,6,40
344,336,66529,1,0
272,248,67893,5,2
248,296,68087,1,2
184,232,68672,1,2
152,280,68867,1,2
72,208,69256,1,2
288,112,70425,6,12,B|288:8|176:40,2,160
304,184,72568,5,2
400,184,72763,2,0,B|400:88|400:88|296:88,1,160
264,88,73883,1,0
192,88,74272,1,0
120,88,74711,1,0
56,128,74906,1,0
104,192,75100,2,8,B|296:192,2,160
80,96,77438,2,4,B|152:16|224:16|288:112,1,240
384,112,78997,5,8
384,176,79776,2,14,B|384:352,1,160
312,336,81529,1,2
312,256,81919,1,10
144,256,82844,1,2
144,136,84256,1,0
224,136,84451,2,0,B|368:80|296:288,1,240
160,216,86789,5,0
80,112,88347,1,0
208,80,89224,1,0
192,168,90295,2,0,B|240:168,1,40
232,240,90685,2,0,B|192:240,4,40
328,80,92633,5,8
408,80,92973,1,8
408,152,93363,1,8
408,224,93802,2,6,B|288:224,3,80
256,192,95311,5,6
256,192,96139,12,4,100035
256,184,100815,5,4
256,192,101594,12,4,105490
