osu file format v9

[General]
AudioFilename: Shadow Hearts Covenant - The 3 Karma (Final Battle).mp3
AudioLeadIn: 0
PreviewTime: 58107
Countdown: 1
SampleSet: Soft
StackLeniency: 0.7
Mode: 0
LetterboxInBreaks: 1

[Editor]
Bookmarks: 124095
DistanceSpacing: 1
BeatDivisor: 4
GridSize: 4

[Metadata]
Title:The 3 Karma
Artist:Yoshitaka Hirota
Creator:-Lennox-
Version:Snowy
Source:Shadow Hearts Covenant
Tags:OnosakiHito Snowy Dream Yasunori Mitsuda Kenji Ito Tomoko Kobayashi Ryo Fukuda Teru21

[Difficulty]
HPDrainRate:5
CircleSize:4
OverallDifficulty:6
ApproachRate:7
SliderMultiplier:1.5
SliderTickRate:1

[Events]
//Background and Video events
0,0,"The-Darkness.jpg"
//Break Periods
//Storyboard Layer 0 (Background)
//Storyboard Layer 1 (Fail)
//Storyboard Layer 2 (Pass)
//Storyboard Layer 3 (Foreground)
//Storyboard Sound Samples
//Background Colour Transformations
3,100,0,0,0

[TimingPoints]
30667.0117041273,428.571428571429,4,2,1,50,1,0
37417,-100,4,2,1,50,0,0
37631,-100,4,1,1,50,0,0
42452,-100,4,1,1,30,0,0
43309,-100,4,1,1,50,0,0
58095,-100,4,2,0,50,0,0
71797,-100,4,2,1,50,0,0
76095,-100,4,2,1,55,0,0
76738,-100,4,2,1,60,0,0
77381,-100,4,2,1,10,0,0
78357,-100,4,2,1,50,0,0
78881,-100,4,1,0,50,0,1
78893,-80,4,1,1,50,0,1
81881,-80,4,1,1,50,0,0
82095,-80,4,1,1,50,0,1
85309,-80,4,1,1,50,0,0
85524,-80,4,1,1,50,0,1
88738,-80,4,1,1,50,0,0
88952,-80,4,1,1,50,0,1
92381,-100,4,1,1,50,0,0
92595,-100,4,2,2,50,0,0
106107,-100,4,2,2,50,0,0

[Colours]
Combo1 : 109,147,108
Combo2 : 136,0,0
Combo3 : 173,132,249

[HitObjects]
256,192,27238,12,4,30666
192,148,30881,5,0
116,156,31095,2,0,B|76:152|40:172,1,75,8|0
52,244,31524,2,0,B|48:284|68:316,1,75
92,344,31845,2,0,B|184:304|276:344,1,187.5
340,308,32595,5,0
340,308,32702,1,0
340,308,32809,1,8
396,256,33024,1,0
376,184,33238,2,0,B|360:148|368:112,1,75
352,76,33559,2,0,B|264:32|168:76,1,187.5
120,128,34309,5,0
100,160,34417,1,0
96,196,34524,1,8
156,240,34738,1,0
228,264,34952,2,0,B|236:300,1,37.5
312,296,35274,2,0,B|348:308,1,37.5
412,172,35809,6,0,B|440:144|444:100,2,75,0|0|8
336,164,36452,1,0
264,148,36667,2,0,B|252:108,1,37.5
180,124,36988,2,0,B|144:108,1,37.5
96,252,37524,6,0,B|76:324,2,75,6|0|8
168,276,38167,2,0,B|188:204,1,75
264,196,38595,1,0
264,196,38702,1,0
444,256,39238,6,0,B|452:296|436:336,2,75,0|0|8
392,200,39881,1,0
428,136,40095,2,0,B|452:104,1,37.5
384,72,40417,2,0,B|372:32,1,37.5
240,104,40952,6,0,B|188:156,1,75
116,136,41381,2,0,B|116:209,1,75,8|0
48,240,41809,2,0,B|100:292,1,75
132,316,42131,1,0
160,340,42238,1,0
320,252,42667,6,0,B|356:236|396:248,1,75
436,308,43095,2,0,B|400:324|360:312,1,75,8|0
288,328,43524,1,0
340,124,43952,1,0
136,172,44381,5,4
96,236,44595,1,0
172,240,44809,2,0,B|184:276|212:308,2,75,8|0|0
364,136,46309,6,0,B|384:128|396:112,2,37.5,8|0|8
300,96,46738,1,0
292,172,46952,2,0,B|280:212|296:248,1,75
360,284,47381,2,0,B|372:244|356:208,1,75
432,208,47809,5,0
464,140,48024,1,0
400,100,48238,2,0,B|380:64|380:28,2,75,8|0|0
176,124,49309,6,0,B|160:160|172:200,1,75,8|8
244,220,49738,1,0
280,288,49952,2,0,B|272:324|288:364,1,75,8|0
348,316,50381,2,0,B|367:347|407:364,1,75,8|8
432,292,50809,1,0
456,220,51024,6,0,B|468:204|472:188,2,37.5,8|0|12
384,196,51452,1,8
320,156,51667,2,0,B|296:128|284:88,2,75,8|8|8
80,336,52952,5,0
80,260,53167,1,0
152,236,53381,1,8
152,236,53595,1,0
220,268,53809,2,0,B|256:260|300:264,1,75
356,220,54238,1,0
408,272,54452,1,0
484,284,54667,5,0
464,136,55095,1,8
412,84,55309,1,0
264,92,55738,2,0,B|224:88|188:104,2,75
340,104,56381,5,0
340,192,56809,1,0
300,304,57238,1,0
152,332,57667,1,0
60,176,58095,5,4
176,84,58524,1,2
252,92,58738,2,0,B|272:88|288:88,2,37.5
208,152,59167,1,0
232,224,59381,1,2
376,268,59809,5,0
432,216,60024,2,0,B|448:228|456:244,2,37.5,0|0|2
436,140,60452,1,0
432,216,60667,1,0
376,268,60881,2,0,B|364:304|372:344,1,75,0|2
240,280,61524,6,0,B|208:296|164:292,1,75,4|0
112,244,61952,1,2
272,104,62381,2,0,B|304:88|348:92,1,75
400,140,62809,1,2
256,192,63238,5,0
256,192,63452,1,0
256,192,63667,1,2
188,324,64095,2,0,B|216:352|256:368|296:352|324:328,1,150,0|2
388,192,64952,5,4
360,120,65167,1,0
360,120,65274,1,0
360,120,65381,1,2
292,88,65595,2,0,B|256:76|216:88,1,75
152,120,66024,1,0
128,192,66238,1,2
256,272,66667,5,4
256,196,66881,1,0
256,196,66988,1,0
256,196,67095,1,2
320,232,67309,2,0,B|372:288,1,75
192,232,67738,2,0,B|140:288,1,75,4|2
328,132,68381,5,4
180,132,68809,1,2
300,220,69238,1,0
352,272,69452,1,0
424,292,69667,2,0,B|460:276|480:244,2,75,2|0|4
376,348,70309,5,0
376,348,70417,1,0
376,348,70524,1,2
304,328,70738,1,0
240,292,70952,2,0,B|200:276|160:292,1,75
124,352,71381,2,0,B|164:368|204:352,1,75,2|0
92,284,71809,5,14
124,136,72238,1,10
420,284,72667,1,14
388,136,73096,1,10
332,276,73524,1,10
256,276,73738,1,2
180,276,73952,1,10
180,108,74381,1,10
256,108,74595,1,2
332,108,74809,1,10
256,192,75238,5,14
408,192,75667,1,10
256,192,76095,1,10
104,192,76524,1,10
256,192,76952,12,0,78238
256,240,78667,6,0,B|256:160,1,75,4|0
316,92,79095,1,8
396,140,79309,1,0
408,184,79417,1,0
400,228,79524,1,0
340,300,79738,1,0
248,324,79952,2,0,B|200:372|120:372|72:328,1,187.499997206032,8|4
152,164,80809,5,8
216,96,81024,1,0
260,84,81131,1,0
308,92,81238,1,0
376,156,81452,2,0,B|396:200|376:248,1,93.7499986030162,0|8
300,300,81881,2,0,B|280:256|300:208,1,93.7499986030162,4|4
144,312,82524,5,8
72,140,82952,1,0
144,80,83167,1,0
216,140,83381,1,8
144,200,83595,1,0
144,200,83702,1,0
144,200,83809,2,0,B|176:240|228:248,1,93.7499986030162,4|0
228,340,84238,2,0,B|278:345|321:314,1,93.7499986030162,8|0
356,232,84667,1,0
440,192,84881,1,0
360,140,85095,1,8
200,236,85524,6,0,B|160:204|164:152,1,93.7499986030162,4|0
220,80,85952,2,0,B|260:112|256:164,1,93.7499986030162,8|0
96,212,86381,2,0,B|77:164|106:121,1,93.7499986030162
320,108,86809,2,0,B|338:155|309:198,1,93.7499986030162,8|0
264,280,87238,5,4
172,280,87452,1,0
172,280,87559,1,0
172,280,87667,1,8
220,360,87881,1,0
92,264,88095,2,0,B|108:212|160:200,1,93.7499986030162
280,200,88524,2,0,B|327:210|343:262,1,93.7499986030162,8|4
436,272,88952,5,4
456,180,89167,1,0
456,180,89274,1,0
456,180,89381,1,8
376,128,89595,2,0,B|356:84|364:36,2,93.7499986030162
332,212,90238,2,0,B|268:192|208:236|140:212,1,187.499997206032,8|4
60,180,90881,5,0
48,224,90988,1,0
68,264,91095,1,8
152,308,91309,1,0
248,308,91524,2,0,B|292:292|348:300,1,93.7499986030162
428,264,91952,1,8
460,176,92167,1,0
404,100,92381,5,4
353,43,92595,1,2
285,73,92809,1,0
293,147,93024,1,2
366,165,93238,1,0
76,236,94095,5,0
68,160,94309,1,0
68,160,94417,1,0
68,160,94524,1,2
136,192,94738,2,0,B|168:176|212:180,1,75,0|2
284,184,95167,1,0
416,224,95381,2,0,B|384:240|340:236,1,75
272,260,95809,2,2,B|260:280|256:304,2,37.5,4|0|0
128,100,97309,6,0,B|148:64|180:48,1,75,2|8
108,180,97738,1,0
108,180,97952,2,0,B|92:256|132:324,1,150,2|10
208,336,98595,5,10
244,344,98702,1,2
280,340,98809,1,0
340,296,99024,1,8
372,280,99131,1,0
408,280,99238,1,2
456,224,99452,1,0
420,156,99667,2,0,B|404:120|412:84,2,75,2|0|2
120,124,100952,5,8
84,192,101167,1,2
120,204,101274,1,0
156,192,101381,2,0,B|192:176|232:188,1,75,4|0
372,216,101809,2,0,B|336:232|296:220,1,75,8|0
288,76,102238,2,0,B|304:112|292:152,1,75,2|0
256,192,102667,12,0,104167
184,240,104381,6,0,B|168:248|152:268,3,37.5
80,260,104809,2,0,B|74:276|77:302,3,37.5,0|0|0|0
148,328,105238,2,0,B|149:345|160:357,5,25
180,356,105613,2,0,B|208:364,9,18.75,0|0|0|0|0|0|0|0|0|4
288,244,106524,6,0,B|232:220|232:144|276:112,1,150,10|0
300,52,107167,2,0,B|356:76|356:152|312:184,1,150,10|10
364,240,107809,1,8
428,280,108024,2,0,B|440:320|432:356,2,75,0|10|8
456,132,108881,1,10
456,132,109095,1,8
312,84,109524,5,6
236,72,109738,1,0
260,144,109952,2,0,B|220:176|260:260|220:292,1,150,8|0
156,312,110595,1,10
56,260,110917,2,0,B|44:220,1,37.5,2|10
76,156,111238,5,0
140,116,111452,1,0
212,132,111667,1,2
280,160,111881,2,0,B|304:192|340:208,1,75,8|0
408,180,112309,1,2
464,232,112524,2,0,B|476:272|464:312,1,75,8|0
400,344,112952,5,4
336,308,113167,1,0
264,324,113381,2,0,B|228:332|180:320,1,75,8|0
116,316,113809,1,0
56,272,114024,1,10
96,168,114345,2,0,B|128:192,1,37.5,10|0
196,216,114667,5,10
260,176,114881,1,0
332,192,115095,1,8
400,156,115309,2,0,B|436:140|460:112,1,75,8|0
400,64,115738,1,10
332,28,115952,2,0,B|296:44|272:72,1,75,8|0
332,120,116381,5,8
368,264,116809,1,10
160,180,117452,1,8
180,108,117774,1,10
192,72,117881,1,8
268,72,118095,5,8
304,216,118524,1,2
288,288,118738,1,8
140,264,119167,1,2
116,336,119381,1,8
208,152,119809,5,6
348,96,120238,1,10
420,228,120667,1,8
420,228,120881,1,2
332,296,121202,1,10
296,312,121309,1,8
228,280,121524,2,0,B|192:272|148:280,1,75,8|0
84,252,121952,1,2
60,180,122167,1,8
256,192,122381,12,4,124095
