osu file format v7

[General]
AudioFilename: Yoshino Yuuji - Shounin to Ookami to, Tabi no Nibasha.mp3
AudioLeadIn: 3000
PreviewTime: 122376
Countdown: 0
SampleSet: Soft
StackLeniency: 0.6
Mode: 0
LetterboxInBreaks: 1

[Editor]
DistanceSpacing: 0.800000011920929
BeatDivisor: 4
GridSize: 8

[Metadata]
Title:Shounin to Ookami to, Tabi no Nibasha
Artist:Yoshino Yuuji
Creator:Colin Hou
Version:Hard
Source:Spice and Wolf
Tags:Horo Lawrence OST Impossiblexu

[Difficulty]
HPDrainRate:6
CircleSize:4
OverallDifficulty:5
SliderMultiplier:2
SliderTickRate:2

[Events]
//Background and Video events
0,0,"Background_0.jpg"
//Break Periods
2,22645,30585
2,58872,66811
2,95947,103604
2,131607,139264
//Storyboard Layer 0 (Background)
//Storyboard Layer 1 (Fail)
//Storyboard Layer 2 (Pass)
//Storyboard Layer 3 (Foreground)
//Storyboard Sound Samples
//Background Colour Transformations
3,100,163,162,255

[TimingPoints]
653.276599768684,566.037735849057,4,2,1,50,1,0
4898,-100,4,1,1,50,0,0
22021,-100,4,1,1,50,0,0
22308,-100,4,1,1,0,0,0
22870,-100,4,1,1,50,0,0
58541,-100,4,1,1,0,0,0
58824,-100,4,1,1,50,0,0
95323,-100,4,1,1,0,0,0
95907,-100,4,1,1,50,0,0
130983,-100,4,1,1,0,0,0
131574,-100,4,1,1,50,0,0
159002,-100,4,1,1,100,0,0

[HitObjects]
112,80,653,2,0,L|216:80,1,100
256,16,1219,1,0
296,80,1502,1,0
344,144,1785,2,0,B|296:184|248:144,1,100
184,112,2351,1,0
104,112,2634,1,0
144,184,2917,6,0,B|144:288,1,100
192,352,3483,1,0
256,312,3766,1,0
216,240,4049,2,0,B|200:176|280:184,2,100
368,272,5040,5,0
368,272,5181,2,0,L|368:168,1,100,2|0
432,128,5747,2,0,L|432:336,1,200,0|2
496,368,6596,1,0
496,288,6879,2,0,B|496:224,3,50
496,200,7445,2,0,B|520:120|440:152,1,100,2|0
376,176,8011,2,0,L|336:232,2,50
384,96,8577,2,0,B|320:8|208:8,1,200,2|0
176,80,9426,1,0
104,48,9709,6,0,B|72:32|24:64|32:104,1,100,2|0
104,128,10275,2,0,B|160:128|200:168,2,100,0|0|2
24,144,11124,1,0
80,208,11407,2,0,B|56:229|24:240,4,50,0|0|0|0|2
144,248,12257,1,0
96,312,12540,2,0,B|152:352|208:296,1,100
224,240,13106,1,2
136,104,13672,6,0,B|96:144,4,50,0|0|0|0|2
204,144,14521,1,0
280,128,14804,2,0,B|272:24|272:24|160:72,1,200,0|2
204,144,15653,1,0
120,144,15936,2,0,B|136:80|64:56,1,100
40,136,16502,2,0,B|0:136|0:96,2,50,2|0|0
80,208,17068,1,0
80,208,17209,1,0
80,208,17351,1,0
40,280,17634,2,0,B|104:312|144:256,1,100,2|0
160,200,18200,6,0,B|176:168|208:168,4,50,2|0|0|0|2
200,264,19049,1,0
152,328,19332,2,0,B|200:360|256:344|296:296|272:232,1,200,0|2
200,264,20181,1,0
136,216,20464,2,0,B|112:192|72:216,4,50,0|0|0|0|2
208,176,21313,1,0
280,136,21596,1,0
296,176,21738,1,0
328,200,21879,1,0
400,160,22162,2,0,B|432:232|360:272,1,100,2|0
80,264,31785,5,0
152,296,32068,1,2
200,224,32351,2,0,B|200:120|200:120|280:184,1,200,2|0
352,192,33200,1,0
432,208,33483,1,2
352,192,33766,1,0
352,272,34049,1,0
272,256,34332,1,0
200,296,34615,2,0,B|240:336,2,50,2|0|0
136,248,35181,1,0
136,248,35323,1,0
136,248,35464,1,0
136,248,35606,1,0
136,248,35747,2,0,B|56:240|32:128|112:96,1,200,2|0
152,168,36596,5,0
152,168,36738,1,0
152,168,36879,2,0,B|216:192|216:256,1,100,2|0
184,312,37445,2,0,B|208:368|280:352,1,100,2|0
265,354,37870,1,0
265,354,38011,2,0,B|280:296|360:312,1,100
400,368,38577,1,0
424,288,38860,1,0
368,232,39143,1,2
288,248,39426,1,0
344,312,39709,2,0,B|352:344|312:384,2,50
264,320,40275,2,0,B|176:288|176:176|280:120|352:176|360:224,1,300,2|2
448,80,41407,5,0
408,152,41691,1,0
368,80,41974,2,0,B|272:136|160:72,1,200,0|2
104,48,42823,1,0
104,128,43106,2,0,B|16:144,1,50
64,176,43389,2,0,B|120:168,1,50
144,144,43672,2,0,B|192:144|168:240,1,100,2|0
96,248,44238,2,0,B|64:240|16:280,2,50
96,328,44804,2,0,B|144:344|192:296,1,100,2|0
304,192,45370,5,0
264,120,45653,1,0
344,120,45936,2,0,B|320:64|392:40,1,100,2|0
464,32,46502,2,0,B|488:88|416:112,1,100
400,184,47068,1,2
454,247,47351,1,0
416,320,47634,2,0,B|448:368,4,50,0|0|0|0|2
376,256,48483,1,0
296,256,48766,1,0
336,320,49049,1,0
256,328,49332,2,0,B|232:368|168:360|152:312,1,100,2|0
112,240,49898,5,2
152,168,50181,1,0
80,200,50464,1,2
152,216,50747,1,0
104,152,51030,2,0,B|216:152,1,100
280,136,51596,1,2
312,208,51879,1,0
384,176,52162,1,0
448,224,52445,1,0
440,304,52728,2,0,B|472:320|472:352,2,50,2|0|0
368,264,53294,2,0,B|352:296|320:288,2,50
432,224,53860,2,0,B|448:200|440:144|416:128,1,100,0|2
264,152,54426,5,0
344,152,54709,1,0
344,232,54992,2,0,B|336:288|296:296|248:296,1,100,2|0
256,224,55558,2,0,B|237:222|197:230|189:286,1,100
128,240,56124,2,0,B|146:241|186:233|194:177,1,100,2|0
112,168,56691,2,0,B|80:152|72:208,4,50,0|0|0|0|2
160,104,57540,1,0
208,40,57823,1,0
248,32,57964,1,0
288,48,58106,1,0
240,112,58389,2,0,B|264:160|328:160,1,100
408,88,68011,5,0
408,168,68294,1,2
400,248,68577,2,0,B|368:328|216:320,1,200,2|0
144,320,69426,1,0
72,352,69709,1,2
80,272,69992,1,0
152,240,70275,1,0
216,288,70558,1,0
144,320,70841,2,0,B|176:376,2,50,2|0|0
104,248,71407,5,0
104,248,71549,1,0
104,248,71691,1,0
104,248,71832,1,0
104,248,71974,2,0,B|24:248|16:104|96:96,1,200,2|0
160,72,72823,5,0
240,72,73106,2,0,B|368:72,1,100,2|0
392,136,73672,2,0,B|272:136,1,100
263,164,74096,1,0
234,192,74238,2,0,B|234:304,1,100,2|0
290,348,74804,2,0,B|410:348,1,100
446,291,75370,2,0,B|446:187,1,100,2|0
389,134,75936,2,0,B|427:94,2,50
328,192,76502,2,0,B|272:256|184:256|128:216,1,200,2|0
208,88,77351,5,0
208,88,77492,1,0
208,88,77634,2,0,B|248:40|304:72,1,100,2|0
264,144,78200,2,0,B|216:192|272:264,1,100
253,235,78624,1,0
253,235,78766,2,0,B|301:283|245:355,1,100,2|0
192,368,79332,1,0
120,336,79615,1,0
128,256,79898,2,0,B|120:232|88:224,4,50,2|0|0|0|0
200,288,80747,1,0
360,312,81030,5,2
456,184,81313,1,0
344,72,81596,1,2
344,72,81738,1,0
200,136,82021,1,0
200,136,82162,2,0,B|144:88|96:128,1,100,0|0
108,119,82587,1,0
108,119,82728,2,0,B|72:136|56:176,8,50,0|0|0|0|2|0|0|0|2
136,192,84143,5,0
184,128,84426,2,0,B|288:128,1,100,2|0
312,200,84992,2,0,B|200:200,1,100
248,272,85558,2,0,B|384:272,1,100,2|0
392,344,86124,2,0,B|280:344,1,100,2|0
248,272,86691,6,0,B|144:288,1,100,2|0
72,296,87257,2,0,B|120:192,1,100,2|0
120,128,87823,2,0,B|64:128,2,50,2|0|0
144,96,88247,1,0
184,96,88389,2,0,B|184:40,2,50,2|0|0
176,152,88813,5,0
176,152,88955,2,0,B|240:56|328:184|368:72,1,200,2|2
400,32,89804,1,0
432,104,90087,2,0,B|464:152|440:216,1,100,2|0
416,224,90511,1,0
384,248,90653,2,0,B|352:296|376:360,1,100,2|0
224,280,91219,6,0,B|160:256,1,50,2|0
136,248,91502,2,0,B|80:224,1,50
56,208,91785,2,0,B|0:160|24:88|72:64|128:80,1,200,2|2
192,104,92634,1,0
116,78,92917,1,2
128,160,93200,6,0,B|160:192|128:224,2,50,0|0|0
192,104,93766,1,0
224,80,93907,1,0
264,80,94049,1,0
336,120,94332,1,0
272,264,94615,6,0,B|232:208|288:152,1,100,2|0
344,216,95181,2,0,B|376:184|432:208|392:288|520:288,1,200,2|0
96,64,104804,6,0,B|144:8|232:112|296:56,1,200,2|0
416,152,105936,2,0,B|368:96|280:200|216:144,1,200,2|0
144,136,106785,1,0
168,216,107068,2,0,B|248:240|144:312|312:328,1,200,2|0
384,344,107917,1,0
464,360,108200,2,0,B|472:296|416:272,1,100,2|0
344,256,108766,1,0
72,56,109332,6,0,B|72:128|72:128|152:128|152:224,1,200,2|0
152,368,110464,2,0,B|152:296|152:296|72:296|72:200,1,200,0|0
152,208,111313,1,0
104,144,111596,2,0,L|72:104|24:120,2,100,2|0|2
152,208,112445,1,0
200,272,112728,2,0,L|232:312|280:296,2,100,2|0|2
152,208,113577,1,0
288,128,113860,6,0,B|352:136|344:200,1,100,2|0
392,256,114426,2,0,B|448:200|424:104|376:72|336:72,1,200,0|2
304,40,115275,1,0
224,40,115558,2,0,B|160:40,4,50,0|0|0|0|2
264,112,116407,1,0
344,112,116691,2,0,B|408:112,2,50
264,112,117257,2,0,B|264:184|160:224|112:160,1,200,2|2
176,112,118106,1,2
128,48,118389,6,0,L|72:48|24:96,2,100,2|0|0
208,40,119238,1,0
256,104,119521,2,0,L|280:152|336:152,1,100,2|0
328,72,120087,2,0,L|384:72,4,50,0|0|0|0|2
328,152,120936,1,0
264,200,121219,2,0,B|288:248|360:232,1,100
408,176,121785,2,0,B|464:224|448:312|376:344|320:336,1,200,0|2
367,333,122492,5,0
367,333,122634,1,2
367,333,122775,1,0
367,333,122917,2,0,B|314:364|263:364,1,100,2|0
192,360,123483,2,0,B|120:336|64:264|40:200,1,200,0|2
48,144,124332,1,0
48,64,124615,1,0
48,144,124898,1,0
120,104,125181,2,0,B|176:104,2,50,2|0|0
120,184,125747,2,0,B|120:240,2,50
200,176,126313,2,0,B|224:240|304:264|384:248,1,200,2|2
369,250,127021,5,0
369,250,127162,1,0
369,250,127304,1,0
369,250,127445,2,0,B|424:280|424:336,1,100,2|0
344,328,128011,2,0,B|272:304|272:200|344:168,1,200,0|2
408,136,128860,1,0
440,208,129143,2,0,B|464:240|496:256,4,50,0|0|0|0|2
408,136,129992,1,0
376,64,130275,2,0,B|360:32|328:16,2,50
408,136,130841,2,0,B|240:136|384:200|208:200,1,200,2|2
320,232,140464,6,0,B|288:280|328:336,1,100
392,360,141030,2,0,B|480:264|384:184,1,200,2|2
320,152,141879,1,0
312,72,142162,2,0,B|352:32|352:32|408:32,1,100,2|0
472,64,142728,2,0,B|432:104|432:104|376:104,1,100
320,152,143294,2,0,B|256:152,2,50,2|0|0
392,192,143860,1,0
392,192,144002,1,0
432,192,144143,1,0
432,192,144285,1,0
480,192,144426,2,0,B|480:288|448:336|384:368,1,200,2|0
384,280,145275,6,0,B|328:256,1,50
304,248,145558,2,0,B|208:192|280:168|160:88,1,200,2|2
64,64,146549,1,0
64,64,146691,2,0,B|16:112|64:168,1,100
128,120,147257,2,0,B|160:184|88:232,1,100
64,272,147823,1,2
113,211,148106,1,0
144,288,148389,2,0,B|160:320|160:352,2,50
192,224,148955,2,0,B|248:208|320:184|296:344|432:368|536:240|464:128,1,400,2|2
456,96,150370,5,0
376,96,150653,2,0,B|320:96|320:96|288:136,1,100
360,176,151219,2,0,B|464:176,1,100,2|0
464,256,151785,2,0,B|462:285|480:312,4,50,0|0|0|0|2
384,256,152634,5,0
320,312,152917,2,0,B|248:344|176:312|160:232,1,200,0|2
152,160,153766,1,0
232,184,154049,2,0,B|272:192|272:224,4,50,0|0|0|0|2
216,104,154898,5,0
248,32,155181,2,0,B|352:88|304:224,1,200,0|2
288,280,156030,1,0
264,360,156313,2,0,B|224:360|208:384,4,50,0|0|0|0|2
344,344,157162,5,0
344,344,157445,1,0
344,344,157728,1,0
344,344,158011,2,0,B|400:312|392:240,1,100,2|0
392,262,158577,1,0
392,262,158860,1,0
336,112,159143,5,2
192,192,159426,1,2
104,56,159709,1,2
