osu file format v14

[General]
AudioFilename: optc.mp3
AudioLeadIn: 0
PreviewTime: 57881
Countdown: 0
SampleSet: None
StackLeniency: 0.7
Mode: 0
LetterboxInBreaks: 0
WidescreenStoryboard: 0

[Editor]
DistanceSpacing: 1.6
BeatDivisor: 3
GridSize: 4
TimelineZoom: 2.7

[Metadata]
Title:Kimi o Sagashi ni
TitleUnicode:きみを探しに
Artist:Yoshino Nanjo
ArtistUnicode:南條愛乃
Creator:Shad0w1and
Version:Misure's Hard
Source:グリザイアの楽園
Tags:Grisaia no Rakuen - LE EDEN DE LA GRISAIA - fripSide Nanjou Dynamix Little CloudSplash16 Misure Narcissu Ascendance
BeatmapID:1016417
BeatmapSetID:474696

[Difficulty]
HPDrainRate:4
CircleSize:3.8
OverallDifficulty:6
ApproachRate:7.8
SliderMultiplier:1.35
SliderTickRate:1

[Events]
//Background and Video events
Video,0,"optc.flv"
0,0,"BG4.png",0,0
//Break Periods
//Storyboard Layer 0 (Background)
//Storyboard Layer 1 (Fail)
//Storyboard Layer 2 (Pass)
//Storyboard Layer 3 (Foreground)
//Storyboard Sound Samples

[TimingPoints]
24,342.857142857143,4,3,1,35,1,0
366,-125,4,3,1,35,0,0
1395,-125,4,3,1,45,0,0
10995,-100,4,2,1,70,0,0
23338,-125,4,3,1,50,0,0
34309,-111.111111111111,4,2,1,60,0,0
47852,-99.9999999999999,4,2,1,70,0,0
58824,-90.9090909090909,4,2,1,85,0,1
69452,-90.9090909090909,4,2,1,75,0,0
69795,-90.9090909090909,4,2,1,85,0,1
79566,-125,4,2,1,70,0,0
80938,-100,4,2,1,75,0,0

[Colours]
Combo1 : 200,181,140
Combo2 : 155,206,170
Combo3 : 174,189,202
Combo4 : 210,157,173

[HitObjects]
292,47,367,5,0,0:0:0:0:
362,103,538,2,0,P|361:157|358:211,1,108,0|0,0:0|0:0,0:0:0:0:
153,243,1224,1,0,0:0:0:0:
153,243,1396,6,0,P|206:239|255:260,1,108,2|0,0:0|0:0,0:0:0:0:
292,47,2082,2,0,P|238:50|189:29,2,108,0|0|0,0:0|0:0|0:0,0:0:0:0:
381,24,2939,5,0,0:0:0:0:
439,93,3110,2,0,P|466:100|492:106,2,54,0|0|0,0:0|0:0|0:0,0:0:0:0:
351,119,3624,1,0,0:0:0:0:
287,186,3796,2,0,P|285:212|295:237,1,54,0|0,0:0|0:0,0:0:0:0:
372,286,4139,6,0,L|265:301,1,108,2|0,0:0|0:0,0:0:0:0:
124,157,4824,2,0,L|17:141,2,108
137,67,5682,6,0,P|110:65|85:75,1,54
124,157,6024,2,0,P|151:159|176:149,1,54
263,174,6366,2,0,L|259:227,1,54
206,303,6710,6,0,P|255:281|308:285,1,108,2|0,0:0|0:0,0:0:0:0:
382,339,7224,1,0,0:0:0:0:
454,282,7396,2,0,L|470:175,1,108
284,72,8082,6,0,P|263:120|273:173,1,108,2|0,0:0|0:0,0:0:0:0:
356,132,8596,1,0,0:0:0:0:
160,68,8939,1,0,0:0:0:0:
160,68,9110,1,0,0:0:0:0:
256,192,9452,12,0,10424,0:0:0:0:
504,238,10824,5,0,0:0:0:0:
504,238,10909,1,0,0:0:0:0:
504,238,10996,6,0,P|469:237|438:251,1,67.5,6|0,0:0|0:0,0:0:0:0:
360,302,11339,1,8,0:0:0:0:
285,244,11510,2,0,L|273:109,1,135,10|8,0:1|0:1,0:0:0:0:
214,39,12024,1,8,0:0:0:0:
164,120,12196,1,0,0:0:0:0:
73,148,12367,6,0,P|39:150|8:138,2,67.5,10|0|8,0:1|0:0|0:0,0:0:0:0:
164,120,12882,2,0,L|152:255,1,135,10|8,0:1|0:1,0:0:0:0:
122,344,13396,1,8,0:0:0:0:
214,324,13567,1,0,0:0:0:0:
291,377,13739,6,0,P|324:381|358:383,1,67.5,10|0,0:1|0:0,0:0:0:0:
398,297,14082,1,8,0:0:0:0:
370,206,14253,2,0,P|305:187|247:217,1,135,10|8,0:1|0:1,0:0:0:0:
187,143,14767,1,8,0:0:0:0:
241,65,14939,6,0,P|309:66|375:63,1,135,10|8,0:1|0:1,0:0:0:0:
473,89,15453,2,0,L|465:121,3,33.75,8|8|8|8,0:1|0:1|0:1|0:1,0:0:0:0:
427,150,15796,2,0,L|444:215,1,67.5,8|8,0:3|0:1,0:0:0:0:
512,282,16139,1,0,0:0:0:0:
448,351,16310,1,0,0:0:0:0:
448,351,16396,1,0,0:0:0:0:
448,351,16482,6,0,P|417:365|384:363,1,67.5,6|0,0:0|0:0,0:0:0:0:
308,306,16824,1,8,0:0:0:0:
329,213,16996,2,0,P|262:218|195:226,1,135,10|8,0:1|0:1,0:0:0:0:
130,295,17510,1,8,0:0:0:0:
53,238,17682,1,0,0:0:0:0:
86,150,17853,6,0,P|117:139|150:143,1,67.5,10|0,0:1|0:0,0:0:0:0:
195,226,18196,1,8,0:0:0:0:
259,158,18367,2,0,L|265:91|271:24,1,135,10|8,0:1|0:1,0:0:0:0:
365,13,18882,1,8,0:0:0:0:
357,107,19053,1,0,0:0:0:0:
430,166,19224,6,0,P|462:172|495:164,2,67.5,10|0|8,0:1|0:0|0:0,0:0:0:0:
381,248,19739,2,0,P|313:254|246:262,1,135,10|8,0:1|0:1,0:0:0:0:
165,214,20253,1,8,0:0:0:0:
225,139,20424,6,0,P|258:196|247:261,1,135,6|8,0:0|0:1,0:0:0:0:
164,310,20939,2,0,L|153:342,2,33.75,8|8|8,0:1|0:1|0:1,0:0:0:0:
76,272,21282,1,8,0:3:0:0:
72,176,21453,2,0,P|39:177|5:179,1,67.5,10|0,0:1|0:0,0:0:0:0:
48,76,21796,6,0,P|107:47|172:63,1,135,6|0,0:0|0:0,0:0:0:0:
217,145,22310,1,8,0:0:0:0:
289,78,22482,2,0,P|357:71|424:63,1,135,10|0,0:1|0:0,0:0:0:0:
423,63,22995,1,8,0:1:0:0:
489,240,23339,6,0,P|440:262|387:256,1,108,2|0,0:0|0:0,0:0:0:0:
333,181,23853,1,0,0:0:0:0:
253,227,24024,2,0,P|256:278|260:334,1,108,0|0,0:0|0:0,0:0:0:0:
97,168,24710,6,0,P|145:145|198:151,1,108,0|0,0:0|0:0,0:0:0:0:
253,227,25224,1,0,0:0:0:0:
333,181,25395,2,0,P|329:130|326:74,1,108,0|0,0:0|0:0,0:0:0:0:
161,235,26082,6,0,P|112:257|59:251,1,108,2|0,0:0|0:0,0:0:0:0:
63,33,26767,2,0,P|115:26|164:49,1,108
262,197,27453,1,0,0:0:0:0:
395,48,27796,2,0,P|341:50|287:53,2,108,0|0|0,0:0|0:0|0:0,0:0:0:0:
500,228,28824,6,0,P|515:176|501:125,1,108,2|0,0:0|0:0,0:0:0:0:
423,175,29339,1,0,0:0:0:0:
346,123,29510,2,0,P|294:136|241:147,1,108,0|0,0:0|0:0,0:0:0:0:
38,228,30196,6,0,P|22:176|36:125,1,108,0|0,0:0|0:0,0:0:0:0:
115,175,30710,1,0,0:0:0:0:
195,125,30882,2,0,P|199:99|203:72,1,54,0|0,0:0|0:0,0:0:0:0:
98,13,31224,2,0,P|102:39|107:66,1,54,0|0,0:0|0:0,0:0:0:0:
195,126,31567,6,0,P|221:130|248:135,1,54,2|0,0:0|0:0,0:0:0:0:
346,37,31910,2,0,P|320:40|293:45,1,54,0|0,0:0|0:0,0:0:0:0:
344,161,32253,2,0,P|396:168|447:149,1,108
195,125,32939,6,0,L|197:152|199:179,1,54,0|0,0:0|0:0,0:0:0:0:
151,258,33282,1,0,0:0:0:0:
211,326,33453,2,0,P|264:320|318:312,1,108
351,226,33966,2,0,L|353:199|355:172,1,54
416,99,34310,6,0,P|360:76|302:92,1,121.499996292114,6|0,0:0|0:0,0:0:0:0:
355,172,34824,2,0,P|411:194|469:179,1,121.499996292114,8|0,0:1|0:0,0:0:0:0:
303,91,35339,2,0,L|242:96,1,60.7499981460572,8|0,0:0|0:0,0:0:0:0:
125,203,35682,6,0,L|246:193,1,121.499996292114,10|0,0:1|0:0,0:0:0:0:
242,96,36196,2,0,L|120:86,1,121.499996292114,8|0,0:1|0:0,0:0:0:0:
49,166,36710,1,8,0:0:0:0:
49,166,36881,1,0,0:0:0:0:
102,256,37053,6,0,P|132:258|161:250,1,60.7499981460572,10|0,0:1|0:0,0:0:0:0:
246,193,37396,1,0,0:0:0:0:
322,247,37567,2,0,L|309:367,1,121.499996292114,8|0,0:1|0:0,0:0:0:0:
397,310,38081,1,8,0:0:0:0:
397,310,38423,6,0,P|427:309|454:297,1,60.7499981460572,10|0,0:1|0:0,0:0:0:0:
472,202,38766,2,0,P|456:176|432:158,1,60.7499981460572,0|8,0:0|0:1,0:0:0:0:
340,190,39109,2,0,P|325:216|321:246,1,60.7499981460572,2|0,0:0|0:0,0:0:0:0:
236,292,39452,1,8,0:0:0:0:
37,204,39796,6,0,L|54:324,1,121.499996292114,10|0,0:1|0:0,0:0:0:0:
151,325,40310,2,0,L|168:204,1,121.499996292114,4|0,0:0|0:0,0:0:0:0:
136,112,40824,2,0,P|108:118|75:112,1,60.7499981460572,8|0,0:0|0:0,0:0:0:0:
235,39,41167,6,0,P|221:97|243:153,1,121.499996292114,4|0,0:0|0:0,0:0:0:0:
316,90,41682,2,0,L|437:99,1,121.499996292114,10|0,0:1|0:0,0:0:0:0:
492,173,42196,1,8,0:0:0:0:
442,339,42539,6,0,P|413:348|383:345,1,60.7499981460572,10|0,0:1|0:0,0:0:0:0:
343,261,42882,2,0,P|371:251|401:254,1,60.7499981460572,0|8,0:0|0:1,0:0:0:0:
291,339,43224,1,2,0:0:0:0:
207,296,43396,1,0,0:0:0:0:
116,276,43567,2,0,P|112:305|122:334,1,60.7499981460572,8|0,0:0|0:0,0:0:0:0:
171,212,43910,6,0,P|112:221|51:230,1,121.499996292114,10|0,0:1|0:0,0:0:0:0:
4,149,44424,1,8,0:1:0:0:
43,64,44596,2,0,P|73:65|103:71,1,60.7499981460572,2|8,0:0|0:1,0:0:0:0:
192,107,44938,2,0,P|222:106|251:99,1,60.7499981460572,8|0,0:0|0:0,0:0:0:0:
326,29,45282,6,0,P|357:26|386:34,2,60.7499981460572,6|0|0,0:0|0:0|0:0,0:0:0:0:
347,121,45796,2,0,L|336:242,1,121.499996292114,8|8,0:1|0:1,0:0:0:0:
397,313,46310,1,8,0:0:0:0:
309,367,46482,6,0,P|252:384|194:371,1,121.499996292114,8|8,0:3|0:1,0:0:0:0:
114,312,46996,1,8,0:0:0:0:
163,228,47167,1,8,0:1:0:0:
163,228,47253,1,8,0:1:0:0:
163,228,47339,1,10,0:1:0:0:
255,229,47510,2,0,L|248:289,1,60.7499981460572,8|0,0:0|0:0,0:0:0:0:
163,228,47853,6,0,L|177:93,1,135,6|8,0:0|0:1,0:0:0:0:
244,26,48367,2,0,P|277:26|310:19,2,67.5,8|0|8,0:0|0:0|0:3,0:0:0:0:
177,94,48882,1,8,0:1:0:0:
241,163,49053,1,8,0:0:0:0:
318,109,49224,6,0,P|386:106|451:123,1,135,10|8,0:1|0:1,0:0:0:0:
505,200,49739,1,8,0:0:0:0:
484,291,49910,1,2,0:0:0:0:
392,312,50082,2,0,P|386:345|389:378,2,67.5,8|8|8,0:3|0:1|0:0,0:0:0:0:
410,217,50596,6,0,P|351:218|274:216,1,135,10|8,0:1|0:1,0:0:0:0:
191,262,51110,2,0,P|178:292|178:326,1,67.5,8|0,0:0|0:0,0:0:0:0:
270,311,51453,1,8,0:3:0:0:
275,216,51624,2,0,L|271:148,1,67.5,8|8,0:1|0:0,0:0:0:0:
177,164,51967,6,0,P|112:183|46:177,1,135,10|8,0:1|0:1,0:0:0:0:
2,91,52482,1,8,0:0:0:0:
70,26,52653,2,0,P|103:21|135:30,1,67.5,8|8,0:1|0:3,0:0:0:0:
222,71,52996,1,8,0:1:0:0:
304,24,53167,1,8,0:0:0:0:
398,62,53339,6,0,L|407:196,1,135,6|8,0:0|0:3,0:0:0:0:
312,188,53853,2,0,L|307:121,1,67.5,8|0,0:0|0:0,0:0:0:0:
257,265,54196,1,8,0:1:0:0:
340,306,54366,2,0,L|345:373,1,67.5,8|8,0:3|0:0,0:0:0:0:
459,356,54709,6,0,P|498:303|492:237,1,135,6|8,0:0|0:1,0:0:0:0:
407,197,55224,1,8,0:0:0:0:
312,188,55396,1,0,0:0:0:0:
283,98,55566,2,0,L|288:31,2,67.5,8|8|8,0:3|0:1|0:3,0:0:0:0:
179,152,56082,6,0,P|154:213|176:275,1,135,6|8,0:0|0:1,0:0:0:0:
318,223,56596,2,0,L|250:216,1,67.5,10|8,0:1|0:1,0:0:0:0:
112,159,56939,2,0,L|180:152,1,67.5,8|8,0:1|0:1,0:0:0:0:
310,72,57281,1,8,0:0:0:0:
217,61,57453,1,8,0:3:0:0:
396,110,57624,6,0,P|406:77|401:44,1,67.5,10|8,0:1|0:3,0:0:0:0:
131,19,57967,2,0,P|121:52|126:85,1,67.5,8|8,0:0|0:1,0:0:0:0:
310,72,58310,1,8,0:0:0:0:
243,223,58482,1,10,0:1:0:0:
243,223,58824,6,0,L|94:216,1,148.50000453186,6|8,0:0|0:1,0:0:0:0:
4,260,59339,1,8,0:0:0:0:
56,345,59510,2,0,P|92:340|121:318,1,74.2500022659302,10|8,0:1|0:3,0:0:0:0:
95,216,59853,1,8,0:1:0:0:
172,151,60024,1,8,0:0:0:0:
242,223,60196,6,0,P|217:291|243:360,1,148.50000453186,10|8,0:1|0:1,0:0:0:0:
307,144,60709,2,0,P|238:121|172:151,1,148.50000453186,8|8,0:0|0:3,0:0:0:0:
129,238,61224,1,8,0:1:0:0:
59,166,61396,1,8,0:0:0:0:
110,73,61567,6,0,P|180:53|243:87,1,148.50000453186,10|8,0:1|0:1,0:0:0:0:
275,182,62082,1,8,0:0:0:0:
360,130,62253,2,0,L|432:116,1,74.2500022659302,10|8,0:1|0:3,0:0:0:0:
481,203,62596,1,8,0:1:0:0:
439,294,62767,1,8,0:0:0:0:
349,251,62939,6,0,L|199:244,1,148.50000453186,10|8,0:1|0:1,0:0:0:0:
138,323,63453,2,0,P|101:328|67:314,2,74.2500022659302,8|8|8,0:0|0:1|0:3,0:0:0:0:
200,244,63967,1,8,0:1:0:0:
120,184,64139,1,8,0:0:0:0:
177,88,64310,6,0,L|325:98,1,148.50000453186,6|8,0:0|0:1,0:0:0:0:
396,149,64824,2,0,P|370:174|335:186,1,74.2500022659302,8|8,0:0|0:1,0:0:0:0:
334,7,65167,2,0,P|370:18|397:43,1,74.2500022659302,8|8,0:3|0:1,0:0:0:0:
243,131,65510,2,0,P|234:95|243:59,1,74.2500022659302,8|8,0:0|0:1,0:0:0:0:
335,186,65853,6,0,L|483:175,1,148.50000453186,10|8,0:1|0:0,0:0:0:0:
512,87,66367,1,8,0:1:0:0:
475,265,66539,2,0,L|401:271,1,74.2500022659302,8|8,0:3|0:1,0:0:0:0:
335,186,66882,1,8,0:0:0:0:
106,248,67224,6,0,P|102:284|116:318,1,74.2500022659302,6|0,0:0|0:0,0:0:0:0:
203,268,67567,1,8,0:0:0:0:
170,173,67739,1,10,0:1:0:0:
329,8,68082,1,8,0:3:0:0:
472,196,68424,6,0,L|327:228,1,148.50000453186,6|8,0:0|0:1,0:0:0:0:
151,228,68939,1,8,0:3:0:0:
189,136,69110,1,8,0:1:0:0:
289,136,69281,1,8,0:0:0:0:
327,228,69452,1,10,0:1:0:0:
168,375,69796,6,0,L|151:228,1,148.50000453186,6|8,0:0|0:1,0:0:0:0:
78,157,70310,1,8,0:0:0:0:
123,67,70482,2,0,P|159:61|194:73,1,74.2500022659302,10|8,0:1|0:3,0:0:0:0:
265,143,70824,1,8,0:1:0:0:
343,79,70996,1,8,0:0:0:0:
422,142,71167,6,0,L|396:289,1,148.50000453186,10|8,0:1|0:1,0:0:0:0:
292,289,71682,2,0,L|265:142,1,148.50000453186,8|8,0:0|0:3,0:0:0:0:
163,151,72196,1,8,0:1:0:0:
144,250,72367,1,8,0:0:0:0:
49,218,72539,6,0,P|23:149|42:77,1,148.50000453186,10|8,0:1|0:1,0:0:0:0:
139,103,73053,1,8,0:0:0:0:
206,29,73224,2,0,L|286:23,1,74.2500022659302,10|8,0:1|0:3,0:0:0:0:
370,65,73567,1,8,0:1:0:0:
355,163,73739,1,8,0:0:0:0:
272,216,73910,6,0,P|271:289|310:351,1,148.50000453186,6|8,0:0|0:1,0:0:0:0:
408,372,74424,1,8,0:0:0:0:
481,286,74596,2,0,L|406:280,1,74.2500022659302,10|0,0:1|0:0,0:0:0:0:
406,179,74938,2,0,L|480:173,1,74.2500022659302,8|0,0:0|0:0,0:0:0:0:
468,73,75282,6,0,P|397:53|331:82,1,148.50000453186,6|8,0:0|0:1,0:0:0:0:
309,180,75796,1,8,0:0:0:0:
218,142,75967,2,0,P|184:155|147:155,2,74.2500022659302,8|8|8,0:1|0:3|0:1,0:0:0:0:
234,44,76482,1,8,0:0:0:0:
110,76,76653,6,0,L|117:224,1,148.50000453186,10|8,0:0|0:1,0:0:0:0:
77,318,77167,1,8,0:0:0:0:
46,221,77339,2,0,P|83:214|118:225,1,74.2500022659302,10|8,0:1|0:3,0:0:0:0:
181,303,77682,1,8,0:1:0:0:
263,247,77853,2,0,L|336:258,1,74.2500022659302,8|8,0:0|0:1,0:0:0:0:
386,174,78196,6,0,L|240:152,1,148.50000453186,6|10,0:0|0:1,0:0:0:0:
163,86,78710,2,0,P|139:155|168:222,1,148.50000453186,8|8,0:3|0:3,0:0:0:0:
263,247,79224,1,8,0:0:0:0:
239,152,79396,1,8,0:1:0:0:
296,63,79567,6,0,P|349:56|403:52,1,108,10|0,3:1|3:0,3:3:0:0:
103,21,80253,2,0,P|119:71|102:121,1,108,0|0,3:0|3:0,3:3:0:0:
17,171,80766,1,0,3:0:0:0:
17,171,80939,6,0,L|36:235,1,67.5,6|8,0:0|0:1,0:0:0:0:
16,328,81282,1,8,0:0:0:0:
104,364,81453,2,0,P|167:343|232:358,1,135,10|8,0:1|0:1,0:0:0:0:
312,308,81967,1,8,0:0:0:0:
267,224,82139,1,8,0:1:0:0:
358,202,82310,6,0,P|390:212|423:211,2,67.5,10|8|8,0:1|0:1|0:0,0:0:0:0:
325,113,82824,2,0,P|261:93|199:115,1,135,10|8,0:1|0:1,0:0:0:0:
156,200,83339,1,8,0:0:0:0:
72,156,83510,1,8,0:1:0:0:
112,60,83682,6,0,P|144:67|178:64,1,67.5,10|8,0:0|0:1,0:0:0:0:
264,24,84024,1,8,0:0:0:0:
352,60,84196,2,0,P|361:126|340:189,1,135,6|8,0:0|0:1,0:0:0:0:
272,256,84710,1,8,0:0:0:0:
303,345,84882,6,0,L|435:368,1,135,10|8,0:1|0:1,0:0:0:0:
501,300,85396,1,8,0:0:0:0:
501,205,85567,1,8,0:1:0:0:
407,186,85739,2,0,L|339:190,1,67.5,8|8,0:3|0:1,0:0:0:0:
248,165,86082,1,8,0:0:0:0:
272,256,86253,1,10,0:0:0:0:
272,256,86596,5,10,0:1:0:0:
118,129,86767,1,10,0:1:0:0:
86,325,86939,1,14,0:0:0:0:
