osu file format v14

[General]
AudioFilename: optc.mp3
AudioLeadIn: 0
PreviewTime: 57881
Countdown: 0
SampleSet: Soft
StackLeniency: 0.7
Mode: 0
LetterboxInBreaks: 0
WidescreenStoryboard: 0

[Editor]
Bookmarks: 1395,10995,23338,34309,48024,58995,69966,80938
DistanceSpacing: 1.8
BeatDivisor: 8
GridSize: 16
TimelineZoom: 5.199998

[Metadata]
Title:Kimi o Sagashi ni
TitleUnicode:きみを探しに
Artist:Yoshino Nanjo
ArtistUnicode:南條愛乃
Creator:Shad0w1and
Version:Extra
Source:グリザイアの楽園
Tags:Grisaia no Rakuen - LE EDEN DE LA GRISAIA - fripSide Nanjou Dynamix Little CloudSplash16 Misure Narcissu Ascendance
BeatmapID:1014371
BeatmapSetID:474696

[Difficulty]
HPDrainRate:5.5
CircleSize:4
OverallDifficulty:8.2
ApproachRate:9
SliderMultiplier:1.5
SliderTickRate:1

[Events]
//Background and Video events
Video,0,"optc.flv"
0,0,"BG8.png",0,0
//Break Periods
//Storyboard Layer 0 (Background)
//Storyboard Layer 1 (Fail)
//Storyboard Layer 2 (Pass)
//Storyboard Layer 3 (Foreground)
//Storyboard Sound Samples

[TimingPoints]
24,342.857142857143,4,3,1,60,1,0
366,-133.333333333333,4,3,1,60,0,0
10309,-133.333333333333,4,2,1,60,0,0
10995,-100,4,2,1,100,0,0
22481,-100,4,2,1,75,0,0
23338,-133.333333333333,4,3,1,60,0,0
34309,-100,4,2,1,60,0,0
47509,-133.333333333333,4,2,1,70,0,0
47852,-83.3333333333333,4,2,1,80,0,0
53338,-83.3333333333333,4,2,1,90,0,0
56081,-83.3333333333333,4,2,1,100,0,0
58824,-74.0740740740741,4,2,1,100,0,1
69452,-74.0740740740741,4,2,1,100,0,0
69795,-74.0740740740741,4,2,1,100,0,1
78195,-100,4,2,1,100,0,1
79566,-133.333333333333,4,2,1,100,0,0
80938,-80,4,2,1,100,0,0

[Colours]
Combo1 : 200,181,140
Combo2 : 155,206,170
Combo3 : 174,189,202
Combo4 : 210,157,173

[HitObjects]
303,29,366,5,0,0:0:0:0:
303,29,538,2,0,L|281:165,2,112.500004291535,0|0|0,0:0|0:0|0:0,0:0:0:0:
170,29,1395,6,0,L|175:84,1,56.2500021457673,2|0,0:0|0:0,0:0:0:0:
70,134,1738,2,0,L|75:189,1,56.2500021457673,0|0,0:0|0:0,0:0:0:0:
204,212,2081,2,0,P|250:213|277:227,1,56.2500021457673,0|0,0:0|0:0,0:0:0:0:
369,287,2424,2,0,P|415:286|442:272,1,56.2500021457673,0|0,0:0|0:0,0:0:0:0:
380,146,2766,1,0,0:0:0:0:
259,216,2938,6,0,L|255:283,2,56.2500021457673
50,66,3624,2,0,L|46:9,2,56.2500021457673,0|0|0,0:0|0:0|0:0,0:0:0:0:
19,187,4138,6,0,P|53:192|86:187,1,56.2500021457673,2|0,0:0|0:0,0:0:0:0:
170,103,4481,2,0,P|208:96|237:103,1,56.2500021457673,0|0,0:0|0:0,0:0:0:0:
335,170,4824,2,0,L|337:237,1,56.2500021457673,0|0,0:0|0:0,0:0:0:0:
204,269,5166,2,0,L|205:212,1,56.2500021457673,0|0,0:0|0:0,0:0:0:0:
108,327,5509,1,0,0:0:0:0:
108,327,5681,6,0,P|147:366|213:380,2,112.500004291535
331,259,6538,1,0,0:0:0:0:
331,259,6709,6,0,L|323:389,1,112.500004291535,2|0,0:0|0:0,0:0:0:0:
453,297,7224,1,0,0:0:0:0:
351,173,7395,2,0,P|299:177|227:177,1,112.500004291535,0|0,0:0|0:0,0:0:0:0:
256,192,8109,12,0,9966,0:0:0:0:
272,224,10424,6,0,L|272:269,1,37.5000014305115
323,229,10595,6,0,L|325:247,1,18.7500007152558
372,216,10709,2,0,L|377:234,1,18.7500007152558
420,196,10824,5,0,0:0:0:0:
420,196,10909,1,0,0:0:0:0:
420,196,10995,6,0,P|442:166|449:113,1,75,6|0,0:0|0:0,0:0:0:0:
391,7,11338,1,8,0:0:0:0:
302,108,11509,2,0,L|139:98,1,150,10|8,0:1|0:1,0:0:0:0:
0,61,12024,2,0,L|7:140,1,75,8|0,0:0|0:0,0:0:0:0:
128,273,12366,1,10,0:1:0:0:
132,124,12538,1,0,0:0:0:0:
0,225,12709,1,8,0:0:0:0:
143,305,12881,6,0,P|201:287|303:267,1,150,10|8,0:1|0:1,0:0:0:0:
436,293,13395,2,0,L|431:369,1,75,8|0,0:0|0:0,0:0:0:0:
276,384,13738,1,10,0:1:0:0:
347,209,13909,1,0,0:0:0:0:
431,367,14081,1,8,0:0:0:0:
215,262,14252,2,0,P|203:218|240:116,1,150,10|8,0:1|0:1,0:0:0:0:
352,210,14766,1,8,0:0:0:0:
352,210,14938,6,0,L|320:385,1,150,10|8,0:1|0:1,0:0:0:0:
185,253,15452,1,8,0:1:0:0:
148,242,15538,1,8,0:1:0:0:
110,246,15624,1,8,0:1:0:0:
77,263,15709,1,8,0:1:0:0:
51,290,15795,5,8,0:3:0:0:
136,142,15966,1,8,0:1:0:0:
153,379,16309,1,0,0:0:0:0:
153,379,16395,1,0,0:0:0:0:
153,379,16481,6,0,L|256:377,1,75,6|0,0:0|0:0,0:0:0:0:
360,198,16824,1,8,0:0:0:0:
235,176,16995,2,0,P|244:254|295:313,1,150,10|8,0:1|0:1,0:0:0:0:
401,69,17509,2,0,L|317:74,1,75,8|0,0:0|0:0,0:0:0:0:
136,89,17852,1,10,0:1:0:0:
237,0,18024,1,0,0:0:0:0:
235,176,18195,1,8,0:0:0:0:
26,173,18366,6,0,P|80:100|150:90,1,150,10|8,0:1|0:1,0:0:0:0:
235,176,18881,2,0,L|230:266,1,75,8|0,0:0|0:0,0:0:0:0:
132,332,19224,1,10,0:1:0:0:
332,229,19395,1,0,0:0:0:0:
139,204,19566,1,8,0:0:0:0:
261,367,19738,2,0,P|324:385|419:353,1,150,10|8,0:1|0:1,0:0:0:0:
230,250,20252,1,8,0:0:0:0:
392,100,20424,6,0,L|374:248,1,150,6|8,0:0|0:1,0:0:0:0:
127,163,20938,1,8,0:1:0:0:
154,137,21024,1,8,0:1:0:0:
186,119,21109,1,8,0:1:0:0:
222,110,21195,1,8,0:1:0:0:
259,110,21281,1,8,0:3:0:0:
384,174,21452,2,0,L|371:272,1,75,10|0,0:1|0:0,0:0:0:0:
460,48,21795,6,0,P|384:27|301:61,1,150,6|0,0:0|0:0,0:0:0:0:
248,201,22309,1,8,0:0:0:0:
248,201,22481,2,0,P|175:221|98:195,1,150,10|0,0:1|0:0,0:0:0:0:
0,287,22995,1,8,0:1:0:0:
194,62,23338,5,2,0:0:0:0:
81,63,23681,1,0,0:0:0:0:
138,159,24024,1,0,0:0:0:0:
374,225,24709,5,0,0:0:0:0:
431,321,25052,1,0,0:0:0:0:
318,322,25395,1,0,0:0:0:0:
252,163,26081,5,2,0:0:0:0:
138,159,26424,1,0,0:0:0:0:
194,62,26766,1,0,0:0:0:0:
61,322,27452,6,0,B|100:322|140:343|140:343|186:310|186:310|219:323|277:324,1,225.000008583069
440,180,28824,6,0,P|411:127|347:104,1,112.500004291535,2|0,0:0|0:0,0:0:0:0:
244,100,29338,1,0,0:0:0:0:
244,100,29509,2,0,L|246:223,1,112.500004291535,0|0,0:0|0:0,0:0:0:0:
136,243,30024,1,0,0:0:0:0:
136,243,30195,6,0,P|77:226|43:184,1,112.500004291535
139,135,30709,1,0,0:0:0:0:
244,100,30881,2,0,L|246:173,1,56.2500021457673,0|0,0:0|0:0,0:0:0:0:
361,279,31224,2,0,L|359:222,1,56.2500021457673,0|0,0:0|0:0,0:0:0:0:
347,115,31566,5,2,0:0:0:0:
263,248,31738,1,0,0:0:0:0:
388,206,31909,1,0,0:0:0:0:
245,142,32081,1,0,0:0:0:0:
199,326,32252,2,0,P|250:351|320:330,1,112.500004291535
446,138,32938,6,0,P|389:123|331:147,1,112.500004291535
256,70,33452,2,0,P|229:131|245:191,1,112.500004291535
398,244,33966,2,0,L|398:322,1,56.2500021457673
303,368,34309,6,0,P|280:314|308:224,1,150,6|0,0:0|0:0,0:0:0:0:
488,233,34824,2,0,P|511:290|482:376,1,150,8|0,0:1|0:0,0:0:0:0:
304,229,35338,1,8,0:0:0:0:
446,138,35509,1,0,0:0:0:0:
398,300,35681,6,0,B|308:326|308:326|252:302,1,150,10|0,0:1|0:0,0:0:0:0:
217,158,36195,2,0,B|307:132|307:132|362:155,1,150,8|0,0:1|0:0,0:0:0:0:
256,303,36709,1,8,0:0:0:0:
217,158,36881,1,0,0:0:0:0:
398,300,37052,6,0,P|402:243|418:152,1,150,10|0,0:1|0:0,0:0:0:0:
309,25,37566,2,0,P|304:81|289:173,1,150,8|0,0:1|0:0,0:0:0:0:
474,286,38081,1,8,0:0:0:0:
418,151,38252,1,0,0:0:0:0:
308,298,38424,6,0,L|144:279,1,150,10|0,0:1|0:0,0:0:0:0:
27,263,38938,1,8,0:1:0:0:
219,201,39109,2,0,P|213:162|181:115,1,75,2|0,0:0|0:0,0:0:0:0:
49,102,39452,2,0,P|14:131|-3:175,1,75,8|0,0:0|0:0,0:0:0:0:
84,349,39795,6,0,P|98:271|105:189,1,150,10|0,0:1|0:0,0:0:0:0:
332,241,40309,2,0,P|284:305|206:327,1,150,4|0,0:0|0:0,0:0:0:0:
219,201,40824,1,8,0:0:0:0:
303,349,40995,1,0,0:0:0:0:
125,272,41166,6,0,B|104:232|104:232|104:171|104:171|122:131,1,150,4|0,0:0|0:0,0:0:0:0:
314,132,41681,2,0,B|335:172|335:172|335:233|335:233|316:272,1,150,10|0,0:1|0:0,0:0:0:0:
125,272,42195,2,0,P|80:272|35:275,1,75,8|0,0:0|0:0,0:0:0:0:
196,383,42538,5,10,0:1:0:0:
315,272,42709,1,0,0:0:0:0:
125,272,42881,1,0,0:0:0:0:
270,164,43052,1,8,0:1:0:0:
92,162,43224,2,0,L|88:80,1,75,2|0,0:0|0:0,0:0:0:0:
270,164,43566,1,8,0:0:0:0:
145,275,43738,1,0,0:0:0:0:
200,74,43909,6,0,P|248:54|352:87,1,150,10|0,0:1|0:0,0:0:0:0:
409,200,44424,1,8,0:1:0:0:
265,238,44595,2,0,L|269:163,1,75,2|8,0:0|0:1,0:0:0:0:
425,100,44938,2,0,L|419:192,1,75,8|0,0:0|0:0,0:0:0:0:
310,335,45281,6,0,P|265:346|214:332,1,75,6|0,0:0|0:0,0:0:0:0:
88,208,45624,2,0,P|123:198|160:201,1,75,0|8,0:0|0:1,0:0:0:0:
133,379,45966,2,0,P|124:342|129:306,1,75,0|8,0:0|0:1,0:0:0:0:
262,163,46309,2,0,P|271:200|264:237,1,75,8|8,0:0|0:3,0:0:0:0:
264,235,46824,5,8,0:1:0:0:
161,201,46995,1,8,0:0:0:0:
54,166,47166,1,8,0:1:0:0:
54,166,47252,1,8,0:1:0:0:
54,166,47338,6,0,L|105:125,1,37.5,10|0,0:1|0:0,0:0:0:0:
155,111,47509,6,0,P|134:133|171:185,1,84.3750032186509,8|0,0:0|0:0,0:0:0:0:
289,116,47852,6,0,P|231:115|142:109,1,134.999995880127,6|0,0:0|0:0,0:0:0:0:
231,31,48195,1,8,0:1:0:0:
352,211,48366,2,0,P|395:212|446:204,1,90.9999958343508,8|0,0:0|0:0,0:0:0:0:
383,66,48709,1,8,0:3:0:0:
258,210,48881,1,8,0:1:0:0:
442,204,49052,1,8,0:0:0:0:
249,87,49224,6,0,P|151:136|135:207,1,179.999994506836,10|8,0:1|0:1,0:0:0:0:
148,324,49738,1,8,0:0:0:0:
258,210,49909,1,2,0:0:0:0:
56,207,50081,1,8,0:3:0:0:
230,313,50252,1,8,0:1:0:0:
16,328,50424,1,8,0:0:0:0:
168,189,50595,6,0,P|155:250|146:340,1,134.999995880127,10|0,0:1|0:0,0:0:0:0:
66,277,50938,1,8,0:1:0:0:
259,342,51109,2,0,P|298:336|370:333,1,89.9999972534181,8|0,0:0|0:0,0:0:0:0:
490,348,51452,1,8,0:3:0:0:
310,234,51624,1,8,0:1:0:0:
485,215,51795,1,8,0:0:0:0:
305,352,51966,6,0,P|221:314|192:228,1,179.999994506836,10|8,0:1|0:1,0:0:0:0:
366,106,52481,2,0,P|422:102|468:97,1,89.9999972534181,8|8,0:0|0:1,0:0:0:0:
399,247,52824,2,0,P|358:240|295:232,1,89.9999972534181,8|8,0:3|0:1,0:0:0:0:
47,255,53166,1,8,0:0:0:0:
193,120,53338,6,0,P|195:224|204:320,1,179.999994506836,6|8,0:0|0:3,0:0:0:0:
36,344,53852,2,0,L|50:219,1,89.9999972534181,8|0,0:0|0:0,0:0:0:0:
193,120,54195,1,8,0:1:0:0:
201,299,54366,1,8,0:3:0:0:
26,169,54538,1,8,0:0:0:0:
296,205,54709,6,0,P|391:233|468:200,1,179.999994506836,6|8,0:0|0:1,0:0:0:0:
379,4,55224,2,0,L|373:119,1,89.9999972534181,8|0,0:0|0:0,0:0:0:0:
419,303,55566,1,8,0:3:0:0:
486,133,55738,1,8,0:1:0:0:
296,205,55909,1,8,0:3:0:0:
512,343,56081,6,0,P|521:289|472:216,1,134.999995880127,6|0,0:0|0:0,0:0:0:0:
403,177,56424,5,8,0:1:0:0:
249,325,56595,1,10,0:1:0:0:
278,89,56766,1,8,0:1:0:0:
419,303,56938,5,8,0:1:0:0:
165,213,57109,1,8,0:1:0:0:
435,161,57281,5,8,0:0:0:0:
333,384,57452,1,8,0:3:0:0:
214,90,57624,1,10,0:1:0:0:
109,371,57795,5,8,0:3:0:0:
348,237,57966,1,8,0:0:0:0:
0,213,58138,5,8,0:1:0:0:
304,381,58309,1,8,0:0:0:0:
176,96,58481,1,10,0:1:0:0:
176,96,58824,6,0,P|85:98|-6:80,1,151.875000579357,6|0,0:0|0:0,0:0:0:0:
106,18,59166,1,8,0:1:0:0:
162,215,59338,1,8,0:0:0:0:
374,66,59509,2,0,P|317:16|223:26,1,151.875000579357,10|0,0:1|0:0,0:0:0:0:
176,96,59852,1,8,0:1:0:0:
391,178,60024,1,8,0:0:0:0:
282,326,60195,6,0,P|272:243|278:113,1,202.500000772476,10|8,0:1|0:1,0:0:0:0:
405,301,60709,1,8,0:0:0:0:
167,211,60881,1,8,0:1:0:0:
391,178,61052,1,8,0:3:0:0:
207,338,61224,1,8,0:1:0:0:
405,301,61395,1,8,0:0:0:0:
375,73,61566,6,0,P|300:112|287:194,1,151.875000579357,10|0,0:1|0:0,0:0:0:0:
391,178,61909,1,8,0:1:0:0:
202,75,62081,1,8,0:0:0:0:
252,273,62252,2,0,B|298:252|298:252|409:261,1,151.875000579357,10|0,0:1|0:0,0:0:0:0:
326,359,62595,1,8,0:1:0:0:
260,154,62766,1,8,0:0:0:0:
130,307,62938,6,0,P|77:299|9:170,1,202.500000772476,10|8,0:1|0:1,0:0:0:0:
161,17,63452,1,8,0:0:0:0:
131,185,63624,1,8,0:1:0:0:
37,39,63795,1,8,0:3:0:0:
219,177,63966,1,8,0:1:0:0:
7,179,64138,1,8,0:0:0:0:
273,53,64309,6,0,P|250:163|243:286,1,202.500000772476,6|8,0:0|0:1,0:0:0:0:
509,146,64824,2,0,P|459:134|409:131,1,101.250000386238,8|8,0:0|0:1,0:0:0:0:
219,177,65166,1,8,0:3:0:0:
400,285,65338,1,8,0:1:0:0:
410,131,65509,2,0,P|354:139|285:168,1,101.250000386238,8|8,0:0|0:1,0:0:0:0:
490,370,65852,6,0,P|522:272|447:168,1,202.500000772476,10|8,0:1|0:0,0:0:0:0:
239,154,66366,1,8,0:1:0:0:
400,285,66538,1,8,0:3:0:0:
358,82,66709,1,8,0:1:0:0:
252,322,66881,1,8,0:0:0:0:
252,322,67224,6,0,P|178:296|133:208,1,151.875000579357,6|0,0:0|0:0,0:0:0:0:
250,205,67566,1,8,0:0:0:0:
250,205,67738,6,0,P|305:163|392:179,1,151.875000579357,10|0,0:1|0:0,0:0:0:0:
429,372,68081,2,0,P|365:345|335:262,1,151.875000579357,8|0,0:3|0:0,0:0:0:0:
482,134,68424,2,0,P|491:203|434:270,1,151.875000579357,6|0,0:0|0:0,0:0:0:0:
383,173,68766,5,8,0:1:0:0:
512,331,68938,1,8,0:3:0:0:
482,134,69109,1,8,0:1:0:0:
315,325,69281,5,8,0:0:0:0:
285,317,69366,1,0,0:0:0:0:
256,309,69452,1,10,0:1:0:0:
226,302,69538,1,0,0:0:0:0:
197,294,69623,1,0,0:0:0:0:
168,286,69709,1,0,0:0:0:0:
139,279,69795,6,0,B|144:223|144:223|162:187|162:187|168:122,1,151.875000579357,6|0,0:0|0:0,0:0:0:0:
67,151,70138,1,8,0:1:0:0:
242,266,70309,1,8,0:0:0:0:
242,60,70481,2,0,P|174:27|89:67,1,151.875000579357,10|0,0:1|0:0,0:0:0:0:
67,151,70824,1,8,0:1:0:0:
242,266,70995,1,8,0:0:0:0:
167,131,71166,6,0,P|169:218|154:336,1,202.500000772476,10|8,0:1|0:1,0:0:0:0:
55,229,71681,1,8,0:0:0:0:
204,56,71852,1,8,0:1:0:0:
0,104,72024,1,8,0:3:0:0:
171,194,72195,1,8,0:1:0:0:
90,32,72366,1,8,0:0:0:0:
103,287,72538,6,0,P|176:312|246:283,1,151.875000579357,10|0,0:1|0:0,0:0:0:0:
310,205,72881,1,8,0:1:0:0:
271,384,73052,1,8,0:0:0:0:
171,194,73224,1,10,0:1:0:0:
91,362,73395,1,8,0:3:0:0:
30,176,73566,5,8,0:1:0:0:
60,174,73651,1,0,0:0:0:0:
90,173,73737,1,8,0:0:0:0:
121,172,73823,1,0,0:0:0:0:
151,171,73909,6,0,P|132:246|126:338,1,151.875000579357,6|0,0:0|0:0,0:0:0:0:
221,284,74252,1,8,0:1:0:0:
77,100,74424,1,8,0:0:0:0:
269,59,74595,2,0,P|274:132|241:209,1,151.875000579357,10|0,0:1|0:0,0:0:0:0:
370,136,74938,2,0,P|354:193|294:278,1,151.875000579357,8|0,0:0|0:0,0:0:0:0:
431,245,75281,2,0,P|386:307|321:358,1,151.875000579357,6|0,0:0|0:0,0:0:0:0:
242,336,75624,5,8,0:1:0:0:
251,125,75795,1,8,0:0:0:0:
512,202,75966,2,0,P|482:255|393:290,1,151.875000579357,8|0,0:1|0:0,0:0:0:0:
400,170,76309,1,8,0:1:0:0:
482,359,76481,1,8,0:0:0:0:
286,247,76652,6,0,P|318:192|413:172,1,151.875000579357,10|0,0:0|0:0,0:0:0:0:
401,290,76995,1,8,0:1:0:0:
326,86,77166,1,8,0:0:0:0:
196,301,77338,2,0,P|120:314|49:253,1,151.875000579357,10|0,0:1|0:0,0:0:0:0:
144,203,77681,1,8,0:1:0:0:
222,384,77852,1,8,0:0:0:0:
15,351,78024,1,8,0:1:0:0:
91,105,78195,6,0,P|151:91|235:139,1,150,6|10,0:0|0:1,0:0:0:0:
397,224,78709,2,0,P|350:250|270:234,1,112.5,8|0,0:3|0:0,0:0:0:0:
328,139,79052,1,8,0:3:0:0:
375,319,79224,1,8,0:0:0:0:
200,272,79395,1,8,0:1:0:0:
270,227,79566,6,0,P|281:288|194:189,1,421.875016093255,10|0,3:1|0:0,3:3:0:0:
354,208,80938,6,0,P|370:140|360:96,1,93.75,6|8,0:0|0:1,0:0:0:0:
223,40,81281,1,8,0:0:0:0:
70,152,81452,2,0,P|131:144|265:149,1,187.5,10|8,0:1|0:1,0:0:0:0:
84,246,81966,1,8,0:0:0:0:
156,69,82138,1,8,0:1:0:0:
235,246,82309,5,10,0:1:0:0:
70,152,82481,1,8,0:1:0:0:
67,339,82652,1,8,0:0:0:0:
283,326,82824,2,0,P|323:281|272:161,1,187.5,10|8,0:1|0:1,0:0:0:0:
120,84,83338,1,8,0:0:0:0:
235,246,83509,1,8,0:1:0:0:
326,70,83681,5,10,0:0:0:0:
369,253,83852,1,8,0:1:0:0:
201,144,84024,1,8,0:0:0:0:
455,150,84195,1,6,0:0:0:0:
455,150,84538,2,0,P|400:157|355:150,1,93.75,8|8,0:1|0:0,0:0:0:0:
183,87,84881,6,0,P|203:178|209:298,1,187.5,10|8,0:1|0:1,0:0:0:0:
331,137,85395,1,8,0:0:0:0:
85,192,85566,1,8,0:1:0:0:
322,288,85738,1,8,0:3:0:0:
183,87,85909,1,8,0:1:0:0:
177,317,86081,1,8,0:0:0:0:
331,137,86252,6,0,P|326:105|252:134,1,140.625,10|0,0:0|0:0,0:0:0:0:
283,216,86595,5,10,0:1:0:0:
156,64,86766,1,10,0:1:0:0:
424,76,86938,1,14,0:0:0:0:
