osu file format v14

[General]
AudioFilename: optc.mp3
AudioLeadIn: 0
PreviewTime: 57881
Countdown: 0
SampleSet: None
StackLeniency: 0.9
Mode: 2
LetterboxInBreaks: 0
WidescreenStoryboard: 0

[Editor]
Bookmarks: 1395,10995,23338,34309,48024,58995,69966,80938,86938
DistanceSpacing: 1
BeatDivisor: 4
GridSize: 8
TimelineZoom: 2.7

[Metadata]
Title:Kimi o Sagashi ni
TitleUnicode:きみを探しに
Artist:Yoshino Nanjo
ArtistUnicode:南條愛乃
Creator:Shad0w1and
Version:Ascendance's Rain
Source:グリザイアの楽園
Tags:Grisaia no Rakuen - LE EDEN DE LA GRISAIA - fripSide Nanjou Dynamix Little CloudSplash16 Misure Narcissu Ascendance
BeatmapID:1025818
BeatmapSetID:474696

[Difficulty]
HPDrainRate:6
CircleSize:4
OverallDifficulty:9
ApproachRate:9
SliderMultiplier:1.62
SliderTickRate:2

[Events]
//Background and Video events
Video,0,"optc.flv"
0,0,"BG7.png",0,0
//Break Periods
//Storyboard Layer 0 (Background)
//Storyboard Layer 1 (Fail)
//Storyboard Layer 2 (Pass)
//Storyboard Layer 3 (Foreground)
//Storyboard Sound Samples

[TimingPoints]
24,342.857142857143,4,3,1,40,1,0
1395,-100,4,3,1,60,0,0
7995,-100,4,3,1,10,0,0
8081,-100,4,3,1,60,0,0
10309,-100,4,2,1,60,0,0
10995,-76.9230769230769,4,2,1,90,0,0
21795,-76.9230769230769,4,2,1,70,0,0
22481,-90.9090909090909,4,2,1,65,0,0
22995,-100,4,2,1,60,0,0
23338,-111.111111111111,4,3,1,60,0,0
34309,-100,4,2,1,60,0,0
36966,-100,4,2,1,5,0,0
37052,-100,4,2,1,60,0,0
42538,-90.9090909090909,4,2,1,65,0,0
47338,-71.4285714285714,4,2,1,65,0,0
47509,-100,4,2,1,65,0,0
47852,-76.9230769230769,4,2,1,80,0,0
53338,-83.3333333333333,4,2,1,80,0,0
54709,-80,4,2,1,80,0,0
56081,-76.9230769230769,4,2,1,80,0,0
57624,-86.9565217391304,4,2,1,80,0,0
58824,-71.4285714285714,4,2,1,90,0,1
69452,-71.4285714285714,4,2,1,90,0,0
69795,-71.4285714285714,4,2,1,90,0,1
79566,-90.9090909090909,4,2,1,80,0,0
80938,-83.3333333333333,4,2,1,80,0,0

[Colours]
Combo1 : 200,181,140
Combo2 : 155,206,170
Combo3 : 174,189,202
Combo4 : 210,157,173

[HitObjects]
216,304,1395,6,0,L|184:208,1,81,2|0,0:0|0:0,0:0:0:0:
280,208,1738,2,0,L|304:104,1,81,0|0,0:0|0:0,0:0:0:0:
192,128,2081,2,0,L|104:128,2,81,0|0|0,0:0|0:0|0:0,0:0:0:0:
304,128,2595,1,0,0:0:0:0:
200,200,2766,6,0,L|120:200,2,81
360,336,3281,2,0,P|408:272|344:208,1,162,0|0,0:0|0:0,0:0:0:0:
272,200,3795,1,0,0:0:0:0:
160,184,3966,1,0,0:0:0:0:
264,112,4138,6,0,L|360:96,1,81,2|0,0:0|0:0,0:0:0:0:
224,40,4481,2,0,L|128:32,1,81,0|0,0:0|0:0,0:0:0:0:
264,112,4824,1,0,0:0:0:0:
336,192,4995,1,0,0:0:0:0:
278,273,5166,1,0,0:0:0:0:
160,288,5338,1,0,0:0:0:0:
278,273,5509,5,0,0:0:0:0:
184,216,5681,2,0,L|96:208,1,81,0|0,0:0|0:0,0:0:0:0:
232,152,6024,2,0,P|296:160|392:104,1,162,0|0,0:0|0:0,0:0:0:0:
280,64,6538,1,0,0:0:0:0:
384,120,6709,6,0,P|424:168|368:248,1,162,2|0,0:0|0:0,0:0:0:0:
280,256,7224,1,0,0:0:0:0:
168,264,7395,2,0,B|104:256|48:200|48:200|104:224|192:200|224:176,1,283.5,0|0,0:0|0:0,0:0:0:0:
296,160,8081,2,0,P|339:100|283:54,1,162,2|0,0:0|0:0,0:0:0:0:
136,64,8595,1,0,0:0:0:0:
256,192,8766,12,0,10138,0:0:0:0:
288,304,10309,5,0,0:0:0:0:
336,280,10424,1,0,0:0:0:0:
359,232,10538,1,0,0:0:0:0:
353,179,10652,1,0,0:0:0:0:
321,136,10766,1,0,0:0:0:0:
257,119,10881,1,0,0:0:0:0:
56,112,10995,6,0,P|24:160|136:232,1,210.599990359498,6|8,0:0|0:0,0:0:0:0:
264,232,11509,2,0,P|328:272|248:344,1,210.599990359498,10|8,0:1|0:1,0:0:0:0:
112,336,12024,1,8,0:0:0:0:
272,232,12195,1,0,0:0:0:0:
96,192,12366,6,0,L|64:88,1,105.299995179749,10|0,0:1|0:0,0:0:0:0:
240,88,12709,1,8,0:0:0:0:
96,192,12881,2,0,P|32:216|112:296,1,210.599990359498,10|8,0:1|0:1,0:0:0:0:
240,296,13395,1,8,0:0:0:0:
120,232,13566,2,0,L|88:184,1,52.6499975898744,0|0,0:0|0:0,0:0:0:0:
344,184,13738,6,0,L|456:184,2,105.299995179749,10|0|8,0:1|0:0|0:0,0:0:0:0:
216,184,14252,2,0,P|296:192|448:152,1,210.599990359498,10|8,0:1|0:1,0:0:0:0:
304,72,14766,1,8,0:0:0:0:
120,160,14938,2,0,P|96:232|224:280,1,210.599990359498,10|8,0:1|0:1,0:0:0:0:
336,288,15452,1,8,0:1:0:0:
371,250,15537,1,8,0:1:0:0:
372,198,15623,1,8,0:1:0:0:
338,160,15709,1,8,0:1:0:0:
192,136,15795,6,0,L|64:136,1,105.299995179749,8|8,0:3|0:1,0:0:0:0:
264,136,16138,1,0,0:0:0:0:
311,157,16223,1,0,0:0:0:0:
363,156,16309,1,0,0:0:0:0:
410,133,16395,1,0,0:0:0:0:
216,80,16481,6,0,L|64:80,2,105.299995179749,6|0|8,0:0|0:0|0:0,0:0:0:0:
352,80,16995,2,0,P|400:136|312:216,1,210.599990359498,10|8,0:1|0:1,0:0:0:0:
176,216,17509,1,8,0:0:0:0:
320,216,17681,1,0,0:0:0:0:
152,128,17852,6,0,L|264:128,2,105.299995179749,10|0|8,0:1|0:0|0:0,0:0:0:0:
288,128,18366,2,0,P|384:152|504:104,1,210.599990359498,10|8,0:1|0:1,0:0:0:0:
368,56,18881,1,8,0:0:0:0:
208,56,19052,1,0,0:0:0:0:
464,152,19224,5,10,0:1:0:0:
369,218,19395,1,0,0:0:0:0:
272,280,19566,1,8,0:0:0:0:
144,256,19738,2,0,L|376:256,1,210.599990359498,10|8,0:1|0:1,0:0:0:0:
184,192,20252,1,8,0:0:0:0:
424,192,20424,6,0,P|472:136|384:48,1,210.599990359498,6|8,0:0|0:1,0:0:0:0:
344,64,20852,1,0,0:0:0:0:
288,64,20938,1,8,0:1:0:0:
328,96,21024,1,8,0:1:0:0:
352,144,21109,1,8,0:1:0:0:
352,200,21195,1,8,0:1:0:0:
312,240,21281,6,0,L|176:240,2,105.299995179749,8|10|0,0:3|0:1|0:0,0:0:0:0:
72,344,21795,2,0,P|32:272|56:128,1,210.599990359498,6|0,0:0|0:0,0:0:0:0:
184,136,22309,1,8,0:0:0:0:
448,128,22481,2,0,P|480:208|432:312,1,178.200005438233,10|0,0:1|0:0,0:0:0:0:
320,328,22995,2,0,L|216:328,1,81,8|0,0:1|0:0,0:0:0:0:
384,272,23338,6,0,P|440:224|456:144,1,145.799995550537,2|0,0:0|0:0,0:0:0:0:
344,168,23852,2,0,P|272:136|256:56,1,145.799995550537,0|0,0:0|0:0,0:0:0:0:
488,88,24538,1,0,0:0:0:0:
400,88,24709,6,0,L|232:88,1,145.799995550537,0|0,0:0|0:0,0:0:0:0:
352,88,25224,2,0,P|392:144|336:208,1,145.799995550537,0|0,0:0|0:0,0:0:0:0:
192,224,25738,1,0,0:0:0:0:
400,288,26081,6,0,L|152:288,1,218.699993325806,2|0,0:0|0:0,0:0:0:0:
280,288,26766,1,0,0:0:0:0:
144,208,27109,1,0,0:0:0:0:
296,176,27281,2,0,L|344:176,1,36.4499988876343,0|0,0:0|0:0,0:0:0:0:
368,176,27452,6,0,P|432:168|464:96,1,145.799995550537,0|0,0:0|0:0,0:0:0:0:
336,88,28138,2,0,P|272:88|216:16,1,145.799995550537,0|0,0:0|0:0,0:0:0:0:
336,24,28652,1,0,0:0:0:0:
200,128,28824,6,0,L|360:160,1,145.799995550537,2|0,0:0|0:0,0:0:0:0:
248,176,29338,2,0,P|208:224|272:280,1,145.799995550537,0|0,0:0|0:0,0:0:0:0:
352,280,29852,2,0,L|272:280,1,72.8999977752686,0|0,0:0|0:0,0:0:0:0:
432,288,30195,6,0,P|472:256|488:144,2,145.799995550537,0|0|0,0:0|0:0|0:0,0:0:0:0:
304,288,31052,1,0,0:0:0:0:
400,200,31224,1,0,0:0:0:0:
256,200,31395,1,0,0:0:0:0:
504,208,31566,6,0,L|432:208,2,72.8999977752686,2|0|0,0:0|0:0|0:0,0:0:0:0:
216,200,32081,2,0,P|160:208|64:160,1,145.799995550537,0|0,0:0|0:0,0:0:0:0:
192,120,32595,2,0,L|288:120,1,72.8999977752686
360,120,32938,6,0,P|416:144|344:248,2,218.699993325806
216,112,34138,1,0,0:0:0:0:
448,104,34309,6,0,P|480:168|408:232,1,162,6|0,0:0|0:0,0:0:0:0:
304,232,34824,2,0,L|136:232,1,162,8|0,0:1|0:0,0:0:0:0:
272,160,35338,2,0,L|368:160,1,81,8|0,0:0|0:0,0:0:0:0:
56,96,35681,6,0,L|248:96,1,162,10|0,0:1|0:0,0:0:0:0:
104,152,36195,2,0,P|64:208|136:280,1,162,8|0,0:1|0:0,0:0:0:0:
208,280,36709,2,0,L|104:280,1,81,8|0,0:0|0:0,0:0:0:0:
392,216,37052,6,0,P|432:152|408:48,1,162,10|0,0:1|0:0,0:0:0:0:
312,144,37566,2,0,L|480:136,1,162,8|0,0:1|0:0,0:0:0:0:
360,80,38081,1,8,0:0:0:0:
472,80,38252,1,0,0:0:0:0:
144,224,38424,6,0,P|224:224|320:200,1,162,10|0,0:1|0:0,0:0:0:0:
176,160,38938,2,0,P|152:232|224:296,1,162,8|0,0:1|0:0,0:0:0:0:
320,288,39452,1,8,0:0:0:0:
356,271,39537,1,0,0:0:0:0:
374,236,39623,1,0,0:0:0:0:
368,196,39709,1,0,0:0:0:0:
160,192,39795,6,0,P|96:168|64:72,1,162,10|0,0:1|0:0,0:0:0:0:
200,120,40309,2,0,P|240:168|200:264,1,162,4|0,0:0|0:0,0:0:0:0:
112,296,40824,1,8,0:0:0:0:
248,248,40995,1,0,0:0:0:0:
8,144,41166,6,0,P|112:160|192:120,1,162,4|0,0:0|0:0,0:0:0:0:
296,80,41681,2,0,P|240:104|128:64,1,162,10|0,0:1|0:0,0:0:0:0:
264,40,42195,1,8,0:0:0:0:
128,40,42366,1,0,0:0:0:0:
456,40,42538,5,10,0:1:0:0:
344,88,42709,2,0,L|368:176,1,89.1000027191163,0|0,0:0|0:0,0:0:0:0:
464,224,43052,2,0,L|368:240,2,89.1000027191163,8|2|0,0:1|0:0|0:0,0:0:0:0:
288,224,43566,2,0,L|264:120,1,89.1000027191163,8|0,0:0|0:0,0:0:0:0:
424,136,43909,6,0,P|448:104|336:32,1,178.200005438233,10|0,0:1|0:0,0:0:0:0:
256,40,44424,1,8,0:1:0:0:
136,88,44595,2,0,P|96:128|176:200,1,178.200005438233,2|8,0:0|0:0,0:0:0:0:
272,192,45109,1,0,0:0:0:0:
8,240,45281,6,0,P|88:248|192:216,1,178.200005438233,6|0,0:0|0:0,0:0:0:0:
320,176,45795,2,0,P|264:192|136:160,1,178.200005438233,8|8,0:1|0:1,0:0:0:0:
272,112,46309,2,0,L|400:112,1,89.1000027191163,8|8,0:0|0:3,0:0:0:0:
464,112,46652,5,0,0:0:0:0:
476,195,46823,1,8,0:1:0:0:
418,260,46994,1,8,0:0:0:0:
334,286,47166,1,8,0:1:0:0:
288,288,47252,1,8,0:1:0:0:
120,288,47338,2,0,L|-8:288,2,113.399996539307,10|8|0,0:1|0:0|0:0,0:0:0:0:
432,280,47852,6,0,P|488:240|480:80,1,210.599990359498,6|8,0:0|0:1,0:0:0:0:
344,104,48366,2,0,L|232:88,1,105.299995179749,8|0,0:0|0:0,0:0:0:0:
392,48,48709,2,0,L|504:48,2,105.299995179749,8|8|8,0:3|0:1|0:0,0:0:0:0:
112,176,49224,6,0,P|200:208|312:152,1,210.599990359498,10|8,0:1|0:1,0:0:0:0:
184,112,49738,1,8,0:0:0:0:
416,104,49909,2,0,P|456:192|368:272,1,210.599990359498,2|8,0:0|0:1,0:0:0:0:
240,272,50424,1,8,0:0:0:0:
496,288,50595,6,0,L|504:56,1,210.599990359498,10|8,0:1|0:1,0:0:0:0:
216,152,51109,2,0,L|328:160,1,105.299995179749,8|0,0:0|0:0,0:0:0:0:
216,152,51452,1,8,0:3:0:0:
321,159,51623,1,8,0:1:0:0:
432,168,51794,1,8,0:0:0:0:
64,304,51966,6,0,P|32:256|96:120,1,210.599990359498,10|8,0:1|0:1,0:0:0:0:
216,112,52481,2,0,L|336:104,1,105.299995179749,8|8,0:0|0:1,0:0:0:0:
176,72,52824,2,0,L|64:56,2,105.299995179749,8|8|8,0:3|0:1|0:0,0:0:0:0:
464,128,53338,6,0,L|240:152,1,194.399994067383,6|8,0:0|0:3,0:0:0:0:
96,168,53852,1,8,0:0:0:0:
440,224,54195,1,8,0:1:0:0:
336,224,54366,2,0,L|208:224,1,97.1999970336915,8|8,0:3|0:0,0:0:0:0:
496,144,54709,6,0,L|256:144,1,202.5,6|8,0:0|0:1,0:0:0:0:
176,152,55224,1,8,0:0:0:0:
296,80,55395,1,0,0:0:0:0:
168,80,55566,2,0,L|48:80,2,101.25,8|8|8,0:3|0:1|0:3,0:0:0:0:
432,80,56081,6,0,P|480:136|384:232,1,210.599990359498,6|8,0:0|0:1,0:0:0:0:
264,240,56595,1,10,0:1:0:0:
368,160,56766,1,8,0:1:0:0:
232,160,56938,2,0,P|176:192|40:144,1,210.599990359498,8|8,0:1|0:0,0:0:0:0:
216,88,57452,1,8,0:3:0:0:
472,136,57624,6,0,L|352:136,1,93.1500017766953,10|8,0:1|0:3,0:0:0:0:
40,192,57966,2,0,L|160:192,1,93.1500017766953,8|8,0:0|0:1,0:0:0:0:
432,256,58309,2,0,L|312:256,2,93.1500017766953,8|10|0,0:0|0:1|0:0,0:0:0:0:
112,320,58824,6,0,P|64:256|136:136,1,226.799993078613,6|8,0:0|0:1,0:0:0:0:
400,144,59338,1,8,0:0:0:0:
128,136,59509,2,0,P|88:80|200:32,1,226.799993078613,10|8,0:1|0:1,0:0:0:0:
336,64,60024,1,8,0:0:0:0:
72,176,60195,6,0,P|144:224|296:152,1,226.799993078613,10|8,0:1|0:1,0:0:0:0:
176,112,60709,2,0,L|56:112,1,113.399996539307,8|8,0:0|0:1,0:0:0:0:
232,40,61052,2,0,L|368:40,1,113.399996539307,8|8,0:3|0:1,0:0:0:0:
472,40,61395,1,8,0:0:0:0:
176,112,61566,6,0,P|104:208|216:232,1,226.799993078613,10|8,0:1|0:1,0:0:0:0:
280,248,62081,2,0,L|416:192,1,113.399996539307,8|10,0:0|0:1,0:0:0:0:
248,112,62424,2,0,L|128:112,2,113.399996539307,8|8|8,0:3|0:1|0:0,0:0:0:0:
16,112,62938,6,0,P|96:152|256:88,1,226.799993078613,10|8,0:1|0:1,0:0:0:0:
376,80,63452,1,8,0:0:0:0:
238,112,63624,2,0,P|190:168|302:256,1,226.799993078613,8|8,0:1|0:1,0:0:0:0:
398,256,64138,1,8,0:0:0:0:
16,248,64309,6,0,P|120:280|272:224,1,226.799993078613,6|8,0:0|0:1,0:0:0:0:
344,224,64824,2,0,L|200:192,1,113.399996539307,8|8,0:0|0:1,0:0:0:0:
352,144,65166,2,0,L|480:120,1,113.399996539307,8|8,0:3|0:1,0:0:0:0:
176,88,65509,2,0,L|48:72,1,113.399996539307,8|8,0:0|0:1,0:0:0:0:
424,80,65852,6,0,P|496:152|384:232,1,226.799993078613,10|8,0:1|0:0,0:0:0:0:
304,240,66366,1,8,0:1:0:0:
416,160,66538,1,8,0:3:0:0:
304,160,66709,2,0,L|176:160,2,113.399996539307,8|8|0,0:1|0:0|0:0,0:0:0:0:
64,328,67224,6,0,P|0:256|40:120,1,226.799993078613,6|8,0:0|0:0,0:0:0:0:
320,192,67738,2,0,P|400:192|456:152,1,113.399996539307,10|0,0:1|0:0,0:0:0:0:
184,136,68081,2,0,P|128:144|48:112,1,113.399996539307,8|0,0:3|0:0,0:0:0:0:
408,56,68424,6,0,P|496:128|392:160,1,226.799993078613,6|8,0:0|0:1,0:0:0:0:
280,176,68938,1,8,0:3:0:0:
376,176,69109,2,0,L|432:176,2,56.6999982696534,8|0|8,0:1|0:0|0:0,0:0:0:0:
248,176,69452,2,0,L|112:176,1,113.399996539307,10|0,0:1|0:0,0:0:0:0:
440,312,69795,6,0,P|496:248|392:176,1,226.799993078613,6|8,0:0|0:1,0:0:0:0:
160,176,70309,1,8,0:0:0:0:
296,176,70481,2,0,L|416:176,1,113.399996539307,10|8,0:1|0:3,0:0:0:0:
256,96,70824,2,0,L|128:96,1,113.399996539307,8|8,0:1|0:0,0:0:0:0:
424,96,71166,6,0,P|496:152|392:240,1,226.799993078613,10|8,0:1|0:1,0:0:0:0:
256,256,71681,1,8,0:0:0:0:
368,256,71852,2,0,L|432:256,2,56.6999982696534,8|0|8,0:1|0:0|0:3,0:0:0:0:
256,256,72195,2,0,L|120:256,1,113.399996539307,8|8,0:1|0:0,0:0:0:0:
424,256,72538,6,0,P|480:192|376:112,1,226.799993078613,10|8,0:1|0:1,0:0:0:0:
120,104,73052,1,8,0:0:0:0:
400,104,73224,2,0,P|464:160|384:248,1,226.799993078613,10|8,0:1|0:1,0:0:0:0:
112,248,73738,1,8,0:0:0:0:
488,256,73909,6,0,P|376:288|256:248,1,226.799993078613,6|8,0:0|0:1,0:0:0:0:
136,256,74424,1,8,0:0:0:0:
400,256,74595,2,0,P|488:216|400:160,1,226.799993078613,10|8,0:1|0:0,0:0:0:0:
312,152,75109,1,0,0:0:0:0:
32,160,75281,6,0,P|144:128|272:168,1,226.799993078613,6|8,0:0|0:1,0:0:0:0:
384,160,75795,1,8,0:0:0:0:
256,160,75966,1,8,0:1:0:0:
384,160,76138,2,0,L|512:160,2,113.399996539307,8|8|8,0:3|0:1|0:0,0:0:0:0:
112,160,76652,6,0,P|56:216|160:272,1,226.799993078613,2|8,0:0|0:1,0:0:0:0:
264,256,77166,1,8,0:0:0:0:
112,160,77338,2,0,L|-16:160,1,113.399996539307,10|8,0:1|0:3,0:0:0:0:
144,88,77681,2,0,L|272:88,2,113.399996539307,8|8|8,0:1|0:0|0:1,0:0:0:0:
432,80,78195,6,0,P|512:144|376:272,2,340.19998961792,6|8|8,0:0|0:3|0:0,0:0:0:0:
152,72,79566,2,0,P|256:88|344:64,1,178.200005438233,10|0,3:1|3:0,3:3:0:0:
64,144,80252,2,0,P|32:216|112:288,1,178.200005438233,0|10,3:0|3:1,3:3:0:0:
200,288,80766,1,8,3:0:0:0:
432,296,80938,6,0,P|496:224|416:176,1,194.399994067383,6|8,0:0|0:0,0:0:0:0:
320,168,81452,2,0,P|248:128|336:80,1,194.399994067383,10|8,0:1|0:1,0:0:0:0:
408,64,81966,2,0,L|512:64,1,97.1999970336915,8|8,0:0|0:1,0:0:0:0:
168,64,82309,6,0,P|120:136|216:192,1,194.399994067383,10|8,0:1|0:0,0:0:0:0:
320,200,82824,2,0,P|368:232|288:312,1,194.399994067383,10|8,0:1|0:1,0:0:0:0:
184,312,83338,2,0,L|304:312,1,97.1999970336915,8|8,0:0|0:1,0:0:0:0:
24,208,83681,5,10,0:0:0:0:
119,223,83852,1,8,0:1:0:0:
215,208,84023,1,8,0:0:0:0:
488,144,84195,2,0,L|272:144,1,194.399994067383,6|8,0:0|0:1,0:0:0:0:
400,144,84709,1,8,0:0:0:0:
144,64,84881,2,0,P|80:144|176:184,1,194.399994067383,10|8,0:1|0:1,0:0:0:0:
240,192,85395,6,0,L|376:192,1,97.1999970336915,8|8,0:0|0:1,0:0:0:0:
208,128,85738,2,0,L|80:128,2,97.1999970336915,8|8|8,0:3|0:1|0:0,0:0:0:0:
456,112,86252,2,0,P|504:200|424:296,1,194.399994067383,10|10,0:0|0:1,0:0:0:0:
144,320,86766,1,10,0:1:0:0:
496,312,86938,1,14,0:0:0:0:
