osu file format v14

[General]
AudioFilename: ed.mp3
AudioLeadIn: 0
PreviewTime: 57966
Countdown: 0
SampleSet: Soft
StackLeniency: 0.7
Mode: 3
LetterboxInBreaks: 1
SpecialStyle: 0
WidescreenStoryboard: 0

[Editor]
DistanceSpacing: 1.1
BeatDivisor: 4
GridSize: 4
TimelineZoom: 1.5

[Metadata]
Title:Kimi o Sagashi ni
TitleUnicode:Kimi o Sagashi ni
Artist:Yoshino Nanjo
ArtistUnicode:Yoshino Nanjo
Creator:Freddy
Version:4K Insane
Source:グリザイアの楽園
Tags:grisaia no rakuen - le eden de la grisaia - ending
BeatmapID:1365947
BeatmapSetID:644506

[Difficulty]
HPDrainRate:8
CircleSize:4
OverallDifficulty:7.5
ApproachRate:5
SliderMultiplier:1.7
SliderTickRate:1

[Events]
//Background and Video events
0,0,"BG.png",0,0
Video,0,"ed.flv"
//Break Periods
//Storyboard Layer 0 (Background)
//Storyboard Layer 1 (Fail)
//Storyboard Layer 2 (Pass)
//Storyboard Layer 3 (Foreground)
//Storyboard Sound Samples

[TimingPoints]
24,342.857142857143,4,2,0,60,1,0
58824,-100,4,2,0,60,0,1
78195,-100,4,2,0,60,0,0

[HitObjects]
64,192,366,5,0,0:0:0:0:
448,192,538,128,0,1395:0:0:0:0:
320,192,881,128,0,1395:0:0:0:0:
192,192,1224,1,0,0:0:0:0:
64,192,1395,1,0,0:0:0:0:
192,192,1566,1,0,0:0:0:0:
448,192,1738,1,0,0:0:0:0:
192,192,1909,1,0,0:0:0:0:
320,192,2081,1,0,0:0:0:0:
64,192,2252,1,0,0:0:0:0:
448,192,2424,1,0,0:0:0:0:
320,192,2595,1,0,0:0:0:0:
192,192,2766,1,0,0:0:0:0:
64,192,2766,1,0,0:0:0:0:
448,192,2938,128,0,3109:0:0:0:0:
192,192,3109,128,0,3281:0:0:0:0:
320,192,3281,128,0,3624:0:0:0:0:
64,192,3624,128,0,3795:0:0:0:0:
192,192,3795,128,0,3966:0:0:0:0:
448,192,3966,128,0,5509:0:0:0:0:
320,192,4138,1,0,0:0:0:0:
64,192,4824,1,0,0:0:0:0:
192,192,5509,1,0,0:0:0:0:
320,192,5681,128,0,6024:0:0:0:0:
448,192,5681,1,0,0:0:0:0:
192,192,6024,128,0,6366:0:0:0:0:
64,192,6024,1,0,0:0:0:0:
320,192,6366,1,0,0:0:0:0:
448,192,6366,128,0,6709:0:0:0:0:
64,192,6538,1,0,0:0:0:0:
192,192,6709,1,0,0:0:0:0:
64,192,6881,128,0,7395:0:0:0:0:
192,192,7395,1,0,0:0:0:0:
320,192,7395,128,0,8081:0:0:0:0:
192,192,8081,1,0,0:0:0:0:
64,192,8081,1,0,0:0:0:0:
448,192,8081,128,0,10309:0:0:0:0:
64,192,10309,1,0,0:0:0:0:
192,192,10309,1,0,0:0:0:0:
320,192,10395,1,0,0:0:0:0:
448,192,10481,1,0,0:0:0:0:
64,192,10481,1,0,0:0:0:0:
192,192,10566,1,0,0:0:0:0:
320,192,10652,1,0,0:0:0:0:
448,192,10652,1,0,0:0:0:0:
64,192,10738,1,0,0:0:0:0:
192,192,10824,1,0,0:0:0:0:
320,192,10824,1,0,0:0:0:0:
448,192,10909,1,0,0:0:0:0:
64,192,10995,1,0,0:0:0:0:
192,192,10995,1,0,0:0:0:0:
320,192,10995,1,0,0:0:0:0:
192,192,11338,1,0,0:0:0:0:
64,192,11509,1,0,0:0:0:0:
320,192,11509,1,0,0:0:0:0:
448,192,11509,1,0,0:0:0:0:
192,192,11681,1,0,0:0:0:0:
320,192,11852,1,0,0:0:0:0:
448,192,12024,1,0,0:0:0:0:
320,192,12024,1,0,0:0:0:0:
192,192,12195,1,0,0:0:0:0:
64,192,12366,1,0,0:0:0:0:
192,192,12366,1,0,0:0:0:0:
448,192,12366,1,0,0:0:0:0:
320,192,12538,1,0,0:0:0:0:
192,192,12709,1,0,0:0:0:0:
64,192,12881,1,0,0:0:0:0:
320,192,12881,1,0,0:0:0:0:
192,192,12881,1,0,0:0:0:0:
192,192,13224,1,0,0:0:0:0:
64,192,13395,1,0,0:0:0:0:
192,192,13395,1,0,0:0:0:0:
320,192,13566,1,0,0:0:0:0:
192,192,13738,1,0,0:0:0:0:
320,192,13738,1,0,0:0:0:0:
448,192,13738,1,0,0:0:0:0:
320,192,13909,1,0,0:0:0:0:
192,192,14081,1,0,0:0:0:0:
64,192,14252,1,0,0:0:0:0:
192,192,14252,1,0,0:0:0:0:
320,192,14252,1,0,0:0:0:0:
192,192,14595,1,0,0:0:0:0:
320,192,14766,1,0,0:0:0:0:
448,192,14766,1,0,0:0:0:0:
64,192,14938,1,0,0:0:0:0:
192,192,14938,1,0,0:0:0:0:
320,192,15024,1,0,0:0:0:0:
64,192,15109,1,0,0:0:0:0:
448,192,15109,1,0,0:0:0:0:
192,192,15195,1,0,0:0:0:0:
320,192,15281,1,0,0:0:0:0:
448,192,15281,1,0,0:0:0:0:
64,192,15366,1,0,0:0:0:0:
320,192,15452,1,0,0:0:0:0:
192,192,15452,1,0,0:0:0:0:
448,192,15538,1,0,0:0:0:0:
192,192,15624,1,0,0:0:0:0:
64,192,15624,1,0,0:0:0:0:
448,192,15709,1,0,0:0:0:0:
320,192,15709,1,0,0:0:0:0:
192,192,15795,1,0,0:0:0:0:
64,192,15795,1,0,0:0:0:0:
192,192,15966,1,0,0:0:0:0:
320,192,15966,1,0,0:0:0:0:
64,192,15966,1,0,0:0:0:0:
448,192,16138,1,0,0:0:0:0:
64,192,16138,1,0,0:0:0:0:
320,192,16138,1,0,0:0:0:0:
64,192,16309,1,0,0:0:0:0:
192,192,16309,1,0,0:0:0:0:
448,192,16309,1,0,0:0:0:0:
448,192,16481,1,0,0:0:0:0:
320,192,16481,1,0,0:0:0:0:
192,192,16566,1,0,0:0:0:0:
64,192,16652,1,0,0:0:0:0:
448,192,16652,1,0,0:0:0:0:
320,192,16738,1,0,0:0:0:0:
192,192,16824,1,0,0:0:0:0:
64,192,16824,1,0,0:0:0:0:
448,192,16909,1,0,0:0:0:0:
64,192,16995,1,0,0:0:0:0:
192,192,16995,1,0,0:0:0:0:
320,192,16995,1,0,0:0:0:0:
320,192,17338,1,0,0:0:0:0:
448,192,17509,1,0,0:0:0:0:
320,192,17509,1,0,0:0:0:0:
192,192,17681,1,0,0:0:0:0:
192,192,17852,1,0,0:0:0:0:
64,192,17852,1,0,0:0:0:0:
320,192,17938,1,0,0:0:0:0:
448,192,18024,1,0,0:0:0:0:
64,192,18024,1,0,0:0:0:0:
192,192,18109,1,0,0:0:0:0:
320,192,18195,1,0,0:0:0:0:
448,192,18195,1,0,0:0:0:0:
64,192,18281,1,0,0:0:0:0:
320,192,18366,1,0,0:0:0:0:
192,192,18366,1,0,0:0:0:0:
448,192,18366,1,0,0:0:0:0:
192,192,18709,1,0,0:0:0:0:
320,192,18709,1,0,0:0:0:0:
64,192,18881,1,0,0:0:0:0:
448,192,18881,1,0,0:0:0:0:
320,192,19052,1,0,0:0:0:0:
448,192,19224,1,0,0:0:0:0:
320,192,19309,1,0,0:0:0:0:
64,192,19395,1,0,0:0:0:0:
192,192,19395,1,0,0:0:0:0:
448,192,19481,1,0,0:0:0:0:
320,192,19566,1,0,0:0:0:0:
192,192,19566,1,0,0:0:0:0:
64,192,19652,1,0,0:0:0:0:
448,192,19738,1,0,0:0:0:0:
192,192,19738,1,0,0:0:0:0:
320,192,19738,1,0,0:0:0:0:
192,192,20081,1,0,0:0:0:0:
192,192,20252,1,0,0:0:0:0:
320,192,20252,1,0,0:0:0:0:
320,192,20424,1,0,0:0:0:0:
448,192,20424,1,0,0:0:0:0:
192,192,20509,1,0,0:0:0:0:
448,192,20595,1,0,0:0:0:0:
64,192,20595,1,0,0:0:0:0:
320,192,20681,1,0,0:0:0:0:
192,192,20766,1,0,0:0:0:0:
64,192,20852,1,0,0:0:0:0:
448,192,20852,1,0,0:0:0:0:
320,192,20938,1,0,0:0:0:0:
192,192,20938,1,0,0:0:0:0:
64,192,21024,1,0,0:0:0:0:
448,192,21024,1,0,0:0:0:0:
192,192,21109,1,0,0:0:0:0:
320,192,21109,1,0,0:0:0:0:
64,192,21195,1,0,0:0:0:0:
448,192,21195,1,0,0:0:0:0:
192,192,21281,1,0,0:0:0:0:
320,192,21281,1,0,0:0:0:0:
448,192,21452,1,0,0:0:0:0:
320,192,21538,1,0,0:0:0:0:
64,192,21624,1,0,0:0:0:0:
192,192,21709,1,0,0:0:0:0:
320,192,21795,1,0,0:0:0:0:
448,192,21795,1,0,0:0:0:0:
64,192,21966,1,0,0:0:0:0:
320,192,22138,1,0,0:0:0:0:
448,192,22309,1,0,0:0:0:0:
192,192,22481,1,0,0:0:0:0:
64,192,22481,128,0,23338:0:0:0:0:
448,192,22824,1,0,0:0:0:0:
320,192,22995,1,0,0:0:0:0:
448,192,23338,1,0,0:0:0:0:
320,192,23338,1,0,0:0:0:0:
192,192,24024,1,0,0:0:0:0:
64,192,24024,1,0,0:0:0:0:
320,192,24709,1,0,0:0:0:0:
192,192,24709,1,0,0:0:0:0:
64,192,25395,1,0,0:0:0:0:
448,192,25395,1,0,0:0:0:0:
448,192,26081,1,0,0:0:0:0:
320,192,26081,1,0,0:0:0:0:
320,192,26424,1,0,0:0:0:0:
64,192,26424,1,0,0:0:0:0:
192,192,26766,1,0,0:0:0:0:
448,192,26766,1,0,0:0:0:0:
448,192,27366,1,0,0:0:0:0:
64,192,27452,1,0,0:0:0:0:
192,192,27495,1,0,0:0:0:0:
320,192,27538,1,0,0:0:0:0:
448,192,27795,128,0,28138:0:0:0:0:
192,192,28138,128,0,28481:0:0:0:0:
320,192,28481,128,0,28824:0:0:0:0:
448,192,28824,1,0,0:0:0:0:
192,192,28995,1,0,0:0:0:0:
320,192,29166,1,0,0:0:0:0:
64,192,29338,1,0,0:0:0:0:
448,192,29424,1,0,0:0:0:0:
320,192,29466,1,0,0:0:0:0:
192,192,29509,1,0,0:0:0:0:
192,192,30024,1,0,0:0:0:0:
64,192,30024,1,0,0:0:0:0:
448,192,30195,128,0,30538:0:0:0:0:
320,192,30366,1,0,0:0:0:0:
192,192,30538,128,0,30881:0:0:0:0:
64,192,30709,1,0,0:0:0:0:
448,192,30881,1,0,0:0:0:0:
64,192,31052,1,0,0:0:0:0:
192,192,31052,1,0,0:0:0:0:
320,192,31224,1,0,0:0:0:0:
448,192,31224,1,0,0:0:0:0:
320,192,31395,1,0,0:0:0:0:
192,192,31395,1,0,0:0:0:0:
192,192,31566,1,0,0:0:0:0:
448,192,31738,1,0,0:0:0:0:
320,192,31909,1,0,0:0:0:0:
64,192,32081,128,0,32938:0:0:0:0:
192,192,32252,128,0,32938:0:0:0:0:
320,192,32938,1,0,0:0:0:0:
448,192,32938,128,0,33452:0:0:0:0:
192,192,33109,1,0,0:0:0:0:
320,192,33281,1,0,0:0:0:0:
64,192,33452,128,0,33624:0:0:0:0:
192,192,33624,128,0,33795:0:0:0:0:
448,192,33795,128,0,33966:0:0:0:0:
320,192,33966,128,0,34309:0:0:0:0:
448,192,34309,1,0,0:0:0:0:
64,192,34309,1,0,0:0:0:0:
192,192,34309,1,0,0:0:0:0:
192,192,34652,1,0,0:0:0:0:
448,192,34824,1,0,0:0:0:0:
64,192,34824,128,0,35338:0:0:0:0:
320,192,34824,1,0,0:0:0:0:
320,192,35166,1,0,0:0:0:0:
192,192,35338,1,0,0:0:0:0:
448,192,35338,1,0,0:0:0:0:
320,192,35338,128,0,35681:0:0:0:0:
448,192,35681,128,0,36195:0:0:0:0:
192,192,35681,1,0,0:0:0:0:
320,192,36195,1,0,0:0:0:0:
64,192,36195,128,0,36709:0:0:0:0:
192,192,36366,1,0,0:0:0:0:
448,192,36538,1,0,0:0:0:0:
192,192,36709,1,0,0:0:0:0:
448,192,36709,1,0,0:0:0:0:
320,192,36709,128,0,37052:0:0:0:0:
64,192,37052,1,0,0:0:0:0:
448,192,37052,1,0,0:0:0:0:
192,192,37052,128,0,37566:0:0:0:0:
64,192,37395,1,0,0:0:0:0:
448,192,37566,128,0,38081:0:0:0:0:
320,192,37566,1,0,0:0:0:0:
320,192,37909,1,0,0:0:0:0:
64,192,38081,128,0,38424:0:0:0:0:
192,192,38081,1,0,0:0:0:0:
320,192,38081,1,0,0:0:0:0:
448,192,38424,1,0,0:0:0:0:
192,192,38424,1,0,0:0:0:0:
320,192,38424,128,0,38766:0:0:0:0:
64,192,38766,128,0,39109:0:0:0:0:
192,192,38766,1,0,0:0:0:0:
320,192,38938,1,0,0:0:0:0:
192,192,39109,128,0,39452:0:0:0:0:
448,192,39109,1,0,0:0:0:0:
448,192,39452,128,0,39795:0:0:0:0:
320,192,39452,1,0,0:0:0:0:
64,192,39795,1,0,0:0:0:0:
192,192,39795,1,0,0:0:0:0:
320,192,39795,128,0,40309:0:0:0:0:
192,192,40138,1,0,0:0:0:0:
192,192,40309,1,0,0:0:0:0:
448,192,40309,1,0,0:0:0:0:
64,192,40309,128,0,40824:0:0:0:0:
448,192,40824,128,0,41166:0:0:0:0:
320,192,40824,1,0,0:0:0:0:
64,192,41166,1,0,0:0:0:0:
320,192,41166,1,0,0:0:0:0:
192,192,41166,128,0,41681:0:0:0:0:
320,192,41509,1,0,0:0:0:0:
320,192,41681,128,0,42195:0:0:0:0:
448,192,41681,1,0,0:0:0:0:
64,192,42195,128,0,42538:0:0:0:0:
192,192,42195,1,0,0:0:0:0:
192,192,42538,1,0,0:0:0:0:
320,192,42538,1,0,0:0:0:0:
448,192,42538,128,0,43052:0:0:0:0:
192,192,42709,1,0,0:0:0:0:
64,192,42881,1,0,0:0:0:0:
192,192,43052,128,0,43566:0:0:0:0:
320,192,43052,1,0,0:0:0:0:
448,192,43224,1,0,0:0:0:0:
320,192,43395,1,0,0:0:0:0:
320,192,43566,128,0,43909:0:0:0:0:
64,192,43566,1,0,0:0:0:0:
192,192,43738,1,0,0:0:0:0:
64,192,43909,128,0,44424:0:0:0:0:
448,192,43909,1,0,0:0:0:0:
320,192,44252,1,0,0:0:0:0:
192,192,44424,128,0,44938:0:0:0:0:
448,192,44424,1,0,0:0:0:0:
320,192,44595,1,0,0:0:0:0:
64,192,44766,1,0,0:0:0:0:
448,192,44938,128,0,45281:0:0:0:0:
320,192,44938,1,0,0:0:0:0:
320,192,45281,1,0,0:0:0:0:
192,192,45281,1,0,0:0:0:0:
64,192,45281,128,0,46995:0:0:0:0:
448,192,45624,1,0,0:0:0:0:
192,192,45624,1,0,0:0:0:0:
320,192,45795,1,0,0:0:0:0:
448,192,46138,1,0,0:0:0:0:
192,192,46309,1,0,0:0:0:0:
320,192,46309,1,0,0:0:0:0:
320,192,46481,1,0,0:0:0:0:
448,192,46481,1,0,0:0:0:0:
320,192,46824,1,0,0:0:0:0:
192,192,46995,1,0,0:0:0:0:
320,192,47081,1,0,0:0:0:0:
448,192,47081,1,0,0:0:0:0:
64,192,47166,1,0,0:0:0:0:
192,192,47166,1,0,0:0:0:0:
320,192,47252,1,0,0:0:0:0:
448,192,47252,1,0,0:0:0:0:
192,192,47338,1,0,0:0:0:0:
64,192,47338,1,0,0:0:0:0:
64,192,47509,1,0,0:0:0:0:
320,192,47509,1,0,0:0:0:0:
448,192,47509,1,0,0:0:0:0:
64,192,47852,1,0,0:0:0:0:
192,192,47852,1,0,0:0:0:0:
320,192,47852,1,0,0:0:0:0:
448,192,47852,1,0,0:0:0:0:
192,192,48024,1,0,0:0:0:0:
320,192,48195,1,0,0:0:0:0:
192,192,48366,1,0,0:0:0:0:
320,192,48366,1,0,0:0:0:0:
448,192,48366,1,0,0:0:0:0:
320,192,48538,1,0,0:0:0:0:
64,192,48709,1,0,0:0:0:0:
192,192,48709,1,0,0:0:0:0:
448,192,48709,1,0,0:0:0:0:
320,192,48881,1,0,0:0:0:0:
448,192,48881,1,0,0:0:0:0:
192,192,49052,1,0,0:0:0:0:
64,192,49052,1,0,0:0:0:0:
64,192,49224,1,0,0:0:0:0:
320,192,49224,1,0,0:0:0:0:
448,192,49224,1,0,0:0:0:0:
192,192,49395,1,0,0:0:0:0:
320,192,49566,1,0,0:0:0:0:
448,192,49566,1,0,0:0:0:0:
192,192,49738,1,0,0:0:0:0:
320,192,49909,1,0,0:0:0:0:
64,192,49909,1,0,0:0:0:0:
64,192,50081,1,0,0:0:0:0:
192,192,50081,1,0,0:0:0:0:
448,192,50081,1,0,0:0:0:0:
192,192,50252,1,0,0:0:0:0:
192,192,50424,1,0,0:0:0:0:
64,192,50595,1,0,0:0:0:0:
320,192,50595,1,0,0:0:0:0:
192,192,50595,1,0,0:0:0:0:
320,192,50766,1,0,0:0:0:0:
448,192,50938,1,0,0:0:0:0:
320,192,50938,1,0,0:0:0:0:
64,192,51109,1,0,0:0:0:0:
192,192,51109,1,0,0:0:0:0:
448,192,51109,1,0,0:0:0:0:
320,192,51281,1,0,0:0:0:0:
192,192,51452,1,0,0:0:0:0:
448,192,51452,1,0,0:0:0:0:
64,192,51624,1,0,0:0:0:0:
320,192,51624,1,0,0:0:0:0:
192,192,51795,1,0,0:0:0:0:
64,192,51966,1,0,0:0:0:0:
320,192,51966,1,0,0:0:0:0:
448,192,51966,1,0,0:0:0:0:
320,192,52138,1,0,0:0:0:0:
320,192,52309,1,0,0:0:0:0:
192,192,52309,1,0,0:0:0:0:
64,192,52481,1,0,0:0:0:0:
448,192,52481,1,0,0:0:0:0:
192,192,52652,1,0,0:0:0:0:
320,192,52652,1,0,0:0:0:0:
64,192,52824,1,0,0:0:0:0:
448,192,52824,1,0,0:0:0:0:
320,192,52909,1,0,0:0:0:0:
64,192,52995,1,0,0:0:0:0:
192,192,52995,1,0,0:0:0:0:
320,192,53081,1,0,0:0:0:0:
448,192,53081,1,0,0:0:0:0:
192,192,53166,1,0,0:0:0:0:
64,192,53166,1,0,0:0:0:0:
320,192,53252,1,0,0:0:0:0:
448,192,53252,1,0,0:0:0:0:
192,192,53338,1,0,0:0:0:0:
64,192,53338,1,0,0:0:0:0:
192,192,53681,1,0,0:0:0:0:
64,192,53681,1,0,0:0:0:0:
320,192,53852,1,0,0:0:0:0:
448,192,53852,1,0,0:0:0:0:
64,192,54195,1,0,0:0:0:0:
192,192,54195,1,0,0:0:0:0:
448,192,54195,1,0,0:0:0:0:
192,192,54366,1,0,0:0:0:0:
192,192,54538,1,0,0:0:0:0:
64,192,54709,1,0,0:0:0:0:
192,192,54709,1,0,0:0:0:0:
320,192,54709,1,0,0:0:0:0:
448,192,54709,1,0,0:0:0:0:
64,192,54881,1,0,0:0:0:0:
320,192,55052,1,0,0:0:0:0:
192,192,55224,1,0,0:0:0:0:
448,192,55224,1,0,0:0:0:0:
320,192,55395,1,0,0:0:0:0:
448,192,55566,1,0,0:0:0:0:
320,192,55566,1,0,0:0:0:0:
192,192,55652,1,0,0:0:0:0:
64,192,55738,1,0,0:0:0:0:
448,192,55738,1,0,0:0:0:0:
320,192,55824,1,0,0:0:0:0:
192,192,55909,1,0,0:0:0:0:
64,192,55909,1,0,0:0:0:0:
320,192,55995,1,0,0:0:0:0:
448,192,56081,1,0,0:0:0:0:
192,192,56081,1,0,0:0:0:0:
64,192,56081,1,0,0:0:0:0:
320,192,56252,1,0,0:0:0:0:
192,192,56252,1,0,0:0:0:0:
64,192,56252,1,0,0:0:0:0:
320,192,56424,1,0,0:0:0:0:
448,192,56424,1,0,0:0:0:0:
192,192,56424,1,0,0:0:0:0:
64,192,56595,1,0,0:0:0:0:
192,192,56595,1,0,0:0:0:0:
448,192,56595,1,0,0:0:0:0:
192,192,56938,1,0,0:0:0:0:
320,192,56938,1,0,0:0:0:0:
448,192,56938,1,0,0:0:0:0:
64,192,57281,1,0,0:0:0:0:
448,192,57281,1,0,0:0:0:0:
192,192,57281,1,0,0:0:0:0:
192,192,57452,1,0,0:0:0:0:
320,192,57624,1,0,0:0:0:0:
448,192,57624,1,0,0:0:0:0:
192,192,57795,1,0,0:0:0:0:
64,192,57795,1,0,0:0:0:0:
448,192,57795,1,0,0:0:0:0:
192,192,57966,1,0,0:0:0:0:
320,192,57966,1,0,0:0:0:0:
320,192,58138,1,0,0:0:0:0:
448,192,58138,1,0,0:0:0:0:
64,192,58138,1,0,0:0:0:0:
192,192,58309,1,0,0:0:0:0:
64,192,58309,1,0,0:0:0:0:
320,192,58481,1,0,0:0:0:0:
448,192,58481,1,0,0:0:0:0:
192,192,58481,1,0,0:0:0:0:
64,192,58824,1,0,0:0:0:0:
192,192,58824,1,0,0:0:0:0:
320,192,58909,1,0,0:0:0:0:
64,192,58995,1,0,0:0:0:0:
448,192,58995,1,0,0:0:0:0:
192,192,59081,1,0,0:0:0:0:
320,192,59166,1,0,0:0:0:0:
448,192,59166,1,0,0:0:0:0:
64,192,59252,1,0,0:0:0:0:
192,192,59338,1,0,0:0:0:0:
320,192,59338,1,0,0:0:0:0:
448,192,59424,1,0,0:0:0:0:
64,192,59509,1,0,0:0:0:0:
192,192,59509,1,0,0:0:0:0:
320,192,59595,1,0,0:0:0:0:
448,192,59681,1,0,0:0:0:0:
64,192,59681,1,0,0:0:0:0:
320,192,59766,1,0,0:0:0:0:
64,192,59852,1,0,0:0:0:0:
192,192,59852,1,0,0:0:0:0:
448,192,59938,1,0,0:0:0:0:
320,192,60024,1,0,0:0:0:0:
192,192,60024,1,0,0:0:0:0:
64,192,60109,1,0,0:0:0:0:
448,192,60195,1,0,0:0:0:0:
320,192,60195,1,0,0:0:0:0:
192,192,60281,1,0,0:0:0:0:
64,192,60366,1,0,0:0:0:0:
448,192,60366,1,0,0:0:0:0:
320,192,60452,1,0,0:0:0:0:
192,192,60538,1,0,0:0:0:0:
64,192,60538,1,0,0:0:0:0:
448,192,60624,1,0,0:0:0:0:
320,192,60709,1,0,0:0:0:0:
192,192,60709,1,0,0:0:0:0:
64,192,60795,1,0,0:0:0:0:
448,192,60881,1,0,0:0:0:0:
320,192,60881,1,0,0:0:0:0:
192,192,60966,1,0,0:0:0:0:
64,192,61052,1,0,0:0:0:0:
448,192,61052,1,0,0:0:0:0:
192,192,61138,1,0,0:0:0:0:
320,192,61224,1,0,0:0:0:0:
448,192,61224,1,0,0:0:0:0:
64,192,61309,1,0,0:0:0:0:
192,192,61395,1,0,0:0:0:0:
320,192,61395,1,0,0:0:0:0:
448,192,61481,1,0,0:0:0:0:
64,192,61566,1,0,0:0:0:0:
192,192,61566,1,0,0:0:0:0:
320,192,61652,1,0,0:0:0:0:
448,192,61738,1,0,0:0:0:0:
64,192,61738,1,0,0:0:0:0:
192,192,61824,1,0,0:0:0:0:
320,192,61909,1,0,0:0:0:0:
448,192,61909,1,0,0:0:0:0:
64,192,61995,1,0,0:0:0:0:
192,192,62081,1,0,0:0:0:0:
320,192,62081,1,0,0:0:0:0:
448,192,62166,1,0,0:0:0:0:
64,192,62252,1,0,0:0:0:0:
192,192,62252,1,0,0:0:0:0:
320,192,62338,1,0,0:0:0:0:
448,192,62424,1,0,0:0:0:0:
64,192,62424,1,0,0:0:0:0:
320,192,62509,1,0,0:0:0:0:
192,192,62595,1,0,0:0:0:0:
64,192,62595,1,0,0:0:0:0:
448,192,62681,1,0,0:0:0:0:
320,192,62766,1,0,0:0:0:0:
192,192,62766,1,0,0:0:0:0:
64,192,62852,1,0,0:0:0:0:
448,192,62938,1,0,0:0:0:0:
320,192,62938,1,0,0:0:0:0:
192,192,63024,1,0,0:0:0:0:
64,192,63109,1,0,0:0:0:0:
448,192,63109,1,0,0:0:0:0:
320,192,63195,1,0,0:0:0:0:
192,192,63281,1,0,0:0:0:0:
64,192,63281,1,0,0:0:0:0:
448,192,63366,1,0,0:0:0:0:
320,192,63452,1,0,0:0:0:0:
192,192,63452,1,0,0:0:0:0:
64,192,63538,1,0,0:0:0:0:
448,192,63624,1,0,0:0:0:0:
320,192,63624,1,0,0:0:0:0:
192,192,63709,1,0,0:0:0:0:
64,192,63795,1,0,0:0:0:0:
448,192,63795,1,0,0:0:0:0:
192,192,63881,1,0,0:0:0:0:
320,192,63966,1,0,0:0:0:0:
448,192,63966,1,0,0:0:0:0:
64,192,64052,1,0,0:0:0:0:
192,192,64138,1,0,0:0:0:0:
320,192,64138,1,0,0:0:0:0:
448,192,64224,1,0,0:0:0:0:
320,192,64309,1,0,0:0:0:0:
192,192,64309,1,0,0:0:0:0:
64,192,64309,1,0,0:0:0:0:
192,192,64481,1,0,0:0:0:0:
320,192,64652,1,0,0:0:0:0:
192,192,64824,1,0,0:0:0:0:
448,192,64824,1,0,0:0:0:0:
320,192,64824,1,0,0:0:0:0:
192,192,64995,1,0,0:0:0:0:
64,192,65166,1,0,0:0:0:0:
192,192,65166,1,0,0:0:0:0:
448,192,65166,1,0,0:0:0:0:
320,192,65338,1,0,0:0:0:0:
192,192,65509,1,0,0:0:0:0:
320,192,65509,1,0,0:0:0:0:
448,192,65509,1,0,0:0:0:0:
192,192,65681,1,0,0:0:0:0:
448,192,65852,1,0,0:0:0:0:
320,192,65852,1,0,0:0:0:0:
64,192,65852,128,0,66195:0:0:0:0:
192,192,66195,1,0,0:0:0:0:
320,192,66195,1,0,0:0:0:0:
448,192,66195,1,0,0:0:0:0:
192,192,66366,1,0,0:0:0:0:
64,192,66538,1,0,0:0:0:0:
320,192,66538,1,0,0:0:0:0:
192,192,66709,1,0,0:0:0:0:
320,192,66881,1,0,0:0:0:0:
448,192,66881,1,0,0:0:0:0:
320,192,67052,1,0,0:0:0:0:
64,192,67224,1,0,0:0:0:0:
192,192,67224,1,0,0:0:0:0:
448,192,67224,1,0,0:0:0:0:
320,192,67395,1,0,0:0:0:0:
192,192,67566,1,0,0:0:0:0:
64,192,67738,1,0,0:0:0:0:
320,192,67738,1,0,0:0:0:0:
448,192,67738,1,0,0:0:0:0:
64,192,68081,1,0,0:0:0:0:
192,192,68081,1,0,0:0:0:0:
320,192,68081,1,0,0:0:0:0:
64,192,68424,1,0,0:0:0:0:
192,192,68424,1,0,0:0:0:0:
320,192,68424,1,0,0:0:0:0:
448,192,68424,1,0,0:0:0:0:
192,192,68766,1,0,0:0:0:0:
64,192,68766,1,0,0:0:0:0:
448,192,68766,1,0,0:0:0:0:
320,192,68938,1,0,0:0:0:0:
448,192,68938,1,0,0:0:0:0:
192,192,68938,1,0,0:0:0:0:
192,192,69109,1,0,0:0:0:0:
448,192,69109,1,0,0:0:0:0:
64,192,69109,1,0,0:0:0:0:
64,192,69281,1,0,0:0:0:0:
192,192,69281,1,0,0:0:0:0:
320,192,69281,1,0,0:0:0:0:
64,192,69452,1,0,0:0:0:0:
448,192,69452,1,0,0:0:0:0:
320,192,69452,1,0,0:0:0:0:
64,192,69795,1,0,0:0:0:0:
192,192,69795,1,0,0:0:0:0:
320,192,69881,1,0,0:0:0:0:
64,192,69966,1,0,0:0:0:0:
448,192,69966,1,0,0:0:0:0:
192,192,70052,1,0,0:0:0:0:
448,192,70138,1,0,0:0:0:0:
320,192,70138,1,0,0:0:0:0:
64,192,70224,1,0,0:0:0:0:
192,192,70309,1,0,0:0:0:0:
320,192,70309,1,0,0:0:0:0:
448,192,70395,1,0,0:0:0:0:
64,192,70481,1,0,0:0:0:0:
192,192,70481,1,0,0:0:0:0:
320,192,70566,1,0,0:0:0:0:
448,192,70652,1,0,0:0:0:0:
64,192,70652,1,0,0:0:0:0:
320,192,70738,1,0,0:0:0:0:
192,192,70824,1,0,0:0:0:0:
64,192,70824,1,0,0:0:0:0:
448,192,70909,1,0,0:0:0:0:
320,192,70995,1,0,0:0:0:0:
192,192,70995,1,0,0:0:0:0:
64,192,71081,1,0,0:0:0:0:
448,192,71166,1,0,0:0:0:0:
320,192,71166,1,0,0:0:0:0:
192,192,71252,1,0,0:0:0:0:
448,192,71338,1,0,0:0:0:0:
64,192,71338,1,0,0:0:0:0:
320,192,71424,1,0,0:0:0:0:
192,192,71509,1,0,0:0:0:0:
64,192,71509,1,0,0:0:0:0:
448,192,71595,1,0,0:0:0:0:
320,192,71681,1,0,0:0:0:0:
192,192,71681,1,0,0:0:0:0:
64,192,71766,1,0,0:0:0:0:
320,192,71852,1,0,0:0:0:0:
448,192,71852,1,0,0:0:0:0:
192,192,71938,1,0,0:0:0:0:
64,192,72024,1,0,0:0:0:0:
448,192,72024,1,0,0:0:0:0:
192,192,72109,1,0,0:0:0:0:
320,192,72195,1,0,0:0:0:0:
448,192,72195,1,0,0:0:0:0:
64,192,72281,1,0,0:0:0:0:
192,192,72366,1,0,0:0:0:0:
320,192,72366,1,0,0:0:0:0:
448,192,72452,1,0,0:0:0:0:
192,192,72538,1,0,0:0:0:0:
64,192,72538,1,0,0:0:0:0:
320,192,72624,1,0,0:0:0:0:
448,192,72709,1,0,0:0:0:0:
64,192,72709,1,0,0:0:0:0:
192,192,72795,1,0,0:0:0:0:
320,192,72881,1,0,0:0:0:0:
448,192,72881,1,0,0:0:0:0:
64,192,72966,1,0,0:0:0:0:
192,192,73052,1,0,0:0:0:0:
320,192,73052,1,0,0:0:0:0:
448,192,73138,1,0,0:0:0:0:
64,192,73224,1,0,0:0:0:0:
192,192,73224,1,0,0:0:0:0:
320,192,73309,1,0,0:0:0:0:
448,192,73395,1,0,0:0:0:0:
64,192,73395,1,0,0:0:0:0:
320,192,73481,1,0,0:0:0:0:
64,192,73566,1,0,0:0:0:0:
192,192,73566,1,0,0:0:0:0:
448,192,73652,1,0,0:0:0:0:
320,192,73738,1,0,0:0:0:0:
192,192,73738,1,0,0:0:0:0:
64,192,73824,1,0,0:0:0:0:
448,192,73909,1,0,0:0:0:0:
320,192,73909,1,0,0:0:0:0:
192,192,73995,1,0,0:0:0:0:
64,192,74081,1,0,0:0:0:0:
448,192,74081,1,0,0:0:0:0:
64,192,74252,1,0,0:0:0:0:
192,192,74252,1,0,0:0:0:0:
448,192,74252,1,0,0:0:0:0:
192,192,74424,1,0,0:0:0:0:
448,192,74424,1,0,0:0:0:0:
320,192,74424,1,0,0:0:0:0:
64,192,74595,1,0,0:0:0:0:
448,192,74595,1,0,0:0:0:0:
320,192,74595,1,0,0:0:0:0:
64,192,74938,1,0,0:0:0:0:
192,192,74938,1,0,0:0:0:0:
320,192,74938,1,0,0:0:0:0:
64,192,75281,1,0,0:0:0:0:
192,192,75281,1,0,0:0:0:0:
320,192,75281,1,0,0:0:0:0:
448,192,75281,1,0,0:0:0:0:
192,192,75624,1,0,0:0:0:0:
64,192,75795,1,0,0:0:0:0:
320,192,75795,1,0,0:0:0:0:
448,192,75795,1,0,0:0:0:0:
320,192,75966,1,0,0:0:0:0:
192,192,76138,1,0,0:0:0:0:
64,192,76138,1,0,0:0:0:0:
320,192,76309,1,0,0:0:0:0:
448,192,76309,1,0,0:0:0:0:
192,192,76481,1,0,0:0:0:0:
320,192,76481,1,0,0:0:0:0:
64,192,76652,1,0,0:0:0:0:
192,192,76652,1,0,0:0:0:0:
448,192,76652,1,0,0:0:0:0:
192,192,76995,1,0,0:0:0:0:
320,192,77166,1,0,0:0:0:0:
64,192,77166,1,0,0:0:0:0:
320,192,77338,1,0,0:0:0:0:
192,192,77509,1,0,0:0:0:0:
448,192,77509,1,0,0:0:0:0:
320,192,77509,1,0,0:0:0:0:
192,192,77681,1,0,0:0:0:0:
64,192,77852,1,0,0:0:0:0:
448,192,77852,1,0,0:0:0:0:
192,192,77938,1,0,0:0:0:0:
320,192,77938,1,0,0:0:0:0:
64,192,78024,1,0,0:0:0:0:
448,192,78024,1,0,0:0:0:0:
192,192,78109,1,0,0:0:0:0:
320,192,78109,1,0,0:0:0:0:
64,192,78195,1,0,0:0:0:0:
448,192,78195,1,0,0:0:0:0:
64,192,78709,1,0,0:0:0:0:
192,192,78709,1,0,0:0:0:0:
320,192,78709,1,0,0:0:0:0:
320,192,79052,1,0,0:0:0:0:
448,192,79052,1,0,0:0:0:0:
64,192,79224,1,0,0:0:0:0:
192,192,79224,1,0,0:0:0:0:
192,192,79395,1,0,0:0:0:0:
320,192,79395,1,0,0:0:0:0:
64,192,79566,1,0,0:0:0:0:
320,192,79566,1,0,0:0:0:0:
448,192,79566,128,0,80938:0:0:0:0:
64,192,80938,1,0,0:0:0:0:
192,192,80938,1,0,0:0:0:0:
320,192,80938,1,0,0:0:0:0:
192,192,81109,1,0,0:0:0:0:
320,192,81109,1,0,0:0:0:0:
320,192,81281,1,0,0:0:0:0:
192,192,81452,1,0,0:0:0:0:
320,192,81452,1,0,0:0:0:0:
448,192,81452,1,0,0:0:0:0:
192,192,81795,1,0,0:0:0:0:
64,192,81966,1,0,0:0:0:0:
192,192,81966,1,0,0:0:0:0:
64,192,82309,1,0,0:0:0:0:
320,192,82309,1,0,0:0:0:0:
448,192,82309,1,0,0:0:0:0:
192,192,82481,1,0,0:0:0:0:
448,192,82652,1,0,0:0:0:0:
320,192,82824,1,0,0:0:0:0:
192,192,82824,1,0,0:0:0:0:
64,192,82824,1,0,0:0:0:0:
320,192,83166,1,0,0:0:0:0:
192,192,83338,1,0,0:0:0:0:
448,192,83338,1,0,0:0:0:0:
320,192,83338,1,0,0:0:0:0:
192,192,83509,1,0,0:0:0:0:
320,192,83681,1,0,0:0:0:0:
64,192,83681,1,0,0:0:0:0:
448,192,83681,1,0,0:0:0:0:
192,192,83852,1,0,0:0:0:0:
320,192,84024,1,0,0:0:0:0:
64,192,84195,1,0,0:0:0:0:
192,192,84195,1,0,0:0:0:0:
448,192,84195,1,0,0:0:0:0:
64,192,84538,1,0,0:0:0:0:
192,192,84538,1,0,0:0:0:0:
320,192,84538,1,0,0:0:0:0:
320,192,84709,1,0,0:0:0:0:
448,192,84709,1,0,0:0:0:0:
192,192,84709,1,0,0:0:0:0:
192,192,84881,1,0,0:0:0:0:
64,192,84881,1,0,0:0:0:0:
448,192,84881,1,0,0:0:0:0:
192,192,85224,1,0,0:0:0:0:
64,192,85395,1,0,0:0:0:0:
320,192,85395,1,0,0:0:0:0:
448,192,85395,1,0,0:0:0:0:
64,192,85566,1,0,0:0:0:0:
192,192,85566,1,0,0:0:0:0:
320,192,85738,1,0,0:0:0:0:
448,192,85738,1,0,0:0:0:0:
192,192,85909,1,0,0:0:0:0:
320,192,85909,1,0,0:0:0:0:
64,192,86081,1,0,0:0:0:0:
192,192,86081,1,0,0:0:0:0:
320,192,86081,1,0,0:0:0:0:
192,192,86252,1,0,0:0:0:0:
320,192,86252,1,0,0:0:0:0:
448,192,86252,1,0,0:0:0:0:
64,192,86595,1,0,0:0:0:0:
320,192,86595,1,0,0:0:0:0:
448,192,86595,1,0,0:0:0:0:
64,192,86766,1,0,0:0:0:0:
192,192,86766,1,0,0:0:0:0:
448,192,86766,1,0,0:0:0:0:
64,192,86938,1,0,0:0:0:0:
192,192,86938,1,0,0:0:0:0:
320,192,86938,1,0,0:0:0:0:
448,192,86938,1,0,0:0:0:0:
