osu file format v12

[General]
AudioFilename: megaman.mp3
AudioLeadIn: 1000
PreviewTime: 18102
Countdown: 0
SampleSet: Normal
StackLeniency: 0.7
Mode: 0
LetterboxInBreaks: 0
WidescreenStoryboard: 0

[Editor]
DistanceSpacing: 1
BeatDivisor: 4
GridSize: 4
TimelineZoom: 1

[Metadata]
Title:Theme Of Mega Man Battle Network 6
TitleUnicode:Theme Of Mega Man Battle Network 6
Artist:Yoshino Aoki
ArtistUnicode:Yoshino Aoki
Creator:Arnold0
Version:Normal
Source:Mega Man Battle Network 6
Tags:GBA game boy advance P_o_M_u_T_a Moway Rockman megaman PMT pomuta
BeatmapID:208331
BeatmapSetID:67834

[Difficulty]
HPDrainRate:4
CircleSize:3
OverallDifficulty:4
ApproachRate:5
SliderMultiplier:1.4
SliderTickRate:2

[Events]
//Background and Video events
0,0,"megaman.jpg",0,0
//Break Periods
//Storyboard Layer 0 (Background)
//Storyboard Layer 1 (Fail)
//Storyboard Layer 2 (Pass)
//Storyboard Layer 3 (Foreground)
//Storyboard Sound Samples
//Background Colour Transformations
3,100,163,162,255

[TimingPoints]
20,410.958904109589,4,1,0,70,1,0
18102,-100,4,1,0,70,0,1
19540,422.535211267606,4,1,0,70,1,0
19754,422.535211267606,4,1,0,70,1,0
24821,-100,4,1,0,70,0,0
36648,-100,4,1,0,70,0,1
41089,-100,4,1,0,60,0,1
41511,-100,4,1,0,50,0,1
42145,-100,4,1,0,40,0,1
42356,-100,4,1,0,30,0,0

[Colours]
Combo1 : 255,255,0
Combo2 : 255,0,0
Combo3 : 255,0,255
Combo4 : 0,0,255
Combo5 : 0,255,0
Combo6 : 0,255,255
Combo7 : 255,128,128
Combo8 : 128,255,128

[HitObjects]
120,216,1252,6,0,P|84:184|84:132,1,70
112,104,1663,2,0,P|216:64|324:60,1,210,4|2,0:0|0:0,0:0:0:0:
456,60,2691,2,0,P|480:124|480:208,1,140
412,316,3513,2,0,P|304:344|260:336,1,140,0|2,0:0|0:0,0:0:0:0:
140,320,4335,5,0,0:0:0:0:
72,300,4540,1,0,0:0:0:0:
28,248,4746,2,0,P|0:216|0:120,1,140
0,52,5362,1,0,0:0:0:0:
68,36,5567,2,0,P|132:8|192:36,1,140,2|0,0:0|0:0,0:0:0:0:
260,60,6184,1,0,0:0:0:0:
316,100,6389,1,0,0:0:0:0:
212,196,6800,2,0,P|144:224|88:272,1,140,0|2,0:0|0:0,0:0:0:0:
272,384,7828,6,0,P|340:364|360:352,1,70
396,324,8239,2,0,P|460:280|488:128,1,210,4|2,0:0|0:0,0:0:0:0:
400,56,9266,1,0,0:0:0:0:
344,16,9472,1,0,0:0:0:0:
288,60,9677,1,0,0:0:0:0:
172,140,10088,2,0,P|132:200|168:252,1,140,0|2,0:0|0:0,0:0:0:0:
292,316,10910,2,0,P|392:316|436:280,1,140
472,248,11526,6,0,P|472:116|424:32,1,210,0|2,0:0|0:0,0:0:0:0:
228,48,12759,1,0,0:0:0:0:
88,48,13170,2,0,P|60:112|60:196,1,140
60,320,13992,2,0,P|124:348|208:348,1,140,0|0,0:0|0:0,0:0:0:0:
332,352,14814,6,4,P|456:312|472:228,1,210
468,36,16047,1,4,0:0:0:0:
48,52,17280,6,0,P|60:152|228:236,1,280,0|4,0:0|0:0,0:0:0:0:
396,260,18718,1,8,0:0:0:0:
300,72,19335,2,0,L|248:24,1,70
180,24,19751,2,0,P|92:44|28:168,1,210,0|8,0:0|0:0,0:0:0:0:
112,252,20807,2,0,L|200:300,1,70
308,348,21441,6,0,P|412:368|484:296,1,210,0|8,0:0|0:0,0:0:0:0:
488,164,22497,1,8,0:0:0:0:
384,68,22920,2,0,P|328:36|308:36,1,70
188,36,23554,2,0,P|184:36|128:68,1,70
256,232,24399,1,8,0:0:0:0:
364,316,24821,6,0,P|440:248|452:132,1,210,4|8,0:0|0:0,0:0:0:0:
204,24,26300,2,0,L|132:24,1,70
28,24,26828,2,0,P|0:128|0:212,1,175,0|8,0:0|0:0,0:0:0:0:
0,332,27779,6,8,P|88:360|152:360,1,140,0|8,0:0|0:0,0:0:0:0:
276,372,28624,2,8,P|404:372|444:356,1,140,0|8,0:0|0:0,0:0:0:0:
472,240,29469,2,8,P|504:160|480:84,1,140,0|8,0:0|0:0,0:0:0:0:
372,40,30314,2,8,P|256:40|228:60,1,140
164,168,31159,1,8,0:0:0:0:
24,172,31582,6,0,P|40:244|344:364,1,420,4|0,0:0|0:0,0:0:0:0:
376,240,33272,2,8,P|380:140|276:116,1,210
220,112,34117,2,8,P|129:141|133:241,1,210
204,244,34962,6,0,P|264:344|300:244,1,280
268,180,36018,1,0,0:0:0:0:
224,124,36230,1,0,0:0:0:0:
168,80,36441,1,0,0:0:0:0:
108,48,36652,6,0,P|24:120|48:216,1,210,8|8,0:0|0:0,0:0:0:0:
284,360,38131,1,0,0:0:0:0:
356,360,38342,2,0,P|444:336|504:216,1,210,0|8,0:0|0:0,0:0:0:0:
224,16,40032,6,0,P|136:40|64:152,1,210,0|8,0:0|0:0,0:0:0:0:
208,136,41089,1,8,0:0:0:0:
348,136,41511,1,0,0:0:0:0:
348,204,41723,2,0,P|328:288|276:312,1,140,0|8,0:0|0:0,0:0:0:0:
216,308,42356,1,8,0:0:0:0:
