osu file format v5

[General]
AudioFilename: Work Guy.mp3
AudioLeadIn: 0
PreviewTime: -1
Countdown: 1
SampleSet: Normal
StackLeniency: 0.7
Mode: 0
LetterboxInBreaks: 1

[Metadata]
Title:Work Guy (TV Size)
Artist:Yoshiki Fukuyama
Creator:Sushi971
Version:Naeka (Normal)
Source:Kamen no Maid Guy Ending
Tags:Kamen, Maid, Guy

[Difficulty]
HPDrainRate:4
CircleSize:4
OverallDifficulty:5
SliderMultiplier:1
SliderTickRate:2

[Events]
//Background and Video events
0,0,"Work Guy2.jpg"
//Break Periods
2,48418,55318
//Storyboard Layer 0 (Background)
//Storyboard Layer 1 (Failing)
//Storyboard Layer 2 (Passing)
//Storyboard Layer 3 (Foreground)
//Storyboard Sound Samples
//Background Colour Transformations
3,100,163,162,255

[TimingPoints]
6350,250,4,1,0,76,1

[Colours]
Combo1 : 0,255,255
Combo2 : 255,255,0
Combo3 : 0,255,0
Combo4 : 255,128,0

[HitObjects]
232,216,6350,2,0,B|312:216,7,50
344,280,7600,2,2,L|144:280,1,200,2|2
144,216,8350,6,0,B|144:152,7,50
416,152,10350,6,0,B|416:208,7,50
416,288,11600,2,0,B|320:328|296:152,1,200,0|0
272,112,12350,6,0,B|200:112,2,50
336,112,12850,2,0,B|416:112,2,50
272,112,13350,6,2,B|208:184|144:112,4,150
360,112,15225,2,2,B|360:192|360:192|432:192|432:192|432:264|432:264|360:264|360:264|360:344|360:344|288:344|288:344|288:264|288:264|216:264|216:264|216:192|216:192|136:192,1,750,2|2
144,136,17350,5,0
144,136,17600,1,0
144,136,17850,1,0
264,136,18350,1,2
264,136,18600,1,2
264,136,18850,1,2
384,136,19350,5,0
384,136,19600,1,0
384,136,19850,2,0,B|384:304|384:304|384:192|184:208,1,400
56,216,21350,5,0
56,216,21600,1,0
56,216,21850,1,0
176,216,22350,1,0
264,216,22725,1,2
200,80,23350,5,4
304,80,23725,1,4
376,152,24100,2,4,B|256:320|120:136,1,300,4|4
264,112,25350,6,0,B|336:112,7,50,0|0|0|0|0|0|0|0
376,192,26600,2,2,B|376:288|376:288|264:288,1,200,2|2
208,288,27350,2,0,B|136:288,7,50
208,168,28600,6,0,B|104:168,2,100,0|0|0
208,104,29350,6,0,B|280:104,7,50
263,192,30600,2,0,B|479:192,1,200,0|0
464,248,31350,2,0,B|464:320,2,50
400,248,31850,2,0,B|400:312,3,50
128,264,33350,5,0
128,264,33600,1,0
128,264,33850,1,0
248,264,34350,1,2
248,264,34600,1,2
248,264,34850,1,2
248,144,35350,5,0
248,144,35600,1,0
248,144,35850,2,0,L|160:144,3,50
464,144,37350,5,0
464,144,37600,1,0
464,144,37850,1,0
464,144,38100,1,0
464,144,38350,2,2,B|400:144,4,50
264,144,39350,5,0
264,232,39725,1,2
176,200,40100,2,2,B|368:160|392:56|168:48|264:56|168:192|384:168,1,400
336,232,41350,6,0,B|320:280|320:280|304:232|304:232|288:280|288:280|272:232|272:232|256:280|256:280|240:232|240:232|224:288,1,350,0|0
144,280,42600,1,8
144,280,42850,1,8
144,280,43100,1,8
144,216,43350,2,0,L|160:168|176:216|192:168|208:216|224:168|240:216|256:168,1,350,0|0
344,192,44600,2,0,B|344:304,2,100
344,128,45350,5,4
344,128,45600,2,8,B|440:128,2,50
344,128,46100,2,8,B|344:56,2,50
344,128,46600,6,0,B|256:128,4,50
256,192,47350,12,4,48225
256,192,56600,5,0
256,192,56850,1,0
256,128,57100,1,0
256,128,57350,1,0
256,72,57600,2,2,B|256:16,1,50
104,24,58350,5,0
104,24,58600,1,0
104,80,58850,2,2,B|104:144,1,50
104,192,59225,1,0
432,192,60600,5,0
432,192,60850,1,0
432,192,61100,1,0
432,192,61350,2,0,L|248:192,2,150
432,192,62350,5,0
432,192,62600,1,0
432,192,62850,2,0,B|432:280,1,50
432,304,63225,1,0
104,288,64600,5,0
104,288,64850,1,0
104,224,65100,1,0
104,224,65350,1,2
104,160,65600,2,2,B|104:96,1,50
240,168,66350,5,0
240,168,66600,1,0
240,168,66850,2,0,B|328:168,1,50
352,168,67225,1,0
352,248,68600,5,0
288,248,68850,2,0,B|200:248,1,50
176,248,69225,1,0
112,248,69475,1,0
48,248,69725,1,2
256,192,70350,12,4,71850
312,168,72350,6,0,B|360:304|176:320|120:280|144:96|304:152,2,400
400,168,74725,5,2
248,168,75350,2,0,B|112:288,1,150
48,144,76350,2,0,B|-8:16|320:72|384:216,1,400,0|0
248,352,78100,5,0
248,352,78350,2,0,B|208:280|104:224|288:208,2,200
40,232,80350,6,0,B|16:288|80:336|328:232|144:-16|-16:48|-16:160|80:224|176:280|280:232|232:120|264:72|184:-8|-16:-8|192:144|120:112|184:104|384:-40|240:112,1,600
272,136,82100,5,0
272,136,82350,1,0
272,224,82725,1,2
272,312,83100,1,0
272,312,83350,1,0
184,312,83725,1,0
184,224,84100,1,0
136,184,84350,2,2,B|72:264|72:264|160:376,2,200
368,120,86350,5,0
280,120,86725,1,0
200,160,87100,1,4
200,160,87350,5,0
280,208,87725,1,0
368,208,88100,1,4
368,208,88350,2,0,B|488:208|472:328|336:304,1,200
256,280,89350,6,4,B|256:216,4,50
